osu file format v14

[General]
AudioFilename: audio.mp3
AudioLeadIn: 0
PreviewTime: 29048
Countdown: 0
SampleSet: Soft
StackLeniency: 0.3
Mode: 0
LetterboxInBreaks: 0
WidescreenStoryboard: 0

[Editor]
Bookmarks: 6062,14062,22062,30062,38062,46062,54062,62062
DistanceSpacing: 1
BeatDivisor: 4
GridSize: 4
TimelineZoom: 2.399999

[Metadata]
Title:FUCK YOU!
TitleUnicode:ふぁっくゆ~!
Artist:Kizuna AI
ArtistUnicode:キズナアイ
Creator:Kawashiro
Version:Expert
Source:
Tags:Virtual Youtuber BoNeOfDeer141 [_White_Music_] milr_ [_Zzz_] Moa
BeatmapID:1517653
BeatmapSetID:717343

[Difficulty]
HPDrainRate:7
CircleSize:4
OverallDifficulty:8
ApproachRate:9.2
SliderMultiplier:1.54999990463257
SliderTickRate:1

[Events]
//Background and Video events
0,0,"guilty.png",0,0
//Break Periods
//Storyboard Layer 0 (Background)
//Storyboard Layer 1 (Fail)
//Storyboard Layer 2 (Pass)
//Storyboard Layer 3 (Foreground)
//Storyboard Sound Samples

[TimingPoints]
2048,250,4,2,0,60,1,0
2048,-133.333333333333,4,2,0,60,0,0
5048,-500,4,2,0,60,0,0
5110,-500,4,2,0,15,0,0
6048,-100,4,2,0,60,0,0
22048,-100,4,2,0,50,0,0
29048,-500,4,2,0,60,0,0
30048,-100,4,2,0,60,0,0
46048,-83.3333333333333,4,2,0,70,0,1
62048,-100,4,2,0,60,0,0

[Colours]
Combo1 : 40,137,255
Combo2 : 255,111,183

[HitObjects]
256,124,2048,5,4,3:0:0:0:
148,80,2298,2,0,B|104:68|104:68|28:92,2,116.250000858307,0|0|0,0:0|0:0|0:0,0:0:0:0:
256,124,3048,1,4,3:0:0:0:
364,80,3298,2,0,B|408:68|408:68|484:92,2,116.250000858307,0|0|0,0:0|0:0|0:0,0:0:0:0:
128,152,4048,5,4,3:0:0:0:
124,156,4110,1,0,3:0:0:0:
120,160,4173,1,0,3:0:0:0:
116,164,4235,1,0,3:0:0:0:
112,168,4298,1,0,3:0:0:0:
108,172,4360,1,0,3:0:0:0:
104,176,4423,1,0,3:0:0:0:
100,180,4485,1,0,3:0:0:0:
96,184,4548,2,0,L|52:192,3,29.0625002145767,0|0|0|0,3:0|3:0|3:0|3:0,0:0:0:0:
140,252,4798,2,0,L|184:260,3,29.0625002145767,0|0|0|0,3:0|3:0|3:0|3:0,0:0:0:0:
68,304,5048,6,0,L|75:381,1,77.4999976158143,4|0,0:0|0:0,0:0:0:0:
432,88,6048,6,0,P|401:111|363:116,1,77.4999976158143,4|0,0:1|0:0,0:0:0:0:
288,80,6298,1,8,0:0:0:0:
431,183,6423,2,0,P|439:221|430:259,1,77.4999976158143,8|0,1:2|0:0,0:0:0:0:
259,234,6673,2,0,B|234:212|234:212|356:220,1,154.999995231629,8|0,1:2|0:0,0:0:0:0:
176,272,7048,6,0,L|64:276,1,77.4999976158143,4|0,0:3|0:0,0:0:0:0:
12,284,7298,1,8,0:0:0:0:
112,128,7423,2,0,B|129:149|129:149|133:199,1,77.4999976158143,8|0,1:2|0:0,0:0:0:0:
64,368,7673,2,0,B|36:352|36:352|158:345,1,154.999995231629,8|0,1:2|0:0,0:0:0:0:
312,336,8048,6,0,P|274:326|246:300,1,77.4999976158143,4|0,0:3|0:0,0:0:0:0:
240,216,8298,1,8,0:0:0:0:
388,238,8423,2,0,B|369:252|369:252|316:252,1,77.4999976158143,8|0,1:2|0:0,0:0:0:0:
464,300,8673,2,0,B|482:274|482:274|475:151,1,154.999995231629,8|0,1:2|0:0,0:0:0:0:
288,88,9048,6,0,P|318:111|356:117,1,77.4999976158143,4|0,1:3|3:0,0:0:0:0:
512,56,9298,2,0,P|481:32|443:26,1,77.4999976158143,4|0,1:3|3:0,0:0:0:0:
280,92,9548,2,0,P|310:115|348:121,1,77.4999976158143,4|0,1:3|3:0,0:0:0:0:
504,60,9798,2,0,P|473:36|435:30,1,77.4999976158143,4|0,1:3|3:0,0:0:0:0:
280,184,10048,6,0,L|288:296,1,77.4999976158143,4|0,3:2|0:0,0:0:0:0:
292,348,10298,1,8,0:0:0:0:
432,252,10423,2,0,P|402:228|364:223,1,77.4999976158143,8|0,1:2|0:0,0:0:0:0:
213,308,10673,2,0,B|248:324|248:324|363:308,1,154.999995231629,8|0,1:2|0:0,0:0:0:0:
391,143,11048,6,0,P|353:139|317:152,1,77.4999976158143,4|0,0:3|0:0,0:0:0:0:
364,223,11298,1,8,0:0:0:0:
464,96,11423,2,0,L|468:8,1,77.4999976158143,8|0,1:2|0:0,0:0:0:0:
250,88,11673,2,0,B|232:120|232:120|251:236,1,154.999995231629,8|0,1:2|0:0,0:0:0:0:
92,212,12048,6,0,B|104:192|104:192|184:192,1,77.4999976158143,4|0,0:3|0:0,0:0:0:0:
148,276,12298,1,8,0:0:0:0:
128,112,12423,2,0,L|132:28,1,77.4999976158143,8|0,1:2|0:0,0:0:0:0:
12,168,12673,2,0,L|23:322,1,154.999995231629,8|0,1:2|0:0,0:0:0:0:
200,352,13048,5,4,1:3:0:0:
200,352,13173,1,0,3:0:0:0:
92,212,13298,1,4,1:3:0:0:
92,212,13423,1,0,3:0:0:0:
264,192,13548,1,4,1:3:0:0:
264,192,13673,1,0,3:0:0:0:
124,300,13798,1,4,1:3:0:0:
124,300,13923,1,0,3:0:0:0:
320,344,14048,6,0,L|412:336,1,77.4999976158143,4|0,0:1|0:0,0:0:0:0:
484,328,14298,1,8,0:0:0:0:
396,200,14423,2,0,P|367:225|358:262,1,77.4999976158143,8|0,1:2|0:0,0:0:0:0:
488,152,14673,2,0,B|464:116|464:116|320:116,1,154.999995231629,8|0,1:2|0:0,0:0:0:0:
244,220,15048,6,0,B|264:208|264:208|272:144,1,77.4999976158143,4|0,0:3|0:0,0:0:0:0:
276,68,15298,1,8,0:0:0:0:
122,100,15423,2,0,L|200:108,1,77.4999976158143,8|0,1:2|0:0,0:0:0:0:
344,208,15673,2,0,B|292:232|292:232|194:223,1,154.999995231629,8|0,1:2|0:0,0:0:0:0:
280,376,16048,6,0,P|305:346|309:298,1,77.4999976158143,4|0,0:3|0:0,0:0:0:0:
225,306,16298,1,8,0:0:0:0:
388,364,16423,2,0,L|472:360,1,77.4999976158143,8|0,1:2|0:0,0:0:0:0:
225,306,16673,2,0,L|70:313,1,154.999995231629,8|0,1:2|0:0,0:0:0:0:
108,160,17048,6,0,B|128:184|128:184|136:240,1,77.4999976158143,4|0,1:3|3:0,0:0:0:0:
198,375,17298,2,0,B|218:351|218:351|226:295,1,77.4999976158143,4|0,1:3|3:0,0:0:0:0:
288,160,17548,2,0,B|308:184|308:184|316:240,1,77.4999976158143,4|0,1:3|3:0,0:0:0:0:
378,375,17798,2,0,B|398:351|398:351|406:295,1,77.4999976158143,4|0,1:3|3:0,0:0:0:0:
512,208,18048,6,0,P|473:203|431:223,1,77.4999976158143,4|0,3:2|0:0,0:0:0:0:
487,287,18298,1,8,0:0:0:0:
448,128,18423,2,0,L|451:50,1,77.4999976158143,8|0,1:2|0:0,0:0:0:0:
273,148,18673,2,0,B|252:176|252:176|372:168,1,154.999995231629,8|0,1:2|0:0,0:0:0:0:
208,248,19048,6,0,L|130:243,1,77.4999976158143,4|0,0:3|0:0,0:0:0:0:
44,236,19298,1,8,0:0:0:0:
268,320,19423,2,0,B|288:296|288:296|296:248,1,77.4999976158143,8|0,1:2|0:0,0:0:0:0:
128,84,19673,2,0,P|104:148|171:163,1,154.999995231629,8|0,1:2|0:0,0:0:0:0:
352,104,20048,6,0,L|360:16,1,77.4999976158143,4|0,0:3|0:0,0:0:0:0:
280,56,20298,1,8,0:0:0:0:
424,148,20423,2,0,B|452:156|452:156|499:145,1,77.4999976158143,8|0,1:2|0:0,0:0:0:0:
365,306,20673,2,0,B|344:321|344:321|352:192,1,154.999995231629,8|0,1:2|0:0,0:0:0:0:
256,328,21048,5,4,1:3:0:0:
256,328,21173,1,0,3:0:0:0:
468,288,21298,1,4,1:3:0:0:
468,288,21423,1,0,3:0:0:0:
236,236,21548,1,4,1:3:0:0:
236,236,21673,1,0,3:0:0:0:
448,196,21798,1,4,1:3:0:0:
448,196,21923,1,0,3:0:0:0:
308,40,22048,5,4,0:3:0:0:
280,53,22110,1,0,0:0:0:0:
262,78,22173,1,0,0:0:0:0:
259,109,22235,1,0,0:0:0:0:
270,137,22298,1,0,0:0:0:0:
295,155,22360,1,0,0:0:0:0:
326,158,22423,1,0,0:0:0:0:
355,145,22485,1,0,0:0:0:0:
373,120,22548,2,0,L|376:80,3,38.7499988079071,2|0|0|0,0:3|0:0|0:0|0:0,0:0:0:0:
452,136,22798,2,0,L|455:96,3,38.7499988079071,0|0|0|0,0:0|0:0|0:0|0:0,0:0:0:0:
492,212,23048,5,2,0:3:0:0:
460,212,23110,1,0,0:0:0:0:
428,220,23173,1,0,0:0:0:0:
400,236,23235,1,0,0:0:0:0:
384,264,23298,2,0,L|380:336,3,38.7499988079071,0|0|0|0,0:0|0:0|0:0|0:0,0:0:0:0:
300,332,23548,2,0,L|296:260,3,38.7499988079071,2|0|0|0,0:3|0:0|0:0|0:0,0:0:0:0:
216,264,23798,2,0,L|212:336,3,38.7499988079071,0|0|0|0,0:0|0:0|0:0|0:0,0:0:0:0:
120,332,24048,5,4,0:3:0:0:
100,308,24110,1,0,0:0:0:0:
92,276,24173,1,0,0:0:0:0:
100,248,24235,1,0,0:0:0:0:
116,224,24298,1,0,0:0:0:0:
132,200,24361,1,0,0:0:0:0:
140,172,24423,1,0,0:0:0:0:
132,140,24486,1,0,0:0:0:0:
112,116,24548,2,0,L|72:120,3,38.7499988079071,2|0|0|0,0:3|0:0|0:0|0:0,0:0:0:0:
148,40,24798,2,0,L|108:36,3,38.7499988079071,0|0|0|0,0:0|0:0|0:0|0:0,0:0:0:0:
212,100,25048,5,2,0:3:0:0:
244,96,25110,1,0,0:0:0:0:
276,92,25173,1,0,0:0:0:0:
308,88,25235,1,0,0:0:0:0:
340,84,25298,2,0,L|344:128,3,38.7499988079071,0|0|0|0,0:0|0:0|0:0|0:0,0:0:0:0:
400,184,25548,2,0,L|396:228,3,38.7499988079071,2|0|0|0,0:3|0:0|0:0|0:0,0:0:0:0:
344,292,25798,2,0,L|348:336,3,38.7499988079071,0|0|0|0,0:0|0:0|0:0|0:0,0:0:0:0:
264,364,26048,5,4,0:3:0:0:
236,348,26110,1,0,0:0:0:0:
220,320,26173,1,0,0:0:0:0:
220,288,26235,1,0,0:0:0:0:
232,260,26298,1,0,0:0:0:0:
232,228,26360,1,0,0:0:0:0:
216,200,26423,1,0,0:0:0:0:
188,184,26485,1,0,0:0:0:0:
156,188,26548,2,0,L|152:240,3,38.7499988079071,2|0|0|0,0:3|0:0|0:0|0:0,0:0:0:0:
80,160,26798,2,0,L|62:209,3,38.7499988079071,0|0|0|0,0:0|0:0|0:0|0:0,0:0:0:0:
36,84,27048,5,2,0:3:0:0:
64,72,27110,1,0,0:0:0:0:
96,72,27173,1,0,0:0:0:0:
124,80,27235,1,0,0:0:0:0:
148,100,27298,2,0,L|152:56,3,38.7499988079071,0|0|0|0,0:0|0:0|0:0|0:0,0:0:0:0:
232,88,27548,2,0,L|236:132,3,38.7499988079071,2|0|0|0,0:3|0:0|0:0|0:0,0:0:0:0:
316,100,27798,2,0,L|320:56,3,38.7499988079071,0|0|0|0,0:0|0:0|0:0|0:0,0:0:0:0:
400,88,28048,5,4,3:0:0:0:
404,92,28110,1,0,3:0:0:0:
408,96,28173,1,0,3:0:0:0:
412,100,28235,1,0,3:0:0:0:
416,104,28298,1,0,3:0:0:0:
420,108,28360,1,0,3:0:0:0:
424,112,28423,1,0,3:0:0:0:
428,116,28485,1,0,3:0:0:0:
432,120,28548,2,0,L|480:128,3,38.7499988079071,0|0|0|0,3:0|3:0|3:0|3:0,0:0:0:0:
388,188,28798,2,0,L|340:196,3,38.7499988079071,0|0|0|0,3:0|3:0|3:0|3:0,0:0:0:0:
452,244,29048,6,0,L|448:305,1,61.9999980926514,4|0,0:0|0:0,0:0:0:0:
176,256,30048,6,0,L|276:264,1,77.4999976158143,4|0,0:1|0:0,0:0:0:0:
340,268,30298,1,8,0:0:0:0:
176,172,30423,2,0,P|138:180|108:204,1,77.4999976158143,8|0,1:2|0:0,0:0:0:0:
292,340,30673,2,0,B|304:276|304:276|292:248|292:248|300:189,1,154.999995231629,8|0,1:2|0:0,0:0:0:0:
484,264,31048,6,0,B|463:277|463:277|396:272,1,77.4999976158143,4|0,0:3|0:0,0:0:0:0:
440,192,31298,1,8,0:0:0:0:
476,360,31423,2,0,L|399:351,1,77.4999976158143,8|0,1:2|0:0,0:0:0:0:
192,312,31673,2,0,B|216:292|216:292|339:304,1,154.999995231629,8|0,1:2|0:0,0:0:0:0:
276,144,32048,6,0,P|252:174|246:212,1,77.4999976158143,4|0,0:3|0:0,0:0:0:0:
332,208,32298,1,8,0:0:0:0:
180,136,32423,2,0,L|102:139,1,77.4999976158143,8|0,1:2|0:0,0:0:0:0:
316,60,32673,2,0,B|440:64|440:64|404:48,1,154.999995231629,8|0,1:2|0:0,0:0:0:0:
244,20,33048,6,0,B|238:71|238:71|246:95,1,77.4999976158143,4|4,1:3|0:3,0:0:0:0:
464,192,33298,2,0,B|472:168|472:168|466:116,1,77.4999976158143,0|4,1:3|0:3,0:0:0:0:
244,184,33548,2,0,B|238:235|238:235|246:259,1,77.4999976158143,4|4,1:3|0:3,0:0:0:0:
464,356,33798,2,0,B|472:332|472:332|466:280,1,77.4999976158143,4|4,1:3|0:3,0:0:0:0:
348,80,34048,6,0,B|340:104|340:104|345:155,1,77.4999976158143,4|0,3:2|0:0,0:0:0:0:
360,240,34298,1,8,0:0:0:0:
504,128,34423,2,0,P|468:113|430:117,1,77.4999976158143,8|0,1:2|0:0,0:0:0:0:
284,208,34673,2,0,B|292:224|308:228|308:228|444:216,1,154.999995231629,8|0,1:2|0:0,0:0:0:0:
260,304,35048,6,0,B|256:288|228:288|228:288|186:285,1,77.4999976158143,4|0,0:3|0:0,0:0:0:0:
108,308,35298,1,8,0:0:0:0:
300,376,35423,2,0,B|304:359|332:359|332:359|373:357,1,77.4999976158143,8|0,1:2|0:0,0:0:0:0:
288,156,35673,2,0,B|263:161|263:193|263:193|268:300,1,154.999995231629,8|0,1:2|0:0,0:0:0:0:
104,176,36048,6,0,B|118:164|118:164|188:168,1,77.4999976158143,4|0,0:3|0:0,0:0:0:0:
152,248,36298,1,8,0:0:0:0:
120,88,36423,2,0,B|116:36|116:36|127:10,1,77.4999976158143,8|0,1:2|0:0,0:0:0:0:
16,200,36673,2,0,B|16:320|16:320|39:293,1,154.999995231629,8|0,1:2|0:0,0:0:0:0:
40,104,37048,5,4,1:3:0:0:
40,104,37173,1,4,0:3:0:0:
128,324,37298,1,4,1:3:0:0:
128,324,37423,1,4,0:3:0:0:
236,112,37548,1,4,1:3:0:0:
236,112,37673,1,4,0:3:0:0:
16,200,37798,1,4,1:3:0:0:
16,200,37923,1,4,0:3:0:0:
284,236,38048,6,0,L|380:224,1,77.4999976158143,4|0,0:1|0:0,0:0:0:0:
316,152,38298,1,8,0:0:0:0:
336,308,38423,2,0,B|344:368|344:368|360:348,1,77.4999976158143,8|0,1:2|0:0,0:0:0:0:
428,160,38673,2,0,B|444:128|444:128|464:308,1,154.999995231629,8|0,1:2|0:0,0:0:0:0:
284,233,39048,6,0,B|303:226|303:226|360:226,1,77.4999976158143,4|0,0:3|0:0,0:0:0:0:
336,308,39298,1,8,0:0:0:0:
240,160,39423,2,0,P|232:116|240:72,1,77.4999976158143,8|0,1:2|0:0,0:0:0:0:
100,216,39673,2,0,B|80:232|80:232|240:240,1,154.999995231629,8|0,1:2|0:0,0:0:0:0:
136,384,40048,6,0,P|121:364|120:308,1,77.4999976158143,4|0,0:3|0:0,0:0:0:0:
200,332,40298,1,8,0:0:0:0:
52,260,40423,2,0,P|37:279|36:336,1,77.4999976158143,8|0,1:2|0:0,0:0:0:0:
200,332,40673,2,0,B|224:320|220:284|220:284|212:185,1,154.999995231629,8|0,1:2|0:0,0:0:0:0:
108,36,41048,6,0,B|80:56|80:56|132:68,1,77.4999976158143,4|4,1:3|0:3,0:0:0:0:
360,120,41298,2,0,B|388:100|388:100|336:88,1,77.4999976158143,4|4,1:3|0:3,0:0:0:0:
124,188,41548,2,0,B|96:208|96:208|148:220,1,77.4999976158143,4|4,1:3|0:3,0:0:0:0:
376,272,41798,2,0,B|404:252|404:252|352:240,1,77.4999976158143,4|4,1:3|0:3,0:0:0:0:
132,348,42048,6,0,P|160:373|197:380,1,77.4999976158143,4|0,3:2|0:0,0:0:0:0:
283,368,42298,1,8,0:0:0:0:
156,264,42423,2,0,P|116:260|81:275,1,77.4999976158143,8|0,1:2|0:0,0:0:0:0:
283,368,42673,2,0,L|287:213,1,154.999995231629,8|0,1:2|0:0,0:0:0:0:
452,80,43048,6,0,B|428:92|428:92|348:80,1,77.4999976158143,4|0,0:3|0:0,0:0:0:0:
292,72,43298,1,8,0:0:0:0:
388,244,43423,2,0,L|400:148,1,77.4999976158143,8|0,1:2|0:0,0:0:0:0:
448,311,43673,2,0,P|376:334|311:296,1,154.999995231629,8|0,1:2|0:0,0:0:0:0:
128,224,44048,6,0,P|164:211|216:224,1,77.4999976158143,4|0,0:3|0:0,0:0:0:0:
172,296,44298,1,8,0:0:0:0:
156,136,44423,2,0,L|160:48,1,77.4999976158143,8|0,1:2|0:0,0:0:0:0:
352,88,44673,2,0,B|376:108|376:108|253:104,1,154.999995231629,8|0,1:2|0:0,0:0:0:0:
20,104,45048,5,4,1:3:0:0:
20,104,45173,1,4,0:3:0:0:
116,288,45298,1,4,1:3:0:0:
116,288,45423,1,4,0:3:0:0:
204,8,45548,1,4,1:3:0:0:
204,8,45673,1,4,0:3:0:0:
300,192,45798,1,4,1:3:0:0:
300,192,45923,1,4,0:3:0:0:
60,216,46048,6,0,P|30:251|25:296,1,92.9999943008425,4|0,0:1|0:0,0:0:0:0:
80,372,46298,1,8,0:0:0:0:
184,200,46423,2,0,L|176:100,1,92.9999943008425,8|0,3:2|0:0,0:0:0:0:
360,264,46673,2,0,B|376:289|376:289|316:296|316:296|288:280|288:280|225:286,1,185.999988601685,8|0,1:2|0:0,0:0:0:0:
80,372,47048,6,0,B|108:384|108:384|192:376,1,92.9999943008425,4|0,0:3|0:0,0:0:0:0:
264,368,47298,1,8,0:0:0:0:
154,215,47423,2,0,P|129:254|128:300,1,92.9999943008425,8|0,1:2|0:0,0:0:0:0:
356,351,47673,2,0,B|380:328|380:328|372:168,1,185.999988601685,8|0,1:2|0:0,0:0:0:0:
208,72,48048,6,0,B|196:100|196:100|200:172,1,92.9999943008425,4|0,0:3|0:0,0:0:0:0:
288,128,48298,1,8,0:0:0:0:
112,112,48423,2,0,L|-8:96,1,92.9999943008425,8|0,1:2|0:0,0:0:0:0:
156,232,48673,2,0,B|196:256|244:232|244:232|292:208|336:232,1,185.999988601685,8|0,1:2|0:0,0:0:0:0:
312,368,49048,6,0,B|296:380|296:380|288:300,1,92.9999943008425,4|4,1:3|0:3,0:0:0:0:
240,32,49298,2,0,B|224:20|224:20|216:100,1,92.9999943008425,4|4,1:3|0:3,0:0:0:0:
192,376,49548,2,0,B|176:388|176:388|168:308,1,92.9999943008425,4|4,1:3|0:3,0:0:0:0:
120,40,49798,2,0,B|104:28|104:28|96:108,1,92.9999943008425,4|4,1:3|0:3,0:0:0:0:
0,260,50048,6,0,B|20:276|20:276|120:268,1,92.9999943008425,4|0,3:2|0:0,0:0:0:0:
168,224,50298,1,8,0:0:0:0:
88,360,50423,2,0,B|68:376|68:376|-32:368,1,92.9999943008425,8|0,1:2|0:0,0:0:0:0:
244,272,50673,2,0,B|370:283|370:283|366:311|322:308,1,185.999988601685,8|0,1:2|0:0,0:0:0:0:
228,144,51048,6,0,P|220:98|233:54,1,92.9999943008425,4|0,0:3|0:0,0:0:0:0:
312,104,51298,1,8,0:0:0:0:
144,184,51423,2,0,B|68:180|68:180|88:204,1,92.9999943008425,8|0,1:2|0:0,0:0:0:0:
280,352,51673,2,0,B|296:364|296:364|296:184,1,185.999988601685,8|0,1:2|0:0,0:0:0:0:
476,252,52048,6,0,P|435:272|389:266,1,92.9999943008425,4|0,0:3|0:0,0:0:0:0:
420,180,52298,1,8,0:0:0:0:
416,348,52423,2,0,P|370:353|329:333,1,92.9999943008425,8|0,1:2|0:0,0:0:0:0:
148,252,52673,2,0,B|128:260|116:276|116:276|148:300|224:300|256:276,1,185.999988601685,8|0,1:2|0:0,0:0:0:0:
88,192,53048,5,4,1:3:0:0:
88,192,53173,1,4,0:3:0:0:
212,376,53298,1,4,1:3:0:0:
212,376,53423,1,4,0:3:0:0:
336,160,53548,1,4,1:3:0:0:
336,160,53673,1,4,0:3:0:0:
460,344,53798,1,4,1:3:0:0:
460,344,53923,1,4,0:3:0:0:
260,212,54048,6,0,P|243:169|250:123,1,92.9999943008425,4|0,0:1|0:0,0:0:0:0:
323,63,54298,1,8,0:0:0:0:
160,180,54423,2,0,L|60:172,1,92.9999943008425,8|0,1:2|0:0,0:0:0:0:
353,251,54673,2,0,B|444:244|444:244|488:252|492:288|460:312,1,185.999988601685,8|0,1:2|0:0,0:0:0:0:
376,148,55048,6,0,B|364:104|364:104|376:48,1,92.9999943008425,4|0,0:3|0:0,0:0:0:0:
460,100,55298,1,8,0:0:0:0:
284,155,55423,2,0,P|238:148|203:118,1,92.9999943008425,8|0,1:2|0:0,0:0:0:0:
277,326,55673,2,0,B|304:368|304:368|333:233,1,185.999988601685,8|0,1:2|0:0,0:0:0:0:
512,260,56048,6,0,P|500:312|468:344,1,92.9999943008425,4|0,0:3|0:0,0:0:0:0:
384,360,56298,1,8,0:0:0:0:
280,168,56423,2,0,P|310:152|376:164,1,92.9999943008425,8|0,1:2|0:0,0:0:0:0:
196,284,56673,2,0,L|8:276,1,185.999988601685,8|0,1:2|0:0,0:0:0:0:
82,66,57048,6,0,B|104:47|104:47|113:133,1,92.9999943008425,4|4,1:3|0:3,0:0:0:0:
220,344,57298,2,0,B|197:362|197:362|188:276,1,92.9999943008425,4|4,1:3|0:3,0:0:0:0:
289,138,57548,2,0,B|307:160|307:160|231:168,1,92.9999943008425,4|4,1:3|0:3,0:0:0:0:
10,276,57798,2,0,B|-8:253|-8:253|67:245,1,92.9999943008425,4|4,1:3|0:3,0:0:0:0:
312,308,58048,6,0,P|358:305|400:276,1,92.9999943008425,4|0,3:2|0:0,0:0:0:0:
328,216,58298,1,8,0:0:0:0:
484,348,58423,2,0,B|500:320|500:320|496:240,1,92.9999943008425,8|0,1:2|0:0,0:0:0:0:
284,156,58673,2,0,B|254:182|254:182|399:189,1,185.999988601685,8|0,1:2|0:0,0:0:0:0:
412,14,59048,6,0,P|376:43|360:86,1,92.9999943008425,4|0,0:3|0:0,0:0:0:0:
451,96,59298,1,8,0:0:0:0:
272,20,59423,2,0,B|212:16|212:16|172:32,1,92.9999943008425,8|0,1:2|0:0,0:0:0:0:
157,214,59673,2,0,B|168:244|216:243|220:207|220:207|232:108,1,185.999988601685,8|0,1:2|0:0,0:0:0:0:
396,192,60048,6,0,B|372:208|372:208|300:204,1,92.9999943008425,4|0,0:3|0:0,0:0:0:0:
340,116,60298,1,8,0:0:0:0:
344,288,60423,2,0,B|279:291|279:291|255:275,1,92.9999943008425,8|0,1:2|0:0,0:0:0:0:
448,332,60673,2,0,B|480:308|480:308|480:132,1,185.999988601685,8|0,1:2|0:0,0:0:0:0:
264,80,61048,5,4,0:3:0:0:
236,96,61110,1,4,0:3:0:0:
220,124,61173,1,4,0:3:0:0:
224,156,61235,1,4,0:3:0:0:
244,184,61298,2,0,L|356:196,1,92.9999943008425,4|0,0:3|0:0,0:0:0:0:
404,244,61485,1,4,0:3:0:0:
384,272,61548,2,0,L|272:284,1,92.9999943008425,4|0,0:3|0:0,0:0:0:0:
112,240,61798,6,0,P|131:257|140:280,1,46.4999971504213,4|4,0:3|0:3,0:0:0:0:
200,324,61923,2,0,P|183:343|160:352,1,46.4999971504213,4|4,0:3|0:3,0:0:0:0:
88,336,62048,1,4,0:1:0:0:
256,192,62173,12,0,64048,0:0:0:0:
