osu file format v14

[General]
AudioFilename: audio.mp3
AudioLeadIn: 0
PreviewTime: 25430
Countdown: 0
SampleSet: Soft
StackLeniency: 0.7
Mode: 3
LetterboxInBreaks: 0
SpecialStyle: 0
WidescreenStoryboard: 0

[Editor]
Bookmarks: 117990
DistanceSpacing: 1.1
BeatDivisor: 6
GridSize: 8
TimelineZoom: 1

[Metadata]
Title:AIAIAI (feat. Nakata Yasutaka)
TitleUnicode:AIAIAI (feat. 中田ヤスタカ)
Artist:Kizuna AI
ArtistUnicode:キズナアイ
Creator:Muu-chan
Version:HARD AI
Source:バーチャルさんはみている
Tags:Drum-Hitnormal dudehacker _Asha Envory Virtual San wa Miteiru VIRTUALSAN-LOOKING WACCA Youtuber VTuber japanese anime jpop j-pop pop opening op hello world
BeatmapID:1981927
BeatmapSetID:949106

[Difficulty]
HPDrainRate:7.6
CircleSize:4
OverallDifficulty:7.8
ApproachRate:5
SliderMultiplier:1.4
SliderTickRate:1

[Events]
//Background and Video events
0,0,"aai1.png",0,0
//Break Periods
//Storyboard Layer 0 (Background)
//Storyboard Layer 1 (Fail)
//Storyboard Layer 2 (Pass)
//Storyboard Layer 3 (Foreground)
//Storyboard Layer 4 (Overlay)
//Storyboard Sound Samples

[TimingPoints]
235,468.75,4,2,1,70,1,0
18985,-100,4,2,1,70,0,1
25547,-100,4,2,1,70,0,0
26485,-100,4,2,1,70,0,1
33985,-100,4,2,1,70,0,0
78985,-100,4,2,1,70,0,1
85547,-100,4,2,1,70,0,0
86485,-100,4,2,1,70,0,1
92110,-100,4,2,1,70,0,0
108985,-100,4,2,2,50,0,0
123516,-100,4,2,1,70,0,0
155860,-100,4,2,1,70,0,1
162422,-100,4,2,1,70,0,0
163360,-100,4,2,1,70,0,1
168985,-100,4,2,1,70,0,0
170860,-100,4,2,2,50,0,0
177774,-100,4,2,1,70,0,0

[HitObjects]
192,192,235,5,0,0:0:0:0:
192,192,703,1,0,0:0:0:0:
192,192,1172,1,0,0:0:0:0:
64,192,1406,1,0,0:0:0:70:LR_Tom Hit.wav
448,192,1406,1,0,0:0:0:0:
192,192,1641,1,0,0:0:0:70:LR_Tom Hit 2.wav
320,192,1641,1,0,0:0:0:0:
320,192,1875,1,0,0:0:0:70:LR_Tom Hit 3.wav
448,192,1875,1,0,0:0:0:0:
64,192,2110,128,2,2578:0:0:0:0:
192,192,2110,128,4,2578:0:0:0:0:
448,192,2110,1,0,0:0:0:0:
320,192,2578,1,0,0:0:0:0:
192,192,2813,1,2,0:0:0:0:
448,192,2813,1,0,0:0:0:0:
320,192,3047,128,2,3516:0:0:0:0:
448,192,3047,128,0,3516:0:0:0:0:
64,192,3516,1,0,0:0:0:0:
192,192,3750,1,0,0:0:0:0:
320,192,3867,1,0,0:0:0:0:
64,192,3985,1,2,0:0:0:0:
192,192,3985,128,0,4453:0:0:0:0:
448,192,4219,1,0,0:0:0:0:
320,192,4453,1,0,0:0:0:0:
64,192,4688,1,2,0:0:0:0:
448,192,4688,1,0,0:0:0:0:
192,192,4922,128,2,5156:0:0:0:0:
448,192,4922,128,0,5391:0:0:0:0:
64,192,5391,128,0,5625:0:0:0:0:
320,192,5391,128,0,5860:0:0:0:0:
192,192,5625,1,0,0:0:0:0:
64,192,5860,128,2,6328:0:0:0:0:
448,192,5860,128,0,6328:0:0:0:0:
320,192,6328,1,0,0:0:0:0:
64,192,6563,1,2,0:0:0:0:
192,192,6563,1,0,0:0:0:0:
320,192,6797,128,2,7266:0:0:0:0:
448,192,6797,128,0,7266:0:0:0:0:
64,192,7149,1,0,0:0:0:0:
192,192,7266,1,0,0:0:0:0:
320,192,7500,1,0,0:0:0:0:
64,192,7735,128,2,8672:0:0:0:0:
448,192,7735,128,0,8438:0:0:0:0:
192,192,8438,1,0,0:0:0:0:
320,192,8555,1,0,0:0:0:0:
192,192,8672,1,0,0:0:0:0:
320,192,8906,1,0,0:0:0:0:
64,192,9024,1,8,0:0:0:0:
192,192,9141,1,2,0:0:0:0:
448,192,9141,128,0,9258:0:0:0:0:
320,192,9375,128,8,9492:0:0:0:0:
64,192,9492,1,0,0:0:0:0:
192,192,9610,128,2,9844:0:0:0:0:
448,192,9610,1,0,0:0:0:0:
64,192,9844,1,0,0:0:0:0:
320,192,9961,1,8,0:0:0:0:
448,192,9961,1,0,0:0:0:0:
64,192,10078,128,2,10313:0:0:0:0:
192,192,10078,1,0,0:0:0:0:
192,192,10313,1,8,0:0:0:0:
320,192,10313,1,0,0:0:0:0:
320,192,10547,128,8,10781:0:0:0:0:
448,192,10547,1,2,0:0:0:0:
64,192,10781,1,0,0:0:0:0:
192,192,10899,1,8,0:0:0:0:
448,192,10899,1,0,0:0:0:0:
64,192,11016,128,2,11250:0:0:0:0:
320,192,11016,1,0,0:0:0:0:
192,192,11250,1,8,0:0:0:0:
448,192,11250,1,0,0:0:0:0:
64,192,11485,1,2,0:0:0:0:
448,192,11485,128,0,11719:0:0:0:0:
320,192,11719,1,0,0:0:0:0:
64,192,11836,128,8,11953:0:0:0:0:
192,192,11836,1,0,0:0:0:0:
320,192,11953,1,2,0:0:0:0:
448,192,11953,1,0,0:0:0:0:
192,192,12188,128,8,12422:0:0:0:0:
448,192,12188,1,0,0:0:0:0:
64,192,12422,1,8,0:0:0:0:
320,192,12422,128,2,12891:0:0:0:0:
448,192,12656,1,0,0:0:0:0:
64,192,12774,1,8,0:0:0:0:
192,192,12774,1,0,0:0:0:0:
448,192,12891,128,2,13125:0:0:0:0:
192,192,13125,1,8,0:0:0:0:
320,192,13242,1,0,0:0:0:0:
64,192,13360,1,8,0:0:0:0:
448,192,13360,1,0,0:0:0:0:
192,192,13477,1,0,0:0:0:0:
320,192,13594,1,8,0:0:0:0:
192,192,13711,1,0,0:0:0:0:
64,192,13828,1,8,0:0:0:0:
448,192,13828,1,0,0:0:0:0:
320,192,13945,1,0,0:0:0:0:
192,192,14063,1,8,0:0:0:0:
320,192,14180,1,0,0:0:0:0:
64,192,14297,1,8,0:0:0:0:
448,192,14297,1,0,0:0:0:0:
192,192,14414,1,0,0:0:0:0:
320,192,14531,1,8,0:0:0:0:
448,192,14649,1,0,0:0:0:0:
64,192,14766,1,8,0:0:0:0:
192,192,14766,1,0,0:0:0:0:
320,192,14883,1,0,0:0:0:0:
192,192,15000,1,8,0:0:0:0:
64,192,15117,1,0,0:0:0:0:
320,192,15235,1,2,0:0:0:0:
448,192,15235,1,0,0:0:0:0:
192,192,15313,1,0,0:0:0:0:
64,192,15391,1,0,0:0:0:0:
448,192,15469,1,0,0:0:0:0:
320,192,15547,1,0,0:0:0:0:
192,192,15625,1,0,0:0:0:0:
320,192,15703,1,8,0:0:0:0:
448,192,15781,1,0,0:0:0:0:
64,192,15860,1,0,0:0:0:0:
192,192,15938,1,0,0:0:0:0:
320,192,16016,1,0,0:0:0:0:
448,192,16094,1,0,0:0:0:0:
64,192,16172,1,2,0:0:0:0:
192,192,16250,1,0,0:0:0:0:
320,192,16328,1,0,0:0:0:0:
192,192,16406,1,0,0:0:0:0:
64,192,16485,1,0,0:0:0:0:
448,192,16563,1,0,0:0:0:0:
320,192,16641,1,8,0:0:0:0:
192,192,16719,1,0,0:0:0:0:
64,192,16797,1,0,0:0:0:0:
448,192,16875,1,2,0:0:0:0:
320,192,16953,1,0,0:0:0:0:
192,192,17031,1,0,0:0:0:0:
64,192,17110,1,8,0:0:0:0:
448,192,17110,1,0,0:0:0:0:
320,192,17461,1,0,0:0:0:0:
192,192,17578,1,0,0:0:0:0:
64,192,17813,1,0,0:0:0:0:
320,192,18047,1,8,0:0:0:0:
448,192,18047,1,2,0:0:0:0:
192,192,18281,1,0,0:0:0:0:
320,192,18399,1,0,0:0:0:70:LR_Tom Hit.wav
448,192,18399,1,0,0:0:0:0:
64,192,18516,1,0,0:0:0:0:
192,192,18516,128,0,18750:0:0:0:0:
64,192,18750,128,0,18985:0:0:0:70:LR_Tom Hit 2.wav
448,192,18750,1,0,0:0:0:0:
192,192,18985,1,2,0:0:0:0:
320,192,18985,1,4,0:0:0:0:
448,192,18985,128,0,19453:0:0:0:0:
64,192,19219,1,0,0:0:0:0:
192,192,19453,128,2,19688:0:0:0:0:
320,192,19453,1,8,0:0:0:0:
64,192,19688,1,0,0:0:0:0:
448,192,19688,128,0,19922:0:0:0:0:
64,192,19922,128,2,20391:0:0:0:0:
320,192,19922,1,0,0:0:0:0:
192,192,20156,1,0,0:0:0:0:
320,192,20391,128,2,20625:0:0:0:0:
448,192,20391,1,8,0:0:0:0:
64,192,20625,1,0,0:0:0:0:
192,192,20625,128,0,20860:0:0:0:0:
320,192,20860,1,2,0:0:0:0:
448,192,20860,128,0,21094:0:0:0:0:
64,192,21094,128,0,21328:0:0:0:0:
320,192,21094,1,0,0:0:0:0:
192,192,21328,128,2,21563:0:0:0:0:
448,192,21328,1,8,0:0:0:0:
64,192,21563,1,0,0:0:0:0:
320,192,21563,128,0,21797:0:0:0:0:
192,192,21797,1,2,0:0:0:0:
448,192,21797,128,0,22266:0:0:0:0:
320,192,22031,1,0,0:0:0:0:
64,192,22266,128,2,22500:0:0:0:0:
192,192,22266,1,8,0:0:0:0:
320,192,22500,128,0,22735:0:0:0:0:
448,192,22500,1,0,0:0:0:0:
64,192,22735,1,2,0:0:0:0:
448,192,22735,128,0,23203:0:0:0:0:
192,192,22969,1,0,0:0:0:0:
64,192,23203,128,2,23438:0:0:0:0:
320,192,23203,1,8,0:0:0:0:
192,192,23438,1,0,0:0:0:0:
448,192,23438,128,0,23672:0:0:0:0:
192,192,23672,128,2,24141:0:0:0:0:
320,192,23672,1,0,0:0:0:0:
448,192,23906,1,0,0:0:0:0:
64,192,24141,128,8,24375:0:0:0:0:
320,192,24141,1,2,0:0:0:0:
192,192,24375,1,0,0:0:0:0:
448,192,24375,128,0,24610:0:0:0:0:
64,192,24610,1,2,0:0:0:0:
320,192,24610,128,0,25547:0:0:0:0:
192,192,24844,1,0,0:0:0:0:
64,192,25078,1,8,0:0:0:0:
448,192,25078,1,0,0:0:0:0:
192,192,25313,1,0,0:0:0:0:
448,192,25430,1,8,0:0:0:0:
64,192,25547,1,2,0:0:0:0:
192,192,25547,1,0,0:0:0:0:
64,192,26016,128,0,26250:0:0:0:0:
448,192,26016,1,0,0:0:0:0:
192,192,26250,128,0,26485:0:0:0:70:LR_Tom Hit 2.wav
320,192,26250,1,0,0:0:0:0:
64,192,26485,1,2,0:0:0:0:
320,192,26485,128,4,26953:0:0:0:0:
448,192,26485,1,0,0:0:0:0:
192,192,26719,1,0,0:0:0:0:
64,192,26953,1,2,0:0:0:0:
448,192,26953,128,8,27188:0:0:0:0:
64,192,27188,128,0,27422:0:0:0:0:
320,192,27188,1,0,0:0:0:0:
192,192,27422,128,2,27891:0:0:0:0:
448,192,27422,1,0,0:0:0:0:
320,192,27656,1,0,0:0:0:0:
64,192,27891,1,2,0:0:0:0:
448,192,27891,128,8,28125:0:0:0:0:
192,192,28125,128,0,28360:0:0:0:0:
320,192,28125,1,0,0:0:0:0:
64,192,28360,128,2,28594:0:0:0:0:
320,192,28360,1,0,0:0:0:0:
192,192,28594,1,0,0:0:0:0:
448,192,28594,128,0,28828:0:0:0:0:
64,192,28828,1,2,0:0:0:0:
320,192,28828,128,8,29063:0:0:0:0:
64,192,29063,1,0,0:0:0:0:
192,192,29063,128,0,29297:0:0:0:0:
320,192,29297,128,2,29766:0:0:0:0:
448,192,29297,1,0,0:0:0:0:
64,192,29531,1,0,0:0:0:0:
192,192,29766,1,2,0:0:0:0:
448,192,29766,128,8,30000:0:0:0:0:
64,192,30000,128,0,30235:0:0:0:0:
320,192,30000,1,0,0:0:0:0:
192,192,30235,128,2,30703:0:0:0:0:
448,192,30235,1,0,0:0:0:0:
320,192,30469,1,0,0:0:0:0:
64,192,30703,1,2,0:0:0:0:
448,192,30703,128,8,30938:0:0:0:0:
64,192,30938,128,0,31172:0:0:0:0:
320,192,30938,1,0,0:0:0:0:
192,192,31172,1,2,0:0:0:0:
320,192,31172,128,0,31406:0:0:0:0:
192,192,31406,128,0,31641:0:0:0:70:LR_Tom Hit.wav
448,192,31406,1,0,0:0:0:0:
64,192,31641,1,2,0:0:0:0:
448,192,31641,128,8,31875:0:0:0:0:
64,192,31875,128,0,32110:0:0:0:70:LR_Tom Hit 2.wav
320,192,31875,1,0,0:0:0:0:
192,192,32110,1,2,0:0:0:0:
320,192,32110,128,0,33047:0:0:0:0:
64,192,32578,1,8,0:0:0:0:
448,192,32578,1,0,0:0:0:0:
64,192,32813,1,0,0:0:0:0:
192,192,33047,1,2,0:0:0:0:
448,192,33047,1,0,0:0:0:0:
64,192,33281,1,0,0:0:0:70:LR_Tom Hit.wav
320,192,33281,1,0,0:0:0:0:
192,192,33399,1,0,0:0:0:70:LR_Tom Hit 2.wav
448,192,33399,1,0,0:0:0:0:
64,192,33516,1,0,0:0:0:70:LR_Tom Hit 3.wav
320,192,33516,1,0,0:0:0:0:
192,192,33750,1,0,0:0:0:70:LR_Tom Hit 3.wav
448,192,33750,1,0,0:0:0:0:
64,192,33985,128,2,34219:0:0:0:0:
320,192,33985,1,4,0:0:0:0:
448,192,33985,1,0,0:0:0:0:
192,192,34453,1,8,0:0:0:0:
448,192,34453,1,0,0:0:0:0:
64,192,34688,1,2,0:0:0:0:
320,192,34688,1,0,0:0:0:0:
64,192,34922,1,2,0:0:0:0:
320,192,34922,1,0,0:0:0:0:
192,192,35156,1,0,0:0:0:0:
64,192,35391,1,0,0:0:0:70:LR_Clap hollow echo.wav
448,192,35391,1,0,0:0:0:0:
320,192,35625,1,0,0:0:0:0:
192,192,35860,1,2,0:0:0:0:
448,192,35860,128,0,36094:0:0:0:0:
64,192,36094,1,0,0:0:0:0:
320,192,36328,1,2,0:0:0:0:
448,192,36328,1,0,0:0:0:0:
64,192,36445,1,8,0:0:0:0:
192,192,36563,1,2,0:0:0:0:
320,192,36563,1,0,0:0:0:0:
64,192,36797,1,2,0:0:0:0:
448,192,36797,128,0,37031:0:0:0:0:
64,192,37031,1,8,0:0:0:0:
320,192,37031,1,0,0:0:0:0:
192,192,37266,1,8,0:0:0:0:
448,192,37266,128,0,37500:0:0:0:0:
320,192,37500,1,0,0:0:0:0:
64,192,37735,128,2,37969:0:0:0:0:
448,192,37735,1,0,0:0:0:0:
192,192,38203,1,8,0:0:0:0:
448,192,38203,1,0,0:0:0:0:
64,192,38438,1,2,0:0:0:0:
320,192,38438,1,0,0:0:0:0:
64,192,38672,128,2,38906:0:0:0:0:
320,192,38672,1,0,0:0:0:0:
448,192,38906,1,0,0:0:0:0:
192,192,39141,1,8,0:0:0:0:
320,192,39141,1,0,0:0:0:0:
64,192,39375,1,0,0:0:0:0:
192,192,39610,1,2,0:0:0:0:
448,192,39610,1,0,0:0:0:0:
320,192,39961,1,0,0:0:0:0:
64,192,40078,1,8,0:0:0:0:
192,192,40078,1,0,0:0:0:0:
192,192,40313,1,2,0:0:0:0:
320,192,40313,1,0,0:0:0:0:
64,192,40547,1,2,0:0:0:0:
448,192,40547,128,0,41016:0:0:0:0:
192,192,40781,1,0,0:0:0:0:
320,192,40899,1,0,0:0:0:0:
64,192,41016,128,8,41485:0:0:0:0:
192,192,41016,1,0,0:0:0:0:
320,192,41250,1,0,0:0:0:0:
192,192,41485,128,8,41719:0:0:0:0:
448,192,41485,1,0,0:0:0:0:
320,192,41719,128,0,41953:0:0:0:0:
192,192,41953,128,2,42188:0:0:0:0:
448,192,41953,1,8,0:0:0:0:
64,192,42188,128,2,42422:0:0:0:0:
448,192,42188,1,0,0:0:0:0:
320,192,42422,128,2,42656:0:0:0:0:
448,192,42422,1,0,0:0:0:0:
192,192,42656,128,0,42891:0:0:0:0:
448,192,42656,1,0,0:0:0:0:
64,192,42891,1,8,0:0:0:0:
448,192,42891,1,0,0:0:0:0:
320,192,43125,1,0,0:0:0:0:
64,192,43360,1,2,0:0:0:0:
192,192,43360,1,0,0:0:0:0:
320,192,43594,128,0,43711:0:0:0:0:
192,192,43711,128,0,43828:0:0:0:0:
64,192,43828,1,8,0:0:0:0:
448,192,43828,1,0,0:0:0:0:
192,192,44063,128,2,44180:0:0:0:0:
320,192,44063,1,0,0:0:0:0:
192,192,44297,128,2,44414:0:0:0:0:
320,192,44297,1,0,0:0:0:0:
64,192,44531,1,0,0:0:0:0:
320,192,44766,128,8,45000:0:0:0:0:
448,192,44766,1,0,0:0:0:0:
192,192,45000,1,0,0:0:0:0:
64,192,45235,1,2,0:0:0:0:
448,192,45235,128,0,45703:0:0:0:0:
192,192,45703,1,2,0:0:0:0:
320,192,45703,1,8,0:0:0:0:
64,192,45938,1,2,0:0:0:0:
320,192,45938,128,0,46172:0:0:0:0:
64,192,46172,128,2,46641:0:0:0:0:
448,192,46172,1,0,0:0:0:0:
192,192,46406,128,0,46641:0:0:0:0:
320,192,46641,1,8,0:0:0:0:
448,192,46641,1,0,0:0:0:0:
448,192,46875,128,0,47110:0:0:0:0:
64,192,47110,1,2,0:0:0:0:
192,192,47110,1,0,0:0:0:0:
320,192,47344,1,0,0:0:0:0:
192,192,47461,1,0,0:0:0:0:
320,192,47578,1,8,0:0:0:0:
448,192,47578,1,0,0:0:0:0:
64,192,47695,1,0,0:0:0:0:
192,192,47813,1,0,0:0:0:0:
320,192,48047,1,2,0:0:0:0:
448,192,48047,128,0,48281:0:0:0:0:
64,192,48281,1,0,0:0:0:70:LR_Tom Hit.wav
192,192,48281,1,0,0:0:0:0:
320,192,48399,1,0,0:0:0:70:LR_Tom Hit 2.wav
448,192,48399,1,0,0:0:0:0:
64,192,48516,1,0,0:0:0:70:LR_Tom Hit 3.wav
192,192,48516,128,0,48750:0:0:0:0:
320,192,48750,1,0,0:0:0:70:LR_Tom Hit 3.wav
448,192,48750,1,0,0:0:0:0:
64,192,48985,128,2,49219:0:0:0:0:
448,192,48985,128,0,49453:0:0:0:0:
192,192,49219,128,0,49453:0:0:0:0:
64,192,49453,1,2,0:0:0:0:
320,192,49453,128,0,49688:0:0:0:0:
64,192,49688,128,0,49805:0:0:0:0:
448,192,49805,128,0,49922:0:0:0:0:
64,192,49922,128,2,50156:0:0:0:0:
192,192,49922,128,0,50156:0:0:0:0:
320,192,50156,128,0,50625:0:0:0:0:
64,192,50391,1,2,0:0:0:0:
448,192,50391,1,0,0:0:0:0:
192,192,50625,128,0,50742:0:0:0:0:
448,192,50742,128,0,50860:0:0:0:0:
64,192,50860,128,2,51094:0:0:0:0:
192,192,50860,128,0,50977:0:0:0:0:
320,192,51094,128,0,51328:0:0:0:0:
192,192,51211,128,0,51328:0:0:0:0:
64,192,51328,1,2,0:0:0:0:
448,192,51328,128,0,51563:0:0:0:0:
64,192,51563,128,0,51797:0:0:0:0:
192,192,51563,128,0,51797:0:0:0:0:
320,192,51797,128,2,52031:0:0:0:0:
448,192,51797,1,0,0:0:0:0:
192,192,52031,128,0,52266:0:0:0:0:
64,192,52266,128,2,52500:0:0:0:0:
448,192,52266,128,0,52500:0:0:0:0:
192,192,52500,128,0,52735:0:0:0:0:
320,192,52500,128,0,52735:0:0:0:0:
64,192,52735,128,2,53203:0:0:0:0:
448,192,52735,128,0,52969:0:0:0:0:
320,192,52969,128,0,53203:0:0:0:0:
192,192,53203,128,2,53438:0:0:0:0:
448,192,53203,1,0,0:0:0:0:
64,192,53438,128,0,53555:0:0:0:0:
320,192,53555,128,0,53672:0:0:0:0:
64,192,53672,128,2,53906:0:0:0:0:
192,192,53672,128,0,53906:0:0:0:0:
448,192,53906,128,0,54375:0:0:0:0:
192,192,54141,1,2,0:0:0:0:
320,192,54141,128,0,54375:0:0:0:0:
64,192,54375,1,0,0:0:0:0:
192,192,54610,128,2,54844:0:0:0:0:
448,192,54610,128,0,54844:0:0:0:0:
64,192,54844,128,0,55078:0:0:0:0:
320,192,54961,1,0,0:0:0:0:
192,192,55078,1,2,0:0:0:0:
448,192,55078,128,0,55313:0:0:0:0:
64,192,55313,128,0,55547:0:0:0:0:
320,192,55313,128,0,55430:0:0:0:0:
192,192,55430,128,0,55547:0:0:0:0:
320,192,55547,128,2,55781:0:0:0:0:
448,192,55547,1,0,0:0:0:0:
64,192,55781,1,0,0:0:0:0:
192,192,56016,128,2,56094:0:0:0:0:
448,192,56016,128,0,56250:0:0:0:0:
320,192,56094,128,0,56250:0:0:0:0:
64,192,56250,128,0,56485:0:0:0:0:
192,192,56250,128,0,56485:0:0:0:0:
320,192,56485,128,2,56719:0:0:0:0:
448,192,56485,1,0,0:0:0:0:
64,192,56719,128,0,56836:0:0:0:0:
448,192,56719,128,0,56953:0:0:0:0:
192,192,56836,128,0,56953:0:0:0:0:
64,192,56953,128,2,57188:0:0:0:0:
320,192,56953,128,0,57070:0:0:0:0:
448,192,57188,128,0,57305:0:0:0:0:
320,192,57305,128,0,57422:0:0:0:0:
192,192,57422,128,2,57539:0:0:0:0:
448,192,57422,128,0,57656:0:0:0:0:
320,192,57656,1,0,0:0:0:0:
64,192,57774,128,0,58125:0:0:0:0:
192,192,57891,128,2,58125:0:0:0:0:
448,192,57891,1,0,0:0:0:0:
320,192,58125,128,0,58242:0:0:0:0:
64,192,58242,128,0,58360:0:0:0:0:
192,192,58360,128,2,58594:0:0:0:0:
448,192,58360,128,0,58828:0:0:0:0:
320,192,58594,128,0,58828:0:0:0:0:
64,192,58828,128,2,59063:0:0:0:0:
192,192,58828,1,0,0:0:0:0:
320,192,59063,1,0,0:0:0:0:
192,192,59180,128,0,59297:0:0:0:0:
64,192,59297,128,2,59531:0:0:0:0:
448,192,59297,128,0,59766:0:0:0:0:
320,192,59531,128,0,59766:0:0:0:0:
64,192,59766,1,2,0:0:0:0:
192,192,59766,128,0,60000:0:0:0:0:
448,192,60000,128,0,60235:0:0:0:0:
64,192,60235,128,2,60703:0:0:0:0:
320,192,60235,1,0,0:0:0:0:
192,192,60703,1,2,0:0:0:0:
448,192,60703,1,0,0:0:0:0:
64,192,60938,1,2,0:0:0:0:
448,192,60938,1,0,0:0:0:0:
64,192,61172,1,0,0:0:0:0:
320,192,61172,128,0,61641:0:0:0:0:
192,192,61406,1,8,0:0:0:0:
64,192,61641,1,2,0:0:0:0:
448,192,61641,1,0,0:0:0:0:
448,192,61875,1,8,0:0:0:0:
64,192,62110,128,2,62344:0:0:0:0:
320,192,62110,1,0,0:0:0:0:
192,192,62344,128,0,62578:0:0:0:0:
320,192,62578,128,0,62813:0:0:0:0:
448,192,62813,128,0,63047:0:0:0:0:
64,192,63047,128,0,63281:0:0:0:70:LR_Tom Hit.wav
192,192,63047,1,0,0:0:0:0:
320,192,63281,1,0,0:0:0:0:
64,192,63516,128,0,63750:0:0:0:70:LR_Tom Hit 2.wav
448,192,63516,1,0,0:0:0:0:
192,192,63750,1,0,0:0:0:70:LR_Tom Hit 3.wav
448,192,63750,128,0,63985:0:0:0:0:
192,192,63985,128,2,64219:0:0:0:0:
320,192,63985,1,0,0:0:0:0:
192,192,64453,128,0,64688:0:0:0:0:
64,192,64688,1,2,0:0:0:0:
448,192,64688,128,0,64922:0:0:0:0:
192,192,64922,1,2,0:0:0:0:
320,192,64922,128,0,65156:0:0:0:0:
320,192,65391,128,0,65625:0:0:0:0:
64,192,65625,1,0,0:0:0:0:
192,192,65742,1,0,0:0:0:0:
320,192,65860,1,2,0:0:0:0:
448,192,65860,128,0,66094:0:0:0:0:
192,192,66094,1,0,0:0:0:0:
448,192,66328,128,0,66563:0:0:0:0:
64,192,66563,1,2,0:0:0:0:
320,192,66563,128,0,66797:0:0:0:0:
192,192,66797,128,2,67031:0:0:0:0:
448,192,66797,1,0,0:0:0:0:
192,192,67266,128,0,67500:0:0:0:0:
64,192,67500,128,0,67735:0:0:0:0:
320,192,67735,128,2,67969:0:0:0:0:
448,192,67735,1,0,0:0:0:0:
320,192,68203,128,0,68438:0:0:0:0:
64,192,68438,1,2,0:0:0:0:
448,192,68438,128,0,68672:0:0:0:0:
192,192,68672,128,2,68906:0:0:0:0:
320,192,68672,1,0,0:0:0:0:
448,192,69024,1,0,0:0:0:0:
192,192,69141,128,0,69375:0:0:0:0:
320,192,69375,128,0,69610:0:0:0:0:
64,192,69610,128,2,69844:0:0:0:0:
448,192,69610,1,0,0:0:0:0:
64,192,70078,128,0,70313:0:0:0:0:
448,192,70313,1,0,0:0:0:0:
192,192,70430,1,0,0:0:0:0:
320,192,70547,128,0,70781:0:0:0:0:
192,192,70781,1,0,0:0:0:0:
320,192,70899,1,8,0:0:0:0:
448,192,70899,1,0,0:0:0:0:
64,192,71016,1,2,0:0:0:0:
192,192,71016,128,0,71250:0:0:0:0:
320,192,71250,1,8,0:0:0:0:
448,192,71367,1,0,0:0:0:0:
64,192,71485,128,2,71719:0:0:0:0:
192,192,71485,1,0,0:0:0:0:
320,192,71719,1,0,0:0:0:0:
192,192,71836,1,8,0:0:0:0:
448,192,71836,1,0,0:0:0:0:
64,192,71953,1,2,0:0:0:0:
320,192,71953,128,0,72188:0:0:0:0:
192,192,72188,1,8,0:0:0:0:
448,192,72188,1,0,0:0:0:0:
64,192,72422,128,8,72656:0:0:0:0:
320,192,72422,1,0,0:0:0:0:
192,192,72656,1,0,0:0:0:0:
320,192,72774,1,8,0:0:0:0:
448,192,72774,1,0,0:0:0:0:
64,192,72891,1,2,0:0:0:0:
192,192,72891,128,0,73125:0:0:0:0:
320,192,73125,1,8,0:0:0:0:
448,192,73242,1,0,0:0:0:0:
64,192,73360,128,2,73594:0:0:0:0:
192,192,73360,1,0,0:0:0:0:
320,192,73594,1,0,0:0:0:0:
192,192,73711,1,2,0:0:0:0:
448,192,73711,128,0,73828:0:0:0:0:
64,192,73828,1,2,0:0:0:0:
320,192,73828,1,0,0:0:0:0:
64,192,74063,128,8,74297:0:0:0:0:
448,192,74063,1,0,0:0:0:0:
192,192,74297,128,2,74414:0:0:0:0:
320,192,74297,1,0,0:0:0:0:
448,192,74531,1,0,0:0:0:0:
64,192,74649,1,8,0:0:0:0:
192,192,74649,1,0,0:0:0:0:
320,192,74766,1,2,0:0:0:0:
448,192,74766,1,0,0:0:0:0:
64,192,75000,1,8,0:0:0:0:
448,192,75059,1,0,0:0:0:0:
320,192,75117,1,0,0:0:0:0:
192,192,75176,1,0,0:0:0:0:
64,192,75235,1,10,0:0:0:0:
448,192,75313,1,8,0:0:0:0:
320,192,75391,1,8,0:0:0:0:
192,192,75469,1,10,0:0:0:0:
320,192,75547,1,8,0:0:0:0:
448,192,75625,1,8,0:0:0:0:
64,192,75703,1,10,0:0:0:0:
192,192,75781,1,8,0:0:0:0:
320,192,75860,1,8,0:0:0:0:
448,192,75938,1,10,0:0:0:0:
64,192,76016,1,8,0:0:0:0:
192,192,76094,1,8,0:0:0:0:
320,192,76172,1,10,0:0:0:0:
192,192,76289,1,8,0:0:0:0:
64,192,76406,1,10,0:0:0:0:
448,192,76524,1,0,0:0:0:0:
320,192,76641,1,10,0:0:0:0:
192,192,76758,1,0,0:0:0:0:
64,192,76875,1,10,0:0:0:0:
448,192,76992,1,8,0:0:0:0:
192,192,77110,1,2,0:0:0:0:
320,192,77110,1,8,0:0:0:0:
64,192,77461,1,8,0:0:0:0:
192,192,77578,1,2,0:0:0:0:
448,192,77578,1,0,0:0:0:0:
64,192,77813,1,2,0:0:0:0:
448,192,77813,1,0,0:0:0:0:
64,192,78047,1,2,0:0:0:0:
320,192,78047,1,0,0:0:0:0:
192,192,78281,1,8,0:0:0:0:
320,192,78399,1,2,0:0:0:70:LR_Tom Hit.wav
448,192,78399,1,0,0:0:0:0:
64,192,78516,1,8,0:0:0:0:
192,192,78516,128,0,78750:0:0:0:0:
320,192,78750,128,2,78985:0:0:0:70:LR_Tom Hit 3.wav
448,192,78750,1,0,0:0:0:0:
64,192,78985,1,2,0:0:0:0:
192,192,78985,1,4,0:0:0:0:
448,192,78985,128,0,79453:0:0:0:0:
64,192,79219,1,0,0:0:0:0:
192,192,79453,128,2,79688:0:0:0:0:
320,192,79453,1,8,0:0:0:0:
64,192,79688,1,0,0:0:0:0:
320,192,79688,128,0,79922:0:0:0:0:
192,192,79922,1,2,0:0:0:0:
448,192,79922,128,0,80391:0:0:0:0:
192,192,80156,1,0,0:0:0:0:
64,192,80391,128,2,80625:0:0:0:0:
320,192,80391,1,8,0:0:0:0:
192,192,80625,128,0,80860:0:0:0:0:
448,192,80625,1,0,0:0:0:0:
64,192,80860,1,2,0:0:0:0:
320,192,80860,128,0,81094:0:0:0:0:
64,192,81094,128,0,81328:0:0:0:0:
448,192,81094,1,0,0:0:0:0:
192,192,81328,1,2,0:0:0:0:
448,192,81328,128,8,81563:0:0:0:0:
192,192,81563,128,0,81797:0:0:0:0:
320,192,81563,1,0,0:0:0:0:
64,192,81797,1,2,0:0:0:0:
320,192,81797,128,0,82266:0:0:0:0:
192,192,82031,1,0,0:0:0:0:
64,192,82266,1,2,0:0:0:0:
448,192,82266,128,8,82500:0:0:0:0:
192,192,82500,128,0,82735:0:0:0:0:
320,192,82500,1,0,0:0:0:0:
64,192,82735,128,2,83203:0:0:0:0:
448,192,82735,1,0,0:0:0:0:
320,192,82969,1,0,0:0:0:0:
192,192,83203,1,2,0:0:0:0:
448,192,83203,128,8,83438:0:0:0:0:
64,192,83438,128,0,83672:0:0:0:0:
320,192,83438,1,0,0:0:0:0:
192,192,83672,1,2,0:0:0:0:
320,192,83672,128,0,84141:0:0:0:0:
64,192,83906,1,0,0:0:0:0:
192,192,84141,1,2,0:0:0:0:
448,192,84141,128,8,84375:0:0:0:0:
64,192,84375,128,0,84610:0:0:0:0:
320,192,84375,1,0,0:0:0:0:
192,192,84610,128,2,85547:0:0:0:0:
448,192,84610,1,0,0:0:0:0:
320,192,84844,1,0,0:0:0:0:
64,192,85078,1,8,0:0:0:0:
448,192,85078,1,0,0:0:0:0:
320,192,85313,1,0,0:0:0:0:
64,192,85430,1,8,0:0:0:0:
320,192,85547,1,2,0:0:0:0:
448,192,85547,1,0,0:0:0:0:
64,192,85781,1,0,0:0:0:70:LR_Tom Hit.wav
192,192,85781,1,0,0:0:0:0:
320,192,85899,1,8,0:0:0:0:
448,192,85899,1,0,0:0:0:0:
64,192,86016,128,0,86250:0:0:0:70:LR_Clap Normal.wav
192,192,86016,1,0,0:0:0:0:
320,192,86250,128,0,86485:0:0:0:70:LR_Tom Hit 2.wav
448,192,86250,1,0,0:0:0:0:
64,192,86485,1,2,0:0:0:0:
192,192,86485,128,4,86953:0:0:0:0:
448,192,86485,1,0,0:0:0:0:
320,192,86719,1,0,0:0:0:0:
64,192,86953,128,0,87188:0:0:0:0:
448,192,86953,1,0,0:0:0:0:
192,192,87188,1,8,0:0:0:0:
448,192,87188,128,0,87422:0:0:0:0:
64,192,87422,1,8,0:0:0:0:
320,192,87422,128,0,87891:0:0:0:0:
192,192,87656,1,0,0:0:0:0:
64,192,87891,128,8,88125:0:0:0:0:
448,192,87891,1,0,0:0:0:0:
192,192,88125,1,2,0:0:0:0:
320,192,88125,128,0,88360:0:0:0:0:
64,192,88360,1,2,0:0:0:0:
192,192,88360,1,4,0:0:0:0:
448,192,88360,128,0,88594:0:0:0:0:
64,192,88594,128,0,88828:0:0:0:0:
320,192,88594,1,0,0:0:0:0:
192,192,88828,128,8,89063:0:0:0:0:
448,192,88828,1,0,0:0:0:0:
320,192,89063,128,2,89297:0:0:0:0:
448,192,89063,1,0,0:0:0:0:
64,192,89297,1,2,0:0:0:0:
192,192,89297,128,0,89766:0:0:0:0:
448,192,89531,1,0,0:0:0:0:
64,192,89766,128,2,90000:0:0:0:0:
320,192,89766,1,0,0:0:0:0:
192,192,90000,1,2,0:0:0:0:
448,192,90000,128,0,90235:0:0:0:0:
64,192,90235,1,2,0:0:0:0:
192,192,90235,128,4,90703:0:0:0:0:
320,192,90235,1,0,0:0:0:0:
64,192,90703,128,8,90938:0:0:0:0:
448,192,90703,1,0,0:0:0:0:
320,192,90938,1,8,0:0:0:0:
448,192,90938,128,0,91172:0:0:0:0:
64,192,91172,1,2,0:0:0:0:
192,192,91172,1,4,0:0:0:0:
320,192,91172,128,0,91406:0:0:0:0:
192,192,91406,128,8,91641:0:0:0:0:
448,192,91406,1,0,0:0:0:0:
64,192,91641,1,8,0:0:0:0:
320,192,91641,128,0,91875:0:0:0:0:
64,192,91875,128,8,92110:0:0:0:0:
448,192,91875,1,0,0:0:0:0:
192,192,91992,1,0,0:0:0:0:
320,192,92110,1,2,0:0:0:0:
448,192,92110,128,0,92344:0:0:0:0:
192,192,92344,1,0,0:0:0:0:
320,192,92461,1,0,0:0:0:0:
64,192,92578,1,8,0:0:0:0:
192,192,92578,1,0,0:0:0:0:
448,192,92813,1,0,0:0:0:0:
320,192,92891,1,0,0:0:0:0:
192,192,92969,1,0,0:0:0:0:
64,192,93047,1,8,0:0:0:0:
448,192,93125,1,0,0:0:0:0:
320,192,93203,1,0,0:0:0:0:
192,192,93281,1,0,0:0:0:0:
64,192,93360,1,0,0:0:0:0:
192,192,93438,1,0,0:0:0:0:
320,192,93516,1,0,0:0:0:70:LR_Tom Hit 2.wav
448,192,93594,1,0,0:0:0:0:
64,192,93672,1,0,0:0:0:0:
192,192,93750,1,0,0:0:0:70:LR_Tom Hit 2.wav
320,192,93828,1,0,0:0:0:0:
448,192,93906,1,0,0:0:0:0:
64,192,93985,128,2,94453:0:0:0:0:
192,192,93985,1,4,0:0:0:0:
320,192,93985,1,0,0:0:0:0:
448,192,94219,128,0,94336:0:0:0:0:
192,192,94453,1,8,0:0:0:0:
320,192,94453,1,0,0:0:0:0:
448,192,94688,128,0,94805:0:0:0:0:
64,192,94922,1,8,0:0:0:0:
192,192,94922,1,0,0:0:0:0:
320,192,95156,128,0,95274:0:0:0:0:
64,192,95274,1,0,0:0:0:0:
192,192,95391,1,8,0:0:0:0:
448,192,95391,1,0,0:0:0:0:
320,192,95625,128,0,95742:0:0:0:0:
64,192,95860,1,2,0:0:0:0:
448,192,95860,1,0,0:0:0:0:
192,192,96094,128,0,96211:0:0:0:0:
448,192,96211,1,0,0:0:0:0:
64,192,96328,1,2,0:0:0:0:
320,192,96328,1,0,0:0:0:0:
192,192,96563,128,0,96680:0:0:0:0:
320,192,96797,1,2,0:0:0:0:
448,192,96797,1,0,0:0:0:0:
64,192,97031,128,0,97149:0:0:0:0:
448,192,97149,1,0,0:0:0:0:
192,192,97266,1,2,0:0:0:0:
320,192,97266,1,0,0:0:0:0:
64,192,97500,128,0,97617:0:0:0:0:
192,192,97735,1,2,0:0:0:0:
448,192,97735,1,0,0:0:0:0:
320,192,97969,128,0,98086:0:0:0:0:
192,192,98086,1,0,0:0:0:0:
64,192,98203,1,2,0:0:0:0:
448,192,98203,1,0,0:0:0:0:
320,192,98438,128,0,98555:0:0:0:0:
64,192,98672,1,2,0:0:0:0:
192,192,98672,1,0,0:0:0:0:
448,192,98906,128,0,99024:0:0:0:0:
64,192,99024,1,0,0:0:0:0:
192,192,99141,1,2,0:0:0:0:
320,192,99141,1,0,0:0:0:0:
448,192,99375,128,0,99492:0:0:0:0:
64,192,99610,1,2,0:0:0:0:
320,192,99610,1,0,0:0:0:0:
192,192,99844,128,0,99961:0:0:0:0:
320,192,99961,1,0,0:0:0:0:
64,192,100078,1,2,0:0:0:0:
448,192,100078,1,0,0:0:0:0:
192,192,100313,128,0,100430:0:0:0:0:
192,192,100547,128,0,100781:0:0:0:0:
448,192,100547,128,0,100781:0:0:0:0:
64,192,101016,128,0,101250:0:0:0:0:
448,192,101016,128,0,101250:0:0:0:0:
64,192,101485,128,2,101719:0:0:0:0:
192,192,101485,128,4,101719:0:0:0:0:
320,192,101485,1,0,0:0:0:0:
448,192,101719,1,0,0:0:0:0:
320,192,101836,1,0,0:0:0:0:
64,192,101953,1,2,0:0:0:0:
192,192,101953,1,8,0:0:0:0:
448,192,102188,1,0,0:0:0:0:
64,192,102422,1,2,0:0:0:0:
448,192,102422,1,0,0:0:0:0:
64,192,102656,1,0,0:0:0:0:
192,192,102891,1,2,0:0:0:0:
448,192,102891,1,8,0:0:0:0:
320,192,103008,1,0,0:0:0:0:
192,192,103125,1,0,0:0:0:0:
320,192,103242,1,0,0:0:0:0:
64,192,103360,1,2,0:0:0:0:
448,192,103360,1,0,0:0:0:0:
192,192,103594,1,0,0:0:0:0:
320,192,103711,1,0,0:0:0:0:
64,192,103828,1,2,0:0:0:0:
192,192,103828,1,8,0:0:0:0:
448,192,104063,1,0,0:0:0:0:
64,192,104297,1,2,0:0:0:0:
448,192,104297,1,0,0:0:0:0:
320,192,104531,1,0,0:0:0:0:
192,192,104766,1,2,0:0:0:0:
320,192,104766,1,8,0:0:0:0:
64,192,104883,1,0,0:0:0:0:
448,192,105000,1,0,0:0:0:0:
320,192,105117,1,0,0:0:0:0:
64,192,105235,1,2,0:0:0:0:
192,192,105235,1,0,0:0:0:0:
320,192,105469,1,2,0:0:0:0:
448,192,105469,1,0,0:0:0:0:
64,192,105586,1,0,0:0:0:0:
192,192,105703,1,2,0:0:0:0:
448,192,105703,1,0,0:0:0:0:
64,192,105938,1,2,0:0:0:0:
320,192,105938,1,0,0:0:0:0:
64,192,106172,1,2,0:0:0:0:
192,192,106172,1,0,0:0:0:0:
320,192,106406,1,2,0:0:0:0:
448,192,106406,1,0,0:0:0:0:
64,192,106641,1,2,0:0:0:0:
448,192,106641,1,0,0:0:0:0:
64,192,106875,1,2,0:0:0:0:
192,192,106875,1,0,0:0:0:0:
320,192,107110,1,0,0:0:0:0:
448,192,107110,128,0,107227:0:0:0:0:
192,192,107344,1,0,0:0:0:0:
320,192,107461,1,0,0:0:0:0:
64,192,107578,128,0,107695:0:0:0:0:
448,192,107578,1,0,0:0:0:0:
192,192,107813,1,0,0:0:0:0:
320,192,108047,128,0,108164:0:0:0:0:
448,192,108047,1,0,0:0:0:0:
64,192,108281,1,0,0:0:0:70:LR_Tom Hit.wav
192,192,108281,1,0,0:0:0:0:
64,192,108516,1,0,0:0:0:70:LR_Tom Hit 2.wav
192,192,108516,128,0,108750:0:0:0:0:
320,192,108750,128,0,108985:0:0:0:70:LR_Tom Hit 3.wav
448,192,108750,1,0,0:0:0:0:
64,192,108985,1,0,0:0:0:70:soft-hitwhistle.wav
448,192,108985,128,0,109219:0:0:0:0:
192,192,109219,1,0,0:0:0:0:
64,192,109453,128,0,109688:0:0:0:0:
320,192,109453,1,0,0:0:0:0:
192,192,109688,128,0,109922:0:0:0:0:
320,192,109922,128,0,110156:0:0:0:0:
448,192,109922,1,0,0:0:0:0:
192,192,110156,1,0,0:0:0:0:
64,192,110391,128,0,110625:0:0:0:0:
448,192,110625,128,0,110860:0:0:0:0:
320,192,110860,128,0,111094:0:0:0:0:
64,192,111094,128,0,111328:0:0:0:0:
192,192,111094,1,0,0:0:0:0:
192,192,111328,128,0,111563:0:0:0:0:
448,192,111328,1,0,0:0:0:0:
64,192,111563,1,0,0:0:0:0:
320,192,111563,128,0,111797:0:0:0:0:
192,192,111797,1,0,0:0:0:0:
448,192,111797,128,0,112031:0:0:0:0:
320,192,112031,1,0,0:0:0:0:
64,192,112266,128,0,112500:0:0:0:0:
192,192,112500,128,0,112735:0:0:0:0:
320,192,112735,1,0,0:0:0:0:
448,192,112735,128,0,112969:0:0:0:0:
192,192,112969,1,0,0:0:0:0:
64,192,113203,128,0,113438:0:0:0:0:
448,192,113203,1,0,0:0:0:0:
320,192,113438,128,0,113672:0:0:0:0:
64,192,113672,1,0,0:0:0:0:
192,192,113672,128,0,113906:0:0:0:0:
448,192,113906,1,0,0:0:0:0:
64,192,114024,128,0,114141:0:0:0:0:
320,192,114141,1,0,0:0:0:0:
448,192,114141,128,0,114258:0:0:0:0:
192,192,114375,128,0,114492:0:0:0:0:
64,192,114610,1,0,0:0:0:0:
320,192,114610,128,0,114844:0:0:0:0:
448,192,114844,1,0,0:0:0:0:
192,192,115078,1,0,0:0:0:0:
320,192,115313,1,0,0:0:0:0:
64,192,115547,1,0,0:0:0:0:
192,192,115781,1,0,0:0:0:0:
448,192,115899,1,0,0:0:0:0:
192,192,116016,128,0,116250:0:0:0:70:soft-hitwhistle.wav
320,192,116016,1,0,0:0:0:0:
64,192,116250,128,0,116485:0:0:0:0:
320,192,116485,1,0,0:0:0:70:soft-hitwhistle.wav
448,192,116485,128,0,116719:0:0:0:0:
192,192,116719,1,0,0:0:0:0:
64,192,116953,128,0,117188:0:0:0:0:
320,192,117188,128,0,117422:0:0:0:0:
448,192,117188,1,0,0:0:0:0:
64,192,117422,1,0,0:0:0:70:soft-hitwhistle.wav
192,192,117422,128,0,117656:0:0:0:0:
320,192,117891,128,0,118125:0:0:0:0:
64,192,118125,128,0,118360:0:0:0:0:
192,192,118360,128,0,118594:0:0:0:0:
448,192,118360,1,0,0:0:0:0:
64,192,118594,1,0,0:0:0:0:
320,192,118594,128,0,118828:0:0:0:0:
64,192,118828,128,0,119063:0:0:0:0:
448,192,118828,1,0,0:0:0:0:
192,192,119063,1,0,0:0:0:0:
448,192,119063,128,0,119297:0:0:0:0:
192,192,119297,128,0,119531:0:0:0:70:soft-hitwhistle.wav
320,192,119297,1,0,0:0:0:0:
64,192,119766,128,0,120000:0:0:0:0:
320,192,120000,128,0,120235:0:0:0:0:
192,192,120235,1,0,0:0:0:70:soft-hitwhistle.wav
448,192,120235,128,0,120469:0:0:0:0:
320,192,120703,128,0,120938:0:0:0:0:
192,192,120938,128,0,121172:0:0:0:0:
64,192,121172,128,0,121406:0:0:0:70:soft-hitwhistle.wav
320,192,121172,1,0,0:0:0:0:
448,192,121524,128,0,121641:0:0:0:0:
64,192,121641,1,0,0:0:0:0:
192,192,121641,128,0,121758:0:0:0:0:
320,192,121875,128,0,121992:0:0:0:0:
192,192,122110,128,0,122344:0:0:0:70:soft-hitwhistle.wav
448,192,122110,128,0,123516:0:0:0:0:
64,192,122578,128,0,123516:0:0:0:0:
192,192,123047,128,0,123516:0:0:0:0:
320,192,123516,128,0,123985:0:0:0:70:soft-hitwhistle.wav
192,192,123750,1,0,0:0:0:0:
64,192,123985,1,2,0:0:0:0:
448,192,123985,1,4,0:0:0:0:
320,192,124219,1,0,0:0:0:0:
64,192,124453,1,0,0:0:0:30:LR_Clap Normal.wav
320,192,124453,1,0,0:0:0:0:
192,192,124688,1,0,0:0:0:0:
192,192,124922,1,0,0:0:0:30:LR_Clap Normal.wav
448,192,124922,1,0,0:0:0:0:
320,192,125156,1,0,0:0:0:0:
192,192,125391,1,0,0:0:0:30:LR_Clap Normal.wav
320,192,125391,1,0,0:0:0:0:
64,192,125625,1,0,0:0:0:0:
448,192,125742,1,0,0:0:0:0:
64,192,125860,1,0,0:0:0:30:LR_Clap Normal.wav
192,192,125860,1,0,0:0:0:0:
320,192,126094,1,0,0:0:0:0:
320,192,126328,1,0,0:0:0:30:LR_Clap Normal.wav
448,192,126328,1,0,0:0:0:0:
192,192,126563,1,0,0:0:0:0:
192,192,126797,1,0,0:0:0:30:LR_Clap Normal.wav
448,192,126797,1,0,0:0:0:0:
64,192,127031,1,0,0:0:0:0:
64,192,127266,1,0,0:0:0:30:LR_Clap Normal.wav
320,192,127266,1,0,0:0:0:0:
448,192,127500,1,0,0:0:0:0:
192,192,127617,1,0,0:0:0:0:
64,192,127735,1,0,0:0:0:30:LR_Clap Normal.wav
448,192,127735,1,0,0:0:0:0:
320,192,127969,1,0,0:0:0:0:
192,192,128203,1,0,0:0:0:30:LR_Clap Normal.wav
320,192,128203,1,0,0:0:0:0:
64,192,128438,1,0,0:0:0:0:
64,192,128672,1,0,0:0:0:30:LR_Clap Normal.wav
192,192,128672,1,0,0:0:0:0:
448,192,128906,1,0,0:0:0:0:
320,192,129141,1,0,0:0:0:30:LR_Clap Normal.wav
448,192,129141,1,0,0:0:0:0:
192,192,129375,1,0,0:0:0:0:
320,192,129492,1,0,0:0:0:0:
64,192,129610,1,0,0:0:0:30:LR_Clap Normal.wav
192,192,129610,1,0,0:0:0:0:
448,192,129844,1,0,0:0:0:0:
64,192,130078,1,0,0:0:0:30:LR_Clap Normal.wav
448,192,130078,1,0,0:0:0:0:
320,192,130313,1,0,0:0:0:0:
192,192,130547,1,0,0:0:0:30:LR_Clap Normal.wav
320,192,130547,1,0,0:0:0:0:
448,192,130781,1,0,0:0:0:0:
64,192,130899,1,0,0:0:0:0:
320,192,131016,1,0,0:0:0:30:LR_Clap Normal.wav
448,192,131016,1,0,0:0:0:0:
192,192,131250,1,0,0:0:0:0:
320,192,131367,1,0,0:0:0:0:
64,192,131485,1,2,0:0:0:0:
192,192,131485,1,0,0:0:0:0:
448,192,131719,1,0,0:0:0:0:
192,192,131836,1,8,0:0:0:0:
320,192,131953,1,2,0:0:0:0:
448,192,131953,1,0,0:0:0:0:
64,192,132188,1,8,0:0:0:0:
64,192,132422,1,2,0:0:0:0:
448,192,132422,1,0,0:0:0:0:
192,192,132656,1,0,0:0:0:0:
320,192,132774,1,8,0:0:0:0:
64,192,132891,1,2,0:0:0:0:
192,192,132891,1,0,0:0:0:0:
448,192,133125,1,8,0:0:0:0:
64,192,133360,1,2,0:0:0:0:
448,192,133360,1,0,0:0:0:0:
320,192,133594,1,0,0:0:0:0:
192,192,133711,1,8,0:0:0:0:
64,192,133828,1,2,0:0:0:0:
320,192,133828,1,0,0:0:0:0:
448,192,134063,1,8,0:0:0:0:
192,192,134297,1,2,0:0:0:0:
448,192,134297,1,0,0:0:0:0:
64,192,134531,1,0,0:0:0:0:
320,192,134649,1,8,0:0:0:0:
64,192,134766,1,2,0:0:0:0:
192,192,134766,1,0,0:0:0:0:
448,192,135000,1,8,0:0:0:0:
64,192,135117,1,0,0:0:0:0:
192,192,135235,1,8,0:0:0:0:
448,192,135235,1,0,0:0:0:0:
320,192,135352,1,0,0:0:0:0:
192,192,135469,1,8,0:0:0:0:
64,192,135586,1,0,0:0:0:0:
320,192,135703,1,8,0:0:0:0:
448,192,135703,1,0,0:0:0:0:
192,192,135820,1,0,0:0:0:0:
320,192,135938,1,8,0:0:0:0:
448,192,136055,1,0,0:0:0:0:
64,192,136172,1,8,0:0:0:0:
192,192,136172,1,0,0:0:0:0:
320,192,136289,1,0,0:0:0:0:
192,192,136406,1,8,0:0:0:0:
320,192,136524,1,0,0:0:0:0:
64,192,136641,1,8,0:0:0:0:
448,192,136641,1,0,0:0:0:0:
192,192,136758,1,0,0:0:0:0:
320,192,136875,1,8,0:0:0:0:
192,192,136992,1,0,0:0:0:0:
64,192,137110,1,2,0:0:0:0:
448,192,137110,1,0,0:0:0:0:
320,192,137188,1,0,0:0:0:0:
192,192,137266,1,0,0:0:0:0:
64,192,137344,1,0,0:0:0:0:
448,192,137422,1,0,0:0:0:0:
320,192,137500,1,0,0:0:0:0:
192,192,137578,1,0,0:0:0:0:
320,192,137656,1,0,0:0:0:0:
448,192,137735,1,0,0:0:0:0:
64,192,137813,1,0,0:0:0:0:
192,192,137891,1,0,0:0:0:0:
320,192,137969,1,0,0:0:0:0:
448,192,138047,1,2,0:0:0:0:
64,192,138125,1,0,0:0:0:0:
192,192,138203,1,0,0:0:0:0:
320,192,138281,1,0,0:0:0:0:
192,192,138360,1,0,0:0:0:0:
64,192,138438,1,0,0:0:0:0:
448,192,138516,1,0,0:0:0:0:
320,192,138594,1,0,0:0:0:0:
192,192,138672,1,0,0:0:0:0:
64,192,138750,1,0,0:0:0:0:
448,192,138828,1,0,0:0:0:0:
320,192,138906,1,0,0:0:0:0:
64,192,138985,1,8,0:0:0:0:
192,192,138985,1,0,0:0:0:0:
448,192,139336,1,0,0:0:0:0:
192,192,139453,1,0,0:0:0:0:
64,192,139688,128,0,139805:0:0:0:70:LR_Tom Hit 3.wav
320,192,139688,1,0,0:0:0:0:
192,192,139922,1,2,0:0:0:70:LR_Tom Hit 3.wav
320,192,139922,1,0,0:0:0:0:
192,192,140156,1,0,0:0:0:70:LR_Tom Hit.wav
448,192,140156,128,0,140274:0:0:0:0:
64,192,140274,1,0,0:0:0:70:LR_Tom Hit 2.wav
320,192,140274,1,0,0:0:0:0:
192,192,140391,1,0,0:0:0:70:LR_Tom Hit 3.wav
448,192,140391,1,0,0:0:0:0:
64,192,140625,1,0,0:0:0:70:LR_Tom Hit 3.wav
320,192,140625,128,0,140742:0:0:0:0:
64,192,140860,1,2,0:0:0:0:
192,192,140860,1,4,0:0:0:0:
448,192,140860,1,0,0:0:0:0:
320,192,141094,128,0,141211:0:0:0:0:
64,192,141328,1,8,0:0:0:0:
320,192,141328,1,0,0:0:0:30:LR_Clap Normal.wav
192,192,141563,128,0,141680:0:0:0:0:
192,192,141797,1,2,0:0:0:0:
448,192,141797,1,0,0:0:0:0:
64,192,142031,128,0,142149:0:0:0:0:
64,192,142266,1,8,0:0:0:0:
448,192,142266,1,0,0:0:0:30:LR_Clap Normal.wav
320,192,142500,128,0,142617:0:0:0:0:
64,192,142735,1,2,0:0:0:0:
320,192,142735,1,0,0:0:0:0:
448,192,142969,128,0,143086:0:0:0:0:
192,192,143203,1,8,0:0:0:0:
448,192,143203,1,0,0:0:0:30:LR_Clap Normal.wav
320,192,143438,128,0,143555:0:0:0:0:
64,192,143672,1,2,0:0:0:0:
320,192,143672,1,0,0:0:0:0:
192,192,143906,128,0,144024:0:0:0:0:
192,192,144141,1,8,0:0:0:0:
448,192,144141,1,0,0:0:0:30:LR_Clap Normal.wav
64,192,144375,128,0,144492:0:0:0:0:
64,192,144610,1,2,0:0:0:0:
320,192,144610,1,0,0:0:0:0:
192,192,144844,128,0,144961:0:0:0:0:
448,192,144961,1,0,0:0:0:0:
64,192,145078,1,8,0:0:0:0:
192,192,145078,1,0,0:0:0:30:LR_Clap Normal.wav
320,192,145313,128,0,145430:0:0:0:0:
64,192,145430,1,0,0:0:0:0:
320,192,145547,1,2,0:0:0:0:
448,192,145547,1,0,0:0:0:0:
192,192,145781,128,0,145899:0:0:0:0:
448,192,145899,1,0,0:0:0:0:
192,192,146016,1,8,0:0:0:0:
320,192,146016,1,0,0:0:0:30:LR_Clap Normal.wav
64,192,146250,128,0,146367:0:0:0:0:
320,192,146367,1,0,0:0:0:0:
64,192,146485,1,2,0:0:0:0:
192,192,146485,1,0,0:0:0:0:
448,192,146719,128,0,146836:0:0:0:0:
192,192,146836,1,0,0:0:0:0:
320,192,146953,1,8,0:0:0:0:
448,192,146953,1,0,0:0:0:30:LR_Clap Normal.wav
64,192,147188,128,0,147305:0:0:0:0:
320,192,147305,1,8,0:0:0:0:
192,192,147422,1,2,0:0:0:0:
448,192,147422,1,0,0:0:0:0:
64,192,147656,1,0,0:0:0:70:LR_Tom Hit 3.wav
320,192,147774,1,0,0:0:0:70:LR_Tom Hit 2.wav
64,192,147891,1,2,0:0:0:0:
192,192,147891,1,0,0:0:0:30:LR_Clap Normal.wav
448,192,148008,1,0,0:0:0:0:
320,192,148125,1,0,0:0:0:70:LR_Tom Hit.wav
192,192,148242,1,0,0:0:0:0:
64,192,148360,1,2,0:0:0:0:
320,192,148360,1,4,0:0:0:0:
448,192,148360,1,0,0:0:0:0:
448,192,148594,1,0,0:0:0:0:
64,192,148828,1,0,0:0:0:70:LR_Tom Hit 2.wav
192,192,148828,1,0,0:0:0:0:
320,192,148945,1,0,0:0:0:70:LR_Tom Hit.wav
192,192,149063,1,0,0:0:0:0:
64,192,149297,1,2,0:0:0:0:
320,192,149297,1,4,0:0:0:0:
448,192,149297,1,0,0:0:0:0:
64,192,149531,1,0,0:0:0:0:
192,192,149766,1,0,0:0:0:70:LR_Tom Hit 2.wav
448,192,149766,1,0,0:0:0:0:
320,192,149883,1,0,0:0:0:70:LR_Tom Hit.wav
64,192,150000,1,0,0:0:0:0:
448,192,150117,1,0,0:0:0:0:
64,192,150235,1,4,0:0:0:0:
192,192,150235,1,2,0:0:0:0:
320,192,150235,1,0,0:0:0:0:
320,192,150469,1,0,0:0:0:0:
192,192,150703,1,0,0:0:0:70:LR_Tom Hit 2.wav
448,192,150703,1,0,0:0:0:0:
64,192,150820,1,0,0:0:0:70:LR_Tom Hit.wav
448,192,150938,1,0,0:0:0:0:
64,192,151172,1,2,0:0:0:0:
192,192,151172,1,4,0:0:0:0:
320,192,151172,1,0,0:0:0:0:
192,192,151406,1,0,0:0:0:0:
320,192,151641,1,0,0:0:0:70:LR_Tom Hit 2.wav
448,192,151641,1,0,0:0:0:0:
64,192,151758,1,0,0:0:0:70:LR_Tom Hit.wav
192,192,151875,1,0,0:0:0:0:
320,192,151992,1,0,0:0:0:0:
64,192,152110,1,2,0:0:0:0:
448,192,152110,1,0,0:0:0:0:
192,192,152227,1,0,0:0:0:0:
320,192,152344,1,2,0:0:0:0:
192,192,152461,1,0,0:0:0:0:
64,192,152578,1,2,0:0:0:0:
448,192,152578,1,0,0:0:0:0:
320,192,152695,1,0,0:0:0:0:
192,192,152813,1,8,0:0:0:0:
64,192,152930,1,0,0:0:0:0:
320,192,153047,1,2,0:0:0:0:
448,192,153047,1,0,0:0:0:0:
192,192,153164,1,0,0:0:0:0:
320,192,153281,1,8,0:0:0:0:
448,192,153399,1,0,0:0:0:0:
64,192,153516,1,2,0:0:0:0:
192,192,153516,1,0,0:0:0:0:
320,192,153633,1,0,0:0:0:0:
192,192,153750,1,8,0:0:0:0:
64,192,153867,1,0,0:0:0:0:
320,192,153985,1,0,0:0:0:70:LR_Tom Hit.wav
448,192,153985,1,0,0:0:0:0:
192,192,154063,1,0,0:0:0:0:
320,192,154141,1,0,0:0:0:0:
448,192,154219,1,0,0:0:0:0:
64,192,154297,1,0,0:0:0:0:
192,192,154375,1,0,0:0:0:0:
320,192,154453,1,8,0:0:0:0:
192,192,154531,1,0,0:0:0:0:
64,192,154610,1,0,0:0:0:0:
448,192,154688,1,0,0:0:0:0:
320,192,154766,1,0,0:0:0:0:
192,192,154844,1,0,0:0:0:0:
64,192,154922,1,2,0:0:0:0:
448,192,154922,1,0,0:0:0:0:
192,192,155391,1,0,0:0:0:70:LR_Tom Hit.wav
448,192,155391,128,0,155625:0:0:0:0:
64,192,155625,1,0,0:0:0:70:LR_Tom Hit 2.wav
320,192,155625,128,0,155860:0:0:0:0:
64,192,155860,128,4,156328:0:0:0:0:
192,192,155860,1,2,0:0:0:0:
448,192,155860,1,0,0:0:0:0:
320,192,156094,1,0,0:0:0:0:
192,192,156328,1,2,0:0:0:0:
448,192,156328,128,8,156563:0:0:0:0:
192,192,156563,128,0,156797:0:0:0:0:
320,192,156563,1,0,0:0:0:0:
64,192,156797,128,2,157266:0:0:0:0:
448,192,156797,1,0,0:0:0:0:
320,192,157031,1,0,0:0:0:0:
192,192,157266,1,2,0:0:0:0:
448,192,157266,128,8,157500:0:0:0:0:
64,192,157500,1,0,0:0:0:0:
320,192,157500,128,0,157735:0:0:0:0:
192,192,157735,128,2,157969:0:0:0:0:
448,192,157735,1,0,0:0:0:0:
64,192,157969,1,0,0:0:0:0:
448,192,157969,128,0,158203:0:0:0:0:
64,192,158203,128,2,158438:0:0:0:0:
320,192,158203,1,8,0:0:0:0:
192,192,158438,1,0,0:0:0:0:
320,192,158438,128,0,158672:0:0:0:0:
192,192,158672,128,2,159141:0:0:0:0:
448,192,158672,1,0,0:0:0:0:
320,192,158906,1,0,0:0:0:0:
64,192,159141,128,2,159375:0:0:0:0:
448,192,159141,1,8,0:0:0:0:
192,192,159375,1,0,0:0:0:0:
320,192,159375,128,0,159610:0:0:0:0:
64,192,159610,1,2,0:0:0:0:
448,192,159610,128,0,160078:0:0:0:0:
192,192,159844,1,0,0:0:0:0:
64,192,160078,128,2,160313:0:0:0:0:
320,192,160078,1,8,0:0:0:0:
192,192,160313,1,0,0:0:0:0:
448,192,160313,128,0,160547:0:0:0:0:
192,192,160547,128,2,161016:0:0:0:0:
320,192,160547,1,0,0:0:0:0:
448,192,160781,1,0,0:0:0:0:
64,192,161016,128,2,161250:0:0:0:0:
320,192,161016,1,8,0:0:0:0:
192,192,161250,1,0,0:0:0:0:
448,192,161250,128,0,161485:0:0:0:0:
64,192,161485,1,2,0:0:0:0:
320,192,161485,128,0,162422:0:0:0:0:
192,192,161719,1,0,0:0:0:0:
64,192,161953,1,8,0:0:0:0:
448,192,161953,1,0,0:0:0:0:
192,192,162188,1,0,0:0:0:0:
448,192,162305,1,8,0:0:0:0:
64,192,162422,1,2,0:0:0:0:
192,192,162422,1,0,0:0:0:0:
320,192,162891,1,0,0:0:0:0:
448,192,162891,128,0,163125:0:0:0:0:
64,192,163125,128,0,163360:0:0:0:0:
192,192,163125,1,0,0:0:0:0:
192,192,163360,1,2,0:0:0:0:
320,192,163360,128,4,163828:0:0:0:0:
448,192,163360,1,0,0:0:0:0:
64,192,163594,1,0,0:0:0:0:
192,192,163828,1,2,0:0:0:0:
448,192,163828,128,8,164063:0:0:0:0:
192,192,164063,128,0,164297:0:0:0:0:
320,192,164063,1,0,0:0:0:0:
64,192,164297,128,2,164766:0:0:0:0:
448,192,164297,1,0,0:0:0:0:
320,192,164531,1,0,0:0:0:0:
192,192,164766,1,2,0:0:0:0:
448,192,164766,128,8,165000:0:0:0:0:
64,192,165000,1,0,0:0:0:0:
320,192,165000,128,0,165235:0:0:0:0:
64,192,165235,128,2,165469:0:0:0:0:
192,192,165235,1,0,0:0:0:0:
320,192,165469,1,0,0:0:0:0:
448,192,165469,128,0,165703:0:0:0:0:
192,192,165703,1,2,0:0:0:0:
320,192,165703,128,8,165938:0:0:0:0:
64,192,165938,1,0,0:0:0:0:
192,192,165938,128,0,166172:0:0:0:0:
64,192,166172,128,2,166641:0:0:0:0:
448,192,166172,1,0,0:0:0:0:
320,192,166406,1,0,0:0:0:0:
192,192,166641,128,2,166875:0:0:0:0:
448,192,166641,1,8,0:0:0:0:
64,192,166875,1,0,0:0:0:0:
320,192,166875,128,0,167110:0:0:0:0:
192,192,167110,1,2,0:0:0:0:
448,192,167110,128,0,167578:0:0:0:0:
320,192,167344,1,0,0:0:0:0:
64,192,167578,128,2,167813:0:0:0:0:
192,192,167578,1,8,0:0:0:0:
320,192,167813,128,0,168047:0:0:0:0:
448,192,167813,1,0,0:0:0:0:
192,192,168047,128,2,168281:0:0:0:0:
448,192,168047,1,0,0:0:0:0:
64,192,168281,128,0,168516:0:0:0:0:
320,192,168281,1,0,0:0:0:0:
192,192,168516,1,2,0:0:0:0:
320,192,168516,128,8,168750:0:0:0:0:
64,192,168750,128,0,168985:0:0:0:0:
448,192,168750,1,0,0:0:0:0:
192,192,168985,1,2,0:0:0:0:
448,192,168985,128,0,169922:0:0:0:0:
320,192,169336,1,0,0:0:0:0:
64,192,169453,1,2,0:0:0:0:
192,192,169453,1,0,0:0:0:0:
320,192,169688,128,0,169922:0:0:0:0:
64,192,169922,1,2,0:0:0:0:
192,192,169922,1,0,0:0:0:0:
320,192,170156,1,0,0:0:0:70:LR_Tom Hit.wav
448,192,170156,1,0,0:0:0:0:
64,192,170274,1,0,0:0:0:70:LR_Tom Hit 2.wav
192,192,170274,1,0,0:0:0:0:
320,192,170391,1,0,0:0:0:70:LR_Tom Hit 3.wav
448,192,170391,1,0,0:0:0:0:
64,192,170625,1,0,0:0:0:70:LR_Tom Hit 3.wav
192,192,170625,1,0,0:0:0:0:
64,192,170860,128,0,171563:0:0:0:70:soft-hitwhistle.wav
448,192,170860,128,0,171328:0:0:0:0:
320,192,171328,1,0,0:0:0:0:
192,192,171563,1,0,0:0:0:0:
320,192,171797,128,0,172266:0:0:0:0:
448,192,171797,128,0,172500:0:0:0:0:
64,192,172266,1,0,0:0:0:0:
192,192,172500,1,0,0:0:0:0:
320,192,172617,1,0,0:0:0:0:
64,192,172735,128,0,173438:0:0:0:0:
448,192,172735,128,0,173203:0:0:0:0:
192,192,172969,1,0,0:0:0:0:
320,192,173203,1,0,0:0:0:0:
448,192,173438,1,0,0:0:0:0:
192,192,173672,128,0,174141:0:0:0:0:
320,192,173672,128,0,173906:0:0:0:0:
64,192,174141,128,0,174375:0:0:0:0:
448,192,174141,128,0,174610:0:0:0:0:
320,192,174375,1,0,0:0:0:0:
64,192,174610,128,0,175313:0:0:0:0:
192,192,174610,128,0,175078:0:0:0:0:
320,192,175078,1,0,0:0:0:0:
192,192,175313,1,0,0:0:0:0:
64,192,175547,128,0,176250:0:0:0:0:
448,192,175547,128,0,176250:0:0:0:0:
320,192,175899,1,0,0:0:0:0:
192,192,176016,1,0,0:0:0:0:
320,192,176250,1,0,0:0:0:0:
192,192,176485,128,0,177188:0:0:0:0:
448,192,176485,128,0,177422:0:0:0:0:
64,192,177188,1,0,0:0:0:0:
320,192,177305,1,0,0:0:0:0:
64,192,177422,1,0,0:0:0:0:
192,192,177656,1,0,0:0:0:0:
448,192,177774,1,8,0:0:0:0:
64,192,177891,1,2,0:0:0:0:
320,192,177891,128,0,178008:0:0:0:0:
192,192,178125,128,8,178242:0:0:0:0:
64,192,178360,128,2,178594:0:0:0:0:
448,192,178360,1,0,0:0:0:0:
320,192,178594,1,0,0:0:0:0:
192,192,178711,1,0,0:0:0:0:
320,192,178828,1,8,0:0:0:0:
448,192,178828,128,0,179063:0:0:0:0:
192,192,179063,1,0,0:0:0:0:
64,192,179297,128,2,179531:0:0:0:0:
448,192,179297,1,0,0:0:0:0:
320,192,179531,1,0,0:0:0:0:
192,192,179649,1,0,0:0:0:0:
320,192,179766,128,8,180000:0:0:0:0:
448,192,179766,1,0,0:0:0:0:
64,192,180000,1,0,0:0:0:0:
192,192,180000,1,0,0:0:0:0:
64,192,180235,1,2,0:0:0:0:
448,192,180235,128,0,180469:0:0:0:0:
320,192,180469,1,0,0:0:0:0:
192,192,180586,128,0,180703:0:0:0:0:
320,192,180703,1,8,0:0:0:0:
448,192,180703,1,0,0:0:0:0:
64,192,180938,1,0,0:0:0:0:
192,192,180938,128,0,181172:0:0:0:0:
64,192,181172,128,2,181641:0:0:0:0:
448,192,181172,1,0,0:0:0:0:
320,192,181406,1,0,0:0:0:0:
192,192,181524,1,0,0:0:0:0:
320,192,181641,128,8,181875:0:0:0:0:
448,192,181641,1,0,0:0:0:0:
192,192,181875,1,0,0:0:0:0:
64,192,182110,128,2,182578:0:0:0:0:
448,192,182110,128,0,182578:0:0:0:0:
320,192,182578,1,0,0:0:0:70:LR_Tom Hit.wav
192,192,182813,1,0,0:0:0:0:
320,192,182930,1,0,0:0:0:0:
192,192,183047,128,2,183281:0:0:0:0:
448,192,183047,128,0,183281:0:0:0:0:
64,192,183516,1,0,0:0:0:70:LR_Tom Hit 2.wav
320,192,183750,1,0,0:0:0:0:
64,192,183985,1,4,0:0:0:0:
192,192,183985,1,2,0:0:0:70:LR_Tom Hit 3.wav
448,192,183985,128,0,184688:0:0:0:0:
