osu file format v14

[General]
AudioFilename: audio.mp3
AudioLeadIn: 0
PreviewTime: 25430
Countdown: 0
SampleSet: Soft
StackLeniency: 0.7
Mode: 3
LetterboxInBreaks: 0
SpecialStyle: 0
WidescreenStoryboard: 0

[Editor]
Bookmarks: 117990
DistanceSpacing: 1.1
BeatDivisor: 4
GridSize: 8
TimelineZoom: 1

[Metadata]
Title:AIAIAI (feat. Nakata Yasutaka)
TitleUnicode:AIAIAI (feat. 中田ヤスタカ)
Artist:Kizuna AI
ArtistUnicode:キズナアイ
Creator:Muu-chan
Version:EASY AI
Source:バーチャルさんはみている
Tags:Drum-Hitnormal dudehacker _Asha Envory Virtual San wa Miteiru VIRTUALSAN-LOOKING WACCA Youtuber VTuber japanese anime jpop j-pop pop opening op hello world
BeatmapID:1996795
BeatmapSetID:949106

[Difficulty]
HPDrainRate:7
CircleSize:4
OverallDifficulty:6.8
ApproachRate:5
SliderMultiplier:1.4
SliderTickRate:1

[Events]
//Background and Video events
0,0,"aai1.png",0,0
//Break Periods
//Storyboard Layer 0 (Background)
//Storyboard Layer 1 (Fail)
//Storyboard Layer 2 (Pass)
//Storyboard Layer 3 (Foreground)
//Storyboard Layer 4 (Overlay)
//Storyboard Sound Samples
Sample,141328,0,"LR_Clap Normal.wav",30
Sample,142266,0,"LR_Clap Normal.wav",30
Sample,143203,0,"LR_Clap Normal.wav",30
Sample,144141,0,"LR_Clap Normal.wav",30
Sample,145078,0,"LR_Clap Normal.wav",30
Sample,146016,0,"LR_Clap Normal.wav",30
Sample,146953,0,"LR_Clap Normal.wav",30
Sample,147891,0,"LR_Clap Normal.wav",30

[TimingPoints]
235,468.75,4,2,1,70,1,0
18985,-100,4,2,1,70,0,1
25547,-100,4,2,1,70,0,0
26485,-100,4,2,1,70,0,1
33985,-100,4,2,1,70,0,0
78985,-100,4,2,1,70,0,1
85547,-100,4,2,1,70,0,0
86485,-100,4,2,1,70,0,1
92110,-100,4,2,1,70,0,0
108985,-100,4,2,2,50,0,0
123516,-100,4,2,1,70,0,0
155860,-100,4,2,1,70,0,1
162422,-100,4,2,1,70,0,0
163360,-100,4,2,1,70,0,1
168985,-100,4,2,1,70,0,0
170860,-100,4,2,2,50,0,0
177774,-100,4,2,1,70,0,0

[HitObjects]
320,192,235,5,0,0:0:0:0:
192,192,703,1,0,0:0:0:0:
64,192,1172,1,0,0:0:0:0:
448,192,1406,1,0,0:0:0:70:LR_Tom Hit.wav
320,192,1641,1,0,0:0:0:70:LR_Tom Hit 2.wav
192,192,1875,1,0,0:0:0:70:LR_Tom Hit 3.wav
64,192,2110,1,2,0:0:0:0:
448,192,2110,128,4,2578:0:0:0:0:
192,192,3047,128,2,3516:0:0:0:0:
320,192,3985,128,2,4453:0:0:0:0:
64,192,4922,128,2,5391:0:0:0:0:
192,192,5391,1,0,0:0:0:0:
448,192,5860,128,2,6328:0:0:0:0:
320,192,6797,128,2,7266:0:0:0:0:
64,192,7735,128,2,8672:0:0:0:0:
192,192,9141,1,2,0:0:0:0:
320,192,9375,1,8,0:0:0:0:
448,192,9610,1,2,0:0:0:0:
64,192,10078,1,2,0:0:0:0:
320,192,10547,1,10,0:0:0:0:
192,192,11016,1,2,0:0:0:0:
448,192,11485,1,2,0:0:0:0:
320,192,11953,1,2,0:0:0:0:
64,192,12422,128,10,12891:0:0:0:0:
192,192,12891,1,2,0:0:0:0:
448,192,13360,128,8,13828:0:0:0:0:
320,192,13828,1,8,0:0:0:0:
192,192,14297,128,8,14766:0:0:0:0:
64,192,14766,1,8,0:0:0:0:
448,192,15235,128,2,16172:0:0:0:0:
320,192,15703,1,8,0:0:0:0:
64,192,16172,128,2,17110:0:0:0:0:
192,192,16641,1,8,0:0:0:0:
320,192,17110,1,8,0:0:0:0:
448,192,17578,1,0,0:0:0:0:
64,192,18047,1,10,0:0:0:0:
192,192,18516,1,0,0:0:0:0:
320,192,18750,1,0,0:0:0:70:LR_Tom Hit 2.wav
64,192,18985,1,2,0:0:0:0:
448,192,18985,1,4,0:0:0:0:
192,192,19453,1,10,0:0:0:0:
320,192,19688,1,0,0:0:0:0:
448,192,19922,1,2,0:0:0:0:
64,192,20391,1,10,0:0:0:0:
448,192,20860,1,2,0:0:0:0:
320,192,21328,1,10,0:0:0:0:
192,192,21563,1,0,0:0:0:0:
64,192,21797,1,2,0:0:0:0:
448,192,22266,1,10,0:0:0:0:
320,192,22500,1,0,0:0:0:0:
192,192,22735,1,2,0:0:0:0:
64,192,23203,1,10,0:0:0:0:
192,192,23438,1,0,0:0:0:0:
320,192,23672,1,2,0:0:0:0:
448,192,24141,1,10,0:0:0:0:
64,192,24375,1,0,0:0:0:0:
192,192,24610,128,2,25547:0:0:0:0:
448,192,25078,1,8,0:0:0:0:
320,192,25547,1,2,0:0:0:0:
64,192,26016,1,0,0:0:0:0:
192,192,26250,1,0,0:0:0:70:LR_Tom Hit 2.wav
320,192,26485,1,2,0:0:0:0:
448,192,26485,1,4,0:0:0:0:
192,192,26953,1,10,0:0:0:0:
320,192,27188,1,0,0:0:0:0:
448,192,27422,1,2,0:0:0:0:
64,192,27891,1,10,0:0:0:0:
320,192,28360,1,2,0:0:0:0:
192,192,28828,1,10,0:0:0:0:
448,192,29063,1,0,0:0:0:0:
64,192,29297,1,2,0:0:0:0:
192,192,29766,1,10,0:0:0:0:
320,192,30000,1,0,0:0:0:0:
448,192,30235,1,2,0:0:0:0:
64,192,30703,1,10,0:0:0:0:
192,192,31172,1,2,0:0:0:0:
320,192,31641,1,10,0:0:0:0:
64,192,31875,1,0,0:0:0:70:LR_Tom Hit 2.wav
448,192,32110,128,2,33516:0:0:0:0:
192,192,32578,1,8,0:0:0:0:
64,192,33047,1,2,0:0:0:0:
320,192,33516,1,0,0:0:0:70:LR_Tom Hit 3.wav
64,192,33985,1,2,0:0:0:0:
192,192,33985,1,4,0:0:0:0:
448,192,34453,1,8,0:0:0:0:
320,192,34688,1,2,0:0:0:0:
192,192,34922,1,2,0:0:0:0:
64,192,35391,1,0,0:0:0:70:LR_Clap hollow echo.wav
448,192,35860,1,2,0:0:0:0:
64,192,36328,1,2,0:0:0:0:
192,192,36563,1,2,0:0:0:0:
320,192,36797,1,2,0:0:0:0:
448,192,37266,1,8,0:0:0:0:
64,192,37735,1,2,0:0:0:0:
320,192,38203,1,8,0:0:0:0:
192,192,38438,1,2,0:0:0:0:
320,192,38672,1,2,0:0:0:0:
448,192,39141,1,8,0:0:0:0:
64,192,39610,1,2,0:0:0:0:
192,192,40078,1,8,0:0:0:0:
320,192,40313,1,2,0:0:0:0:
192,192,40547,1,2,0:0:0:0:
448,192,41016,1,8,0:0:0:0:
64,192,41485,1,8,0:0:0:0:
320,192,41953,1,10,0:0:0:0:
192,192,42188,1,2,0:0:0:0:
64,192,42422,1,2,0:0:0:0:
448,192,42891,1,8,0:0:0:0:
64,192,43360,1,2,0:0:0:0:
192,192,43828,1,8,0:0:0:0:
320,192,44063,1,2,0:0:0:0:
448,192,44297,1,2,0:0:0:0:
64,192,44766,1,8,0:0:0:0:
448,192,45235,1,2,0:0:0:0:
192,192,45703,1,10,0:0:0:0:
320,192,45938,1,2,0:0:0:0:
192,192,46172,1,2,0:0:0:0:
64,192,46641,1,8,0:0:0:0:
320,192,47110,1,2,0:0:0:0:
192,192,47578,1,8,0:0:0:0:
448,192,48047,128,2,48516:0:0:0:0:
320,192,48516,128,0,48985:0:0:0:70:LR_Tom Hit 3.wav
64,192,48985,1,2,0:0:0:0:
192,192,49453,1,2,0:0:0:0:
320,192,49922,1,2,0:0:0:0:
192,192,50391,1,2,0:0:0:0:
64,192,50860,1,2,0:0:0:0:
448,192,51328,1,2,0:0:0:0:
320,192,51797,1,2,0:0:0:0:
192,192,52266,1,2,0:0:0:0:
320,192,52735,1,2,0:0:0:0:
448,192,53203,1,2,0:0:0:0:
64,192,53672,1,2,0:0:0:0:
192,192,54141,1,2,0:0:0:0:
320,192,54610,1,2,0:0:0:0:
448,192,55078,1,2,0:0:0:0:
192,192,55547,1,2,0:0:0:0:
64,192,56016,1,2,0:0:0:0:
320,192,56485,1,2,0:0:0:0:
192,192,56953,1,2,0:0:0:0:
448,192,57422,1,2,0:0:0:0:
64,192,57891,1,2,0:0:0:0:
448,192,58360,1,2,0:0:0:0:
320,192,58828,1,2,0:0:0:0:
192,192,59297,1,2,0:0:0:0:
64,192,59766,1,2,0:0:0:0:
448,192,60000,1,0,0:0:0:0:
320,192,60235,1,2,0:0:0:0:
192,192,60703,1,2,0:0:0:0:
64,192,60938,1,2,0:0:0:0:
448,192,61172,1,0,0:0:0:0:
320,192,61641,1,2,0:0:0:0:
192,192,61875,1,8,0:0:0:0:
64,192,62110,1,2,0:0:0:0:
448,192,62578,1,0,0:0:0:0:
64,192,63047,1,0,0:0:0:70:LR_Tom Hit.wav
320,192,63516,1,0,0:0:0:70:LR_Tom Hit 2.wav
192,192,63750,1,0,0:0:0:70:LR_Tom Hit 3.wav
64,192,63985,1,2,0:0:0:0:
448,192,64453,1,0,0:0:0:0:
192,192,64688,1,2,0:0:0:0:
320,192,64922,1,2,0:0:0:0:
64,192,65391,1,0,0:0:0:0:
448,192,65625,1,0,0:0:0:0:
192,192,65860,1,2,0:0:0:0:
320,192,66328,1,0,0:0:0:0:
64,192,66563,1,2,0:0:0:0:
448,192,66797,1,2,0:0:0:0:
192,192,67266,1,0,0:0:0:0:
320,192,67500,1,0,0:0:0:0:
448,192,67735,1,2,0:0:0:0:
320,192,68203,1,0,0:0:0:0:
192,192,68438,1,2,0:0:0:0:
64,192,68672,1,2,0:0:0:0:
448,192,69141,1,0,0:0:0:0:
192,192,69375,1,0,0:0:0:0:
320,192,69610,1,2,0:0:0:0:
64,192,70078,1,0,0:0:0:0:
192,192,70547,1,0,0:0:0:0:
320,192,71016,1,2,0:0:0:0:
448,192,71485,1,2,0:0:0:0:
64,192,71953,1,2,0:0:0:0:
320,192,72422,1,8,0:0:0:0:
192,192,72891,1,2,0:0:0:0:
448,192,73360,1,2,0:0:0:0:
64,192,73828,1,2,0:0:0:0:
320,192,74297,1,2,0:0:0:0:
192,192,74766,1,2,0:0:0:0:
448,192,75000,1,8,0:0:0:0:
320,192,75235,1,10,0:0:0:0:
64,192,75703,1,10,0:0:0:0:
192,192,75938,1,10,0:0:0:0:
448,192,76172,1,10,0:0:0:0:
320,192,76641,1,10,0:0:0:0:
192,192,76875,1,10,0:0:0:0:
64,192,77110,1,10,0:0:0:0:
448,192,77578,1,2,0:0:0:0:
320,192,77813,1,2,0:0:0:0:
192,192,78047,1,2,0:0:0:0:
64,192,78516,1,8,0:0:0:0:
192,192,78750,1,2,0:0:0:70:LR_Tom Hit 3.wav
320,192,78985,1,2,0:0:0:0:
448,192,78985,1,4,0:0:0:0:
64,192,79453,1,10,0:0:0:0:
320,192,79688,1,0,0:0:0:0:
448,192,79922,1,2,0:0:0:0:
192,192,80391,1,10,0:0:0:0:
320,192,80860,1,2,0:0:0:0:
64,192,81328,1,10,0:0:0:0:
192,192,81563,1,0,0:0:0:0:
448,192,81797,1,2,0:0:0:0:
320,192,82266,1,10,0:0:0:0:
192,192,82500,1,0,0:0:0:0:
64,192,82735,1,2,0:0:0:0:
192,192,83203,1,10,0:0:0:0:
320,192,83438,1,0,0:0:0:0:
448,192,83672,1,2,0:0:0:0:
192,192,84141,1,10,0:0:0:0:
320,192,84375,1,0,0:0:0:0:
64,192,84610,128,2,85547:0:0:0:0:
192,192,85078,1,8,0:0:0:0:
448,192,85547,1,2,0:0:0:0:
320,192,86016,1,0,0:0:0:70:LR_Clap Normal.wav
192,192,86250,1,0,0:0:0:70:LR_Tom Hit 2.wav
64,192,86485,1,2,0:0:0:0:
448,192,86485,1,4,0:0:0:0:
320,192,86953,1,0,0:0:0:0:
192,192,87188,1,8,0:0:0:0:
64,192,87422,1,8,0:0:0:0:
448,192,87891,1,8,0:0:0:0:
192,192,88360,1,2,0:0:0:0:
320,192,88360,1,4,0:0:0:0:
64,192,88828,1,8,0:0:0:0:
448,192,89063,1,2,0:0:0:0:
320,192,89297,1,2,0:0:0:0:
192,192,89766,1,2,0:0:0:0:
320,192,90000,1,2,0:0:0:0:
64,192,90235,1,2,0:0:0:0:
448,192,90235,1,4,0:0:0:0:
192,192,90703,1,8,0:0:0:0:
320,192,91172,1,2,0:0:0:0:
448,192,91172,1,4,0:0:0:0:
64,192,91641,1,8,0:0:0:0:
320,192,91875,1,8,0:0:0:0:
192,192,92110,128,2,92813:0:0:0:0:
448,192,92813,1,0,0:0:0:0:
64,192,93047,1,8,0:0:0:0:
448,192,93516,1,0,0:0:0:70:LR_Tom Hit 2.wav
64,192,93985,1,2,0:0:0:0:
320,192,93985,1,4,0:0:0:0:
192,192,94453,1,8,0:0:0:0:
448,192,94922,1,8,0:0:0:0:
320,192,95391,1,8,0:0:0:0:
192,192,95860,1,2,0:0:0:0:
64,192,96328,1,2,0:0:0:0:
448,192,96563,1,0,0:0:0:0:
64,192,96797,1,2,0:0:0:0:
320,192,97266,1,2,0:0:0:0:
192,192,97735,1,2,0:0:0:0:
64,192,98203,1,2,0:0:0:0:
448,192,98672,1,2,0:0:0:0:
64,192,99141,1,2,0:0:0:0:
320,192,99610,1,2,0:0:0:0:
192,192,100078,1,2,0:0:0:0:
448,192,100313,1,0,0:0:0:0:
64,192,100547,1,0,0:0:0:0:
448,192,101016,1,0,0:0:0:0:
192,192,101485,1,2,0:0:0:0:
320,192,101485,1,4,0:0:0:0:
64,192,101953,1,10,0:0:0:0:
448,192,102422,1,2,0:0:0:0:
192,192,102891,1,10,0:0:0:0:
320,192,103360,1,2,0:0:0:0:
64,192,103828,1,10,0:0:0:0:
448,192,104063,1,0,0:0:0:0:
64,192,104297,1,2,0:0:0:0:
192,192,104766,1,10,0:0:0:0:
320,192,105235,128,2,105703:0:0:0:0:
448,192,105938,1,2,0:0:0:0:
64,192,106172,1,2,0:0:0:0:
192,192,106641,1,2,0:0:0:0:
320,192,107110,1,0,0:0:0:0:
448,192,107578,1,0,0:0:0:0:
64,192,108047,1,0,0:0:0:0:
192,192,108516,1,0,0:0:0:70:LR_Tom Hit 2.wav
320,192,108750,1,0,0:0:0:70:LR_Tom Hit 3.wav
448,192,108985,1,0,0:0:0:70:soft-hitwhistle.wav
64,192,109453,1,0,0:0:0:0:
192,192,109688,1,0,0:0:0:0:
320,192,109922,1,0,0:0:0:0:
448,192,110391,1,0,0:0:0:0:
320,192,110625,1,0,0:0:0:0:
192,192,110860,1,0,0:0:0:0:
64,192,111094,1,0,0:0:0:0:
192,192,111328,1,0,0:0:0:0:
320,192,111563,1,0,0:0:0:0:
448,192,111797,1,0,0:0:0:0:
192,192,112266,1,0,0:0:0:0:
320,192,112500,1,0,0:0:0:0:
192,192,112735,1,0,0:0:0:0:
64,192,113203,1,0,0:0:0:0:
448,192,113438,1,0,0:0:0:0:
64,192,113672,1,0,0:0:0:0:
320,192,114141,1,0,0:0:0:0:
192,192,114375,1,0,0:0:0:0:
64,192,114610,128,0,115547:0:0:0:0:
448,192,116016,1,0,0:0:0:70:soft-hitwhistle.wav
320,192,116250,1,0,0:0:0:0:
192,192,116485,1,0,0:0:0:70:soft-hitwhistle.wav
64,192,116953,1,0,0:0:0:0:
320,192,117188,1,0,0:0:0:0:
448,192,117422,1,0,0:0:0:70:soft-hitwhistle.wav
192,192,117891,1,0,0:0:0:0:
320,192,118125,1,0,0:0:0:0:
448,192,118360,1,0,0:0:0:0:
64,192,118594,1,0,0:0:0:0:
192,192,118828,1,0,0:0:0:0:
320,192,119063,1,0,0:0:0:0:
448,192,119297,1,0,0:0:0:70:soft-hitwhistle.wav
320,192,119766,1,0,0:0:0:0:
192,192,120000,1,0,0:0:0:0:
64,192,120235,1,0,0:0:0:70:soft-hitwhistle.wav
448,192,120703,1,0,0:0:0:0:
320,192,120938,1,0,0:0:0:0:
192,192,121172,1,0,0:0:0:70:soft-hitwhistle.wav
64,192,121641,128,0,122110:0:0:0:0:
448,192,122110,128,0,122578:0:0:0:70:soft-hitwhistle.wav
192,192,122578,128,0,123047:0:0:0:0:
320,192,123047,128,0,123516:0:0:0:0:
64,192,123516,128,0,123985:0:0:0:70:soft-hitwhistle.wav
192,192,123985,1,2,0:0:0:0:
448,192,123985,1,4,0:0:0:0:
320,192,124453,1,0,0:0:0:30:LR_Clap Normal.wav
192,192,124922,1,0,0:0:0:30:LR_Clap Normal.wav
64,192,125391,1,0,0:0:0:30:LR_Clap Normal.wav
448,192,125860,1,0,0:0:0:30:LR_Clap Normal.wav
64,192,126328,1,0,0:0:0:30:LR_Clap Normal.wav
192,192,126797,1,0,0:0:0:30:LR_Clap Normal.wav
320,192,127266,1,0,0:0:0:30:LR_Clap Normal.wav
448,192,127735,1,0,0:0:0:30:LR_Clap Normal.wav
192,192,128203,1,0,0:0:0:30:LR_Clap Normal.wav
320,192,128672,1,0,0:0:0:30:LR_Clap Normal.wav
64,192,129141,1,0,0:0:0:30:LR_Clap Normal.wav
192,192,129610,1,0,0:0:0:30:LR_Clap Normal.wav
448,192,130078,1,0,0:0:0:30:LR_Clap Normal.wav
320,192,130547,1,0,0:0:0:30:LR_Clap Normal.wav
192,192,131016,1,0,0:0:0:30:LR_Clap Normal.wav
64,192,131485,1,2,0:0:0:0:
448,192,131953,1,2,0:0:0:0:
192,192,132422,1,2,0:0:0:0:
320,192,132891,1,2,0:0:0:0:
64,192,133360,1,2,0:0:0:0:
192,192,133828,1,2,0:0:0:0:
448,192,134297,1,2,0:0:0:0:
320,192,134766,1,2,0:0:0:0:
192,192,135000,1,8,0:0:0:0:
64,192,135235,1,8,0:0:0:0:
448,192,135703,1,8,0:0:0:0:
320,192,135938,1,8,0:0:0:0:
192,192,136172,1,8,0:0:0:0:
64,192,136641,1,8,0:0:0:0:
448,192,136875,1,8,0:0:0:0:
320,192,137110,128,2,138047:0:0:0:0:
192,192,137578,1,0,0:0:0:0:
64,192,138047,128,2,138985:0:0:0:0:
448,192,138516,1,0,0:0:0:0:
320,192,138985,1,8,0:0:0:0:
192,192,138985,1,0,0:0:0:0:
448,192,139453,1,0,0:0:0:0:
64,192,139922,1,2,0:0:0:70:LR_Tom Hit 3.wav
192,192,140391,1,0,0:0:0:70:LR_Tom Hit 3.wav
320,192,140860,1,2,0:0:0:0:
448,192,140860,1,4,0:0:0:0:
192,192,141328,1,8,0:0:0:0:
448,192,141797,1,2,0:0:0:0:
64,192,142266,1,8,0:0:0:0:
320,192,142735,1,2,0:0:0:0:
192,192,143203,1,8,0:0:0:0:
448,192,143672,1,2,0:0:0:0:
320,192,144141,1,8,0:0:0:0:
64,192,144610,1,2,0:0:0:0:
192,192,145078,1,8,0:0:0:0:
448,192,145547,1,2,0:0:0:0:
320,192,146016,1,8,0:0:0:0:
64,192,146485,1,2,0:0:0:0:
192,192,146953,1,8,0:0:0:0:
320,192,147422,1,2,0:0:0:0:
448,192,147891,128,2,148360:0:0:0:0:
64,192,148360,1,2,0:0:0:0:
192,192,148360,1,4,0:0:0:0:
320,192,148828,1,0,0:0:0:70:LR_Tom Hit 2.wav
192,192,149297,1,2,0:0:0:0:
448,192,149297,1,4,0:0:0:0:
64,192,149766,128,0,150235:0:0:0:70:LR_Tom Hit 2.wav
320,192,150235,1,4,0:0:0:0:
448,192,150235,1,2,0:0:0:0:
192,192,150703,1,0,0:0:0:70:LR_Tom Hit 2.wav
64,192,151172,1,2,0:0:0:0:
320,192,151172,1,4,0:0:0:0:
448,192,151641,128,0,152110:0:0:0:70:LR_Tom Hit 2.wav
192,192,152110,1,2,0:0:0:0:
320,192,152578,1,2,0:0:0:0:
64,192,153047,1,2,0:0:0:0:
192,192,153516,1,2,0:0:0:0:
448,192,153985,128,0,154453:0:0:0:70:LR_Tom Hit.wav
320,192,154453,128,8,154922:0:0:0:0:
192,192,154922,1,2,0:0:0:0:
64,192,155391,1,0,0:0:0:70:LR_Tom Hit.wav
192,192,155625,1,0,0:0:0:70:LR_Tom Hit 2.wav
320,192,155860,1,4,0:0:0:0:
448,192,155860,1,2,0:0:0:0:
192,192,156328,1,10,0:0:0:0:
64,192,156563,1,0,0:0:0:0:
448,192,156797,1,2,0:0:0:0:
320,192,157266,1,10,0:0:0:0:
64,192,157735,1,2,0:0:0:0:
192,192,158203,1,10,0:0:0:0:
320,192,158438,1,0,0:0:0:0:
448,192,158672,1,2,0:0:0:0:
320,192,159141,1,10,0:0:0:0:
192,192,159375,1,0,0:0:0:0:
64,192,159610,1,2,0:0:0:0:
448,192,160078,1,10,0:0:0:0:
320,192,160313,1,0,0:0:0:0:
64,192,160547,1,2,0:0:0:0:
192,192,161016,1,10,0:0:0:0:
448,192,161250,1,0,0:0:0:0:
320,192,161485,128,2,162422:0:0:0:0:
64,192,162422,1,2,0:0:0:0:
192,192,162891,1,0,0:0:0:0:
320,192,163125,1,0,0:0:0:0:
64,192,163360,1,2,0:0:0:0:
448,192,163360,1,4,0:0:0:0:
192,192,163828,1,10,0:0:0:0:
448,192,164063,1,0,0:0:0:0:
320,192,164297,1,2,0:0:0:0:
64,192,164766,1,10,0:0:0:0:
448,192,165235,1,2,0:0:0:0:
192,192,165703,1,10,0:0:0:0:
320,192,165938,1,0,0:0:0:0:
448,192,166172,1,2,0:0:0:0:
64,192,166641,1,10,0:0:0:0:
192,192,166875,1,0,0:0:0:0:
320,192,167110,1,2,0:0:0:0:
448,192,167578,1,10,0:0:0:0:
64,192,168047,1,2,0:0:0:0:
448,192,168516,1,10,0:0:0:0:
192,192,168750,1,0,0:0:0:0:
320,192,168985,128,2,170391:0:0:0:0:
192,192,170391,1,0,0:0:0:70:LR_Tom Hit 3.wav
448,192,170860,128,0,171328:0:0:0:70:soft-hitwhistle.wav
320,192,171797,128,0,172266:0:0:0:0:
64,192,172735,128,0,173203:0:0:0:0:
192,192,173672,128,0,174141:0:0:0:0:
320,192,174141,1,0,0:0:0:0:
448,192,174610,128,0,175078:0:0:0:0:
192,192,175547,128,0,176016:0:0:0:0:
320,192,176485,128,0,177422:0:0:0:0:
448,192,177891,1,2,0:0:0:0:
64,192,178125,1,8,0:0:0:0:
192,192,178360,1,2,0:0:0:0:
320,192,178828,1,8,0:0:0:0:
448,192,179297,1,2,0:0:0:0:
64,192,179766,1,8,0:0:0:0:
320,192,180235,1,2,0:0:0:0:
192,192,180703,1,8,0:0:0:0:
448,192,181172,128,2,181641:0:0:0:0:
320,192,181641,1,8,0:0:0:0:
64,192,181875,1,0,0:0:0:0:
192,192,182110,1,2,0:0:0:0:
448,192,182578,1,0,0:0:0:70:LR_Tom Hit.wav
320,192,182813,1,0,0:0:0:0:
192,192,183047,1,2,0:0:0:0:
64,192,183516,1,0,0:0:0:70:LR_Tom Hit 2.wav
192,192,183750,1,0,0:0:0:0:
320,192,183985,1,4,0:0:0:0:
448,192,183985,128,2,184688:0:0:0:70:LR_Tom Hit 3.wav
