osu file format v14

[General]
AudioFilename: kizuna ai mtell remix sky high.mp3
AudioLeadIn: 0
PreviewTime: 79158
Countdown: 0
SampleSet: Soft
StackLeniency: 0.7
Mode: 3
LetterboxInBreaks: 0
SpecialStyle: 0
WidescreenStoryboard: 1

[Editor]
DistanceSpacing: 0.6
BeatDivisor: 4
GridSize: 4
TimelineZoom: 4.300006

[Metadata]
Title:Sky High (Mtell Hardcore Bootleg)
TitleUnicode:Sky High (Mtell Hardcore Bootleg)
Artist:Kizuna AI (Prod. Yunomi)
ArtistUnicode:Kizuna AI (Prod. Yunomi)
Creator:Virtue-
Version:Colorful Sky
Source:
Tags:Daeng Simatta キズナアイ Ai-chan Japanese virtual youtuber vtuber electronic UK Hardcore J-core jcore upd8 music remix
BeatmapID:2503349
BeatmapSetID:1202006

[Difficulty]
HPDrainRate:8
CircleSize:4
OverallDifficulty:8
ApproachRate:5
SliderMultiplier:1.4
SliderTickRate:1

[Events]
//Background and Video events
0,0,"wallbgskyhighowo.jpg",0,0
//Break Periods
//Storyboard Layer 0 (Background)
//Storyboard Layer 1 (Fail)
//Storyboard Layer 2 (Pass)
//Storyboard Layer 3 (Foreground)
//Storyboard Layer 4 (Overlay)
//Storyboard Sound Samples

[TimingPoints]
100,352.941176470588,4,2,1,50,1,0
79158,-100,4,2,1,50,0,1
101747,-100,4,2,1,50,0,0
158217,-100,4,2,1,50,0,1
180805,-100,4,2,1,50,0,0
237276,-100,4,2,1,50,0,1
259864,-100,4,2,1,50,0,0

[HitObjects]
64,192,100,5,0,0:0:0:0:
448,192,100,1,0,0:0:0:0:
192,192,188,1,0,0:0:0:0:
320,192,276,1,0,0:0:0:0:
320,192,452,1,0,0:0:0:0:
192,192,805,1,0,0:0:0:0:
448,192,894,1,0,0:0:0:0:
64,192,982,1,0,0:0:0:0:
64,192,1158,1,0,0:0:0:0:
320,192,1335,1,0,0:0:0:0:
192,192,1423,1,0,0:0:0:0:
64,192,1511,1,0,0:0:0:0:
448,192,1511,1,0,0:0:0:0:
320,192,1864,1,0,0:0:0:0:
64,192,1952,1,0,0:0:0:0:
448,192,2041,1,0,0:0:0:0:
448,192,2217,1,0,0:0:0:0:
64,192,2923,1,0,0:0:0:0:
320,192,2923,1,0,0:0:0:0:
448,192,3011,1,0,0:0:0:0:
192,192,3099,1,0,0:0:0:0:
192,192,3276,1,0,0:0:0:0:
320,192,3452,1,0,0:0:0:0:
64,192,3541,1,0,0:0:0:0:
448,192,3629,1,0,0:0:0:0:
448,192,3805,1,0,0:0:0:0:
192,192,4158,1,0,0:0:0:0:
448,192,4247,1,0,0:0:0:0:
64,192,4335,1,0,0:0:0:0:
64,192,4511,1,0,0:0:0:0:
320,192,4688,1,0,0:0:0:0:
192,192,4776,1,0,0:0:0:0:
448,192,4864,1,0,0:0:0:0:
64,192,5041,1,0,0:0:0:0:
192,192,5041,1,0,0:0:0:0:
320,192,5217,1,0,0:0:0:0:
448,192,5305,1,0,0:0:0:0:
192,192,5394,1,0,0:0:0:0:
64,192,5747,1,4,0:0:0:0:
448,192,5747,1,0,0:0:0:0:
320,192,5835,1,0,0:0:0:0:
192,192,5923,1,0,0:0:0:0:
192,192,6099,1,0,0:0:0:0:
448,192,6276,1,0,0:0:0:35:Ride.wav
64,192,6452,1,0,0:0:0:0:
192,192,6541,1,0,0:0:0:0:
320,192,6629,1,0,0:0:0:0:
320,192,6805,1,0,0:0:0:35:Ride.wav
64,192,6982,1,0,0:0:0:0:
448,192,7070,1,0,0:0:0:0:
64,192,7158,1,0,0:0:0:0:
192,192,7158,1,0,0:0:0:0:
320,192,7335,1,0,0:0:0:35:Ride.wav
448,192,7511,1,0,0:0:0:0:
64,192,7599,1,0,0:0:0:0:
320,192,7688,1,0,0:0:0:0:
320,192,7864,1,0,0:0:0:35:Ride.wav
192,192,8394,1,0,0:0:0:35:Ride.wav
64,192,8570,1,0,0:0:0:0:
448,192,8570,1,0,0:0:0:0:
320,192,8658,1,0,0:0:0:0:
192,192,8747,1,0,0:0:0:0:
192,192,8923,1,0,0:0:0:35:Ride.wav
320,192,9099,1,0,0:0:0:0:
64,192,9188,1,0,0:0:0:0:
448,192,9276,1,0,0:0:0:0:
448,192,9452,1,0,0:0:0:35:Ride.wav
192,192,9629,1,0,0:0:0:35:Ride.wav
320,192,9805,1,0,0:0:0:0:
448,192,9894,1,0,0:0:0:0:
64,192,9982,1,0,0:0:0:35:Ride.wav
192,192,9982,1,0,0:0:0:0:
64,192,10158,1,0,0:0:0:0:
448,192,10335,1,0,0:0:0:35:Ride.wav
64,192,10423,1,0,0:0:0:0:
320,192,10511,1,0,0:0:0:35:Ride.wav
192,192,10688,1,0,0:0:0:0:
448,192,10688,1,0,0:0:0:0:
64,192,10776,1,0,0:0:0:0:
320,192,10864,1,0,0:0:0:0:
320,192,11041,1,0,0:0:0:0:
64,192,11394,1,4,0:0:0:0:
448,192,11394,1,0,0:0:0:0:
320,192,11482,1,0,0:0:0:0:
192,192,11570,1,0,0:0:0:50:Snare 2.wav
192,192,11747,1,0,0:0:0:0:
448,192,11923,1,0,0:0:0:50:Snare 2.wav
64,192,12011,1,0,0:0:0:50:Snare 2.wav
320,192,12099,1,0,0:0:0:20:Clap 2.wav
192,192,12188,1,0,0:0:0:0:
448,192,12276,1,0,0:0:0:50:Snare 2.wav
448,192,12452,1,0,0:0:0:50:Snare 2.wav
192,192,12629,1,0,0:0:0:50:Snare 2.wav
448,192,12717,1,0,0:0:0:0:
64,192,12805,1,0,0:0:0:50:Snare 2.wav
320,192,12805,1,0,0:0:0:0:
64,192,12982,1,0,0:0:0:50:Snare 2.wav
320,192,13158,1,0,0:0:0:0:
64,192,13247,1,0,0:0:0:0:
448,192,13335,1,0,0:0:0:50:Snare 2.wav
192,192,13423,1,0,0:0:0:50:Snare 2.wav
448,192,13511,1,0,0:0:0:30:Clap 2.wav
320,192,13688,1,0,0:0:0:50:Snare 2.wav
320,192,13864,1,0,0:0:0:50:Snare 2.wav
64,192,14217,1,0,0:0:0:50:Snare 2.wav
448,192,14217,1,0,0:0:0:0:
320,192,14305,1,0,0:0:0:0:
192,192,14394,1,0,0:0:0:50:Snare 2.wav
192,192,14570,1,0,0:0:0:35:Clap 2.wav
64,192,14747,1,0,0:0:0:50:Snare 2.wav
448,192,14835,1,0,0:0:0:50:Snare 2.wav
320,192,14923,1,0,0:0:0:50:Snare 2.wav
320,192,15099,1,0,0:0:0:50:Snare 2.wav
64,192,15276,1,0,0:0:0:50:Snare 2.wav
64,192,15452,1,0,0:0:0:50:Snare 2.wav
448,192,15541,1,0,0:0:0:0:
192,192,15629,1,0,0:0:0:50:Snare 2.wav
192,192,15805,1,0,0:0:0:50:Snare 2.wav
320,192,15982,1,0,0:0:0:20:Clap 2.wav
64,192,16070,1,0,0:0:0:0:
448,192,16158,1,0,0:0:0:50:Snare 2.wav
192,192,16247,1,0,0:0:0:50:Snare 2.wav
320,192,16335,1,0,0:0:0:50:Snare 2.wav
448,192,16335,1,0,0:0:0:0:
64,192,16511,1,0,0:0:0:50:Snare 2.wav
320,192,16599,1,0,0:0:0:0:
64,192,16688,1,0,0:0:0:50:Snare 2.wav
64,192,17041,1,4,0:0:0:0:
192,192,17041,1,0,0:0:0:50:Snare 2.wav
448,192,17129,1,0,0:0:0:0:
64,192,17217,1,0,0:0:0:50:Snare 2.wav
192,192,17394,1,0,0:0:0:50:Snare 2.wav
192,192,17570,1,0,0:0:0:50:Snare 2.wav
320,192,17747,1,0,0:0:0:50:Snare 2.wav
64,192,17835,1,0,0:0:0:0:
320,192,17923,1,0,0:0:0:50:Snare 2.wav
448,192,18099,1,0,0:0:0:50:Snare 2.wav
448,192,18276,1,0,0:0:0:50:Snare 2.wav
320,192,18364,1,0,0:0:0:0:
64,192,18452,1,0,0:0:0:50:Snare 2.wav
192,192,18452,1,0,0:0:0:0:
192,192,18629,1,0,0:0:0:50:Snare 2.wav
64,192,18805,1,0,0:0:0:50:Snare 2.wav
448,192,18894,1,0,0:0:0:0:
64,192,18982,1,0,0:0:0:50:Snare 2.wav
320,192,19158,1,0,0:0:0:50:Snare 2.wav
320,192,19335,1,0,0:0:0:50:Snare 2.wav
192,192,19511,1,0,0:0:0:50:Snare 2.wav
192,192,19688,1,0,0:0:0:50:Snare 2.wav
64,192,19864,1,0,0:0:0:50:Snare 2.wav
448,192,19864,1,0,0:0:0:0:
320,192,19952,1,0,0:0:0:50:Snare 2.wav
192,192,20041,1,0,0:0:0:50:Snare 2.wav
448,192,20129,1,0,0:0:0:50:Snare 2.wav
64,192,20217,1,0,0:0:0:50:Snare 2.wav
320,192,20305,1,0,0:0:0:50:Snare 2.wav
192,192,20394,1,0,0:0:0:50:Snare 2.wav
448,192,20482,1,0,0:0:0:50:Snare 2.wav
64,192,20570,1,0,0:0:0:50:Snare 2.wav
320,192,20658,1,0,0:0:0:50:Snare 2.wav
192,192,20747,1,0,0:0:0:50:Snare 2.wav
448,192,20835,1,0,0:0:0:50:Snare 2.wav
64,192,20923,1,0,0:0:0:50:Snare 2.wav
320,192,21011,1,0,0:0:0:50:Snare 2.wav
192,192,21099,1,0,0:0:0:50:Snare 2.wav
448,192,21188,1,0,0:0:0:50:Snare 2.wav
64,192,21276,128,0,22158:0:0:0:50:Snare 2.wav
192,192,21276,1,0,0:0:0:0:
448,192,21629,128,0,21982:0:0:0:0:
320,192,21805,128,0,21982:0:0:0:0:
192,192,21982,128,0,22158:0:0:0:0:
448,192,22158,1,0,0:0:0:50:Snare 2.wav
320,192,22217,1,0,0:0:0:50:Snare 2.wav
192,192,22276,1,0,0:0:0:50:Snare 2.wav
64,192,22335,1,0,0:0:0:50:Snare 2.wav
448,192,22511,1,0,0:0:0:50:Tom3.wav
64,192,22688,1,4,0:0:0:0:
192,192,22688,128,0,24099:0:0:0:0:
320,192,22776,1,0,0:0:0:0:
448,192,22864,1,0,0:0:0:0:
448,192,23041,1,0,0:0:0:0:
320,192,23394,1,0,0:0:0:0:
448,192,23482,1,0,0:0:0:0:
64,192,23570,1,0,0:0:0:0:
64,192,23747,1,0,0:0:0:0:
448,192,23923,1,0,0:0:0:0:
64,192,24011,1,0,0:0:0:0:
320,192,24099,128,0,25511:0:0:0:0:
448,192,24099,1,0,0:0:0:0:
64,192,24452,1,0,0:0:0:0:
448,192,24541,1,0,0:0:0:0:
192,192,24629,1,0,0:0:0:0:
192,192,24805,1,0,0:0:0:0:
64,192,25511,1,0,0:0:0:0:
448,192,25511,128,0,26923:0:0:0:0:
192,192,25599,1,0,0:0:0:0:
320,192,25688,1,0,0:0:0:0:
320,192,25864,1,0,0:0:0:0:
64,192,26041,1,0,0:0:0:0:
320,192,26129,1,0,0:0:0:0:
192,192,26217,1,0,0:0:0:0:
192,192,26394,1,0,0:0:0:0:
320,192,26747,1,0,0:0:0:0:
192,192,26835,1,0,0:0:0:0:
64,192,26923,1,0,0:0:0:0:
64,192,27099,1,0,0:0:0:0:
320,192,27276,1,0,0:0:0:0:
64,192,27364,1,0,0:0:0:0:
448,192,27452,1,0,0:0:0:0:
64,192,27629,128,0,28335:0:0:0:0:
192,192,27629,1,0,0:0:0:0:
320,192,27805,1,0,0:0:0:0:
192,192,27894,1,0,0:0:0:0:
448,192,27982,1,0,0:0:0:0:
320,192,28335,1,0,0:0:0:0:
448,192,28335,128,0,29747:0:0:0:0:
64,192,28423,1,0,0:0:0:0:
192,192,28511,1,0,0:0:0:0:
192,192,28688,1,0,0:0:0:0:
320,192,29041,1,0,0:0:0:0:
192,192,29129,1,0,0:0:0:0:
64,192,29217,1,0,0:0:0:0:
64,192,29394,1,0,0:0:0:0:
320,192,29570,1,0,0:0:0:0:
192,192,29658,1,0,0:0:0:0:
64,192,29747,1,0,0:0:0:0:
320,192,29747,128,0,31158:0:0:0:0:
192,192,30099,1,0,0:0:0:0:
64,192,30188,1,0,0:0:0:0:
448,192,30276,1,0,0:0:0:0:
448,192,30452,1,0,0:0:0:0:
64,192,31158,1,0,0:0:0:0:
192,192,31158,128,0,32570:0:0:0:0:
448,192,31247,1,0,0:0:0:0:
320,192,31335,1,0,0:0:0:0:
320,192,31511,1,0,0:0:0:0:
448,192,31688,1,0,0:0:0:0:
320,192,31776,1,0,0:0:0:0:
64,192,31864,1,0,0:0:0:0:
64,192,32041,1,0,0:0:0:0:
64,192,32394,1,0,0:0:0:0:
320,192,32482,1,0,0:0:0:0:
64,192,32570,128,0,33276:0:0:0:0:
448,192,32570,1,0,0:0:0:0:
448,192,32747,1,0,0:0:0:0:
192,192,32923,1,0,0:0:0:0:
448,192,33011,1,0,0:0:0:0:
320,192,33099,1,0,0:0:0:0:
192,192,33276,1,0,0:0:0:0:
448,192,33276,128,0,33982:0:0:0:0:
64,192,33364,1,0,0:0:0:0:
320,192,33452,1,0,0:0:0:0:
320,192,33629,1,0,0:0:0:0:
64,192,33982,1,0,0:0:0:70:Kick_11.wav
192,192,33982,1,0,0:0:0:0:
448,192,34158,1,0,0:0:0:70:Kick_11.wav
64,192,34335,1,0,0:0:0:70:Kick_11.wav
320,192,34688,1,0,0:0:0:70:Clap 1.wav
448,192,34688,1,0,0:0:0:0:
192,192,35041,1,0,0:0:0:70:Kick_11.wav
64,192,35217,1,0,0:0:0:70:Kick_11.wav
448,192,35217,1,0,0:0:0:0:
320,192,35394,1,0,0:0:0:70:Kick_11.wav
64,192,35570,1,0,0:0:0:70:Kick_11.wav
192,192,35570,1,0,0:0:0:0:
448,192,35747,1,0,0:0:0:70:Kick_11.wav
64,192,35923,1,0,0:0:0:70:Kick_11.wav
192,192,35923,1,0,0:0:0:0:
320,192,36099,1,0,0:0:0:70:Clap 1.wav
448,192,36099,1,0,0:0:0:0:
320,192,36452,1,0,0:0:0:70:Kick_11.wav
64,192,36452,1,0,0:0:0:0:
64,192,36805,1,0,0:0:0:70:Kick_11.wav
192,192,36805,1,0,0:0:0:0:
448,192,37158,1,0,0:0:0:70:Kick_11.wav
320,192,37158,1,0,0:0:0:0:
64,192,37511,1,0,0:0:0:70:Clap 1.wav
448,192,37511,1,0,0:0:0:0:
64,192,37864,1,0,0:0:0:70:Kick_11.wav
192,192,38041,1,0,0:0:0:70:Kick_11.wav
448,192,38041,1,0,0:0:0:0:
320,192,38217,1,0,0:0:0:70:Kick_11.wav
64,192,38394,1,0,0:0:0:70:Kick_11.wav
192,192,38394,1,0,0:0:0:0:
448,192,38570,1,0,0:0:0:70:Kick_11.wav
64,192,38747,1,0,0:0:0:70:Kick_11.wav
192,192,38747,1,0,0:0:0:0:
320,192,38923,1,0,0:0:0:70:Clap 1.wav
448,192,38923,1,0,0:0:0:0:
192,192,39276,1,0,0:0:0:70:Kick_11.wav
448,192,39452,1,0,0:0:0:70:Kick_11.wav
320,192,39541,1,0,0:0:0:70:Kick_11.wav
64,192,39629,1,0,0:0:0:70:Kick_11.wav
192,192,39629,1,0,0:0:0:0:
448,192,39805,1,0,0:0:0:70:Kick_11.wav
64,192,39982,1,0,0:0:0:70:Kick_11.wav
192,192,40335,1,0,0:0:0:70:Clap 1.wav
448,192,40335,1,0,0:0:0:0:
320,192,40688,1,0,0:0:0:70:Kick_11.wav
64,192,40864,1,0,0:0:0:70:Kick_11.wav
448,192,40864,1,0,0:0:0:0:
192,192,41041,1,0,0:0:0:70:Kick_11.wav
320,192,41217,1,0,0:0:0:70:Kick_11.wav
448,192,41217,1,0,0:0:0:0:
64,192,41394,1,0,0:0:0:70:Kick_11.wav
320,192,41570,1,0,0:0:0:70:Kick_11.wav
448,192,41570,1,0,0:0:0:0:
64,192,41747,1,0,0:0:0:70:Clap 1.wav
192,192,41747,1,0,0:0:0:0:
320,192,42099,1,0,0:0:0:70:Kick_11.wav
448,192,42099,1,0,0:0:0:0:
64,192,42452,1,0,0:0:0:70:Kick_11.wav
448,192,42452,1,0,0:0:0:0:
192,192,42805,1,0,0:0:0:70:Kick_11.wav
64,192,42805,1,0,0:0:0:0:
320,192,43158,1,0,0:0:0:70:Clap 1.wav
448,192,43158,1,0,0:0:0:0:
64,192,43511,1,0,0:0:0:70:Kick_11.wav
192,192,43688,1,0,0:0:0:70:Kick_11.wav
448,192,43688,1,0,0:0:0:0:
320,192,43864,1,0,0:0:0:70:Kick_11.wav
64,192,44041,1,0,0:0:0:70:Kick_11.wav
192,192,44041,1,0,0:0:0:0:
448,192,44217,1,0,0:0:0:70:Kick_11.wav
64,192,44394,1,0,0:0:0:50:Snare 2.wav
320,192,44570,1,0,0:0:0:70:Clap 1.wav
448,192,44570,1,0,0:0:0:0:
64,192,44923,1,0,0:0:0:70:Kick_11.wav
192,192,45099,1,0,0:0:0:50:Snare 2.wav
320,192,45188,1,0,0:0:0:50:Snare 2.wav
64,192,45276,128,4,45452:0:0:0:0:
192,192,45276,1,2,0:0:0:0:
448,192,45276,128,0,45629:0:0:0:0:
320,192,45452,128,0,45629:0:0:0:0:
192,192,45629,128,0,45805:0:0:0:0:
64,192,45805,128,0,46158:0:0:0:0:
448,192,45805,128,0,45982:0:0:0:0:
320,192,45982,128,0,46158:0:0:0:0:
192,192,46158,128,0,46335:0:0:0:0:
64,192,46335,128,0,46511:0:0:0:0:
448,192,46335,128,0,46688:0:0:0:0:
192,192,46511,128,0,46688:0:0:0:0:
320,192,46688,128,0,46864:0:0:0:0:
192,192,46864,128,0,47305:0:0:0:0:
64,192,46864,128,0,47305:0:0:0:0:
448,192,47217,128,0,47305:0:0:0:0:
192,192,47394,128,0,47570:0:0:0:0:
448,192,47394,128,0,47570:0:0:0:0:
64,192,47923,128,0,48099:0:0:0:0:
320,192,47923,128,0,48099:0:0:0:0:
64,192,48452,128,0,48629:0:0:0:0:
192,192,48452,128,0,48629:0:0:0:0:
320,192,48982,128,0,49158:0:0:0:0:
448,192,48982,128,0,49158:0:0:0:0:
64,192,49511,128,0,50217:0:0:0:0:
448,192,49511,128,0,50217:0:0:0:0:
192,192,50041,1,0,0:0:0:70:Tom2.wav
320,192,50129,1,0,0:0:0:70:Tom2.wav
192,192,50217,1,0,0:0:0:70:Tom1.wav
320,192,50570,128,0,50747:0:0:0:70:Tom3.wav
64,192,50747,128,0,50923:0:0:0:70:Tom3.wav
192,192,50923,1,4,0:0:0:0:
320,192,50923,128,2,51099:0:0:0:0:
448,192,50923,128,0,51276:0:0:0:0:
64,192,51099,128,0,51276:0:0:0:0:
192,192,51276,128,0,51452:0:0:0:0:
64,192,51452,128,0,51805:0:0:0:0:
320,192,51452,128,0,51629:0:0:0:0:
448,192,51629,128,0,51805:0:0:0:0:
320,192,51805,128,0,51982:0:0:0:0:
192,192,51982,128,4,52158:0:0:0:0:
448,192,51982,128,0,52335:0:0:0:0:
64,192,52158,128,0,52335:0:0:0:0:
320,192,52335,128,0,52423:0:0:0:0:
192,192,52423,128,0,52511:0:0:0:0:
64,192,52511,128,0,52952:0:0:0:0:
448,192,52511,128,0,52952:0:0:0:0:
192,192,52864,128,0,52952:0:0:0:0:
320,192,53041,128,0,53394:0:0:0:0:
448,192,53041,128,0,53394:0:0:0:0:
64,192,53570,128,0,53923:0:0:0:0:
320,192,53570,128,0,53923:0:0:0:0:
64,192,54099,128,0,54452:0:0:0:0:
192,192,54099,128,0,54452:0:0:0:0:
320,192,54629,128,0,54982:0:0:0:0:
448,192,54629,128,0,54982:0:0:0:0:
192,192,54982,128,0,55158:0:0:0:0:
64,192,55158,128,0,55864:0:0:0:0:
448,192,55158,128,0,55864:0:0:0:0:
192,192,55688,1,0,0:0:0:70:Tom2.wav
320,192,55776,1,0,0:0:0:70:Tom2.wav
192,192,55864,1,0,0:0:0:70:Tom1.wav
448,192,56129,1,0,0:0:0:70:Snare 3.wav
64,192,56217,1,0,0:0:0:70:Snare 3.wav
320,192,56394,1,0,0:0:0:70:Snare 3.wav
64,192,56570,1,2,0:0:0:0:
192,192,56570,1,0,0:0:0:0:
448,192,56570,128,0,56835:0:0:0:0:
320,192,56835,1,0,0:0:0:50:Snare 2.wav
64,192,56923,128,2,57188:0:0:0:0:
192,192,56923,1,0,0:0:0:0:
448,192,57099,1,0,0:0:0:50:Snare 2.wav
64,192,57276,1,2,0:0:0:0:
320,192,57276,128,0,57541:0:0:0:0:
448,192,57541,1,0,0:0:0:50:Snare 2.wav
192,192,57629,128,2,57717:0:0:0:0:
320,192,57629,1,0,0:0:0:0:
64,192,57805,128,0,57894:0:0:0:50:Snare 2.wav
448,192,57805,1,0,0:0:0:0:
192,192,57894,1,0,0:0:0:50:Snare 2.wav
320,192,57982,1,2,0:0:0:0:
448,192,57982,128,0,58688:0:0:0:0:
64,192,58247,1,0,0:0:0:50:Snare 2.wav
320,192,58335,1,2,0:0:0:0:
192,192,58511,1,0,0:0:0:50:Snare 2.wav
64,192,58688,1,2,0:0:0:0:
320,192,58688,1,0,0:0:0:0:
448,192,58952,1,0,0:0:0:50:Snare 2.wav
64,192,59041,1,2,0:0:0:0:
192,192,59041,128,0,59129:0:0:0:0:
192,192,59217,1,0,0:0:0:50:Snare 2.wav
320,192,59217,128,0,59305:0:0:0:0:
64,192,59394,1,2,0:0:0:0:
448,192,59394,128,0,60099:0:0:0:0:
320,192,59658,1,0,0:0:0:50:Snare 2.wav
64,192,59747,1,2,0:0:0:0:
192,192,59923,128,0,60099:0:0:0:50:Snare 2.wav
64,192,60099,1,2,0:0:0:0:
320,192,60099,128,0,60452:0:0:0:0:
448,192,60364,1,0,0:0:0:50:Snare 2.wav
64,192,60452,1,2,0:0:0:0:
192,192,60452,1,0,0:0:0:0:
192,192,60629,128,0,60717:0:0:0:50:Snare 2.wav
448,192,60629,1,0,0:0:0:0:
64,192,60805,128,2,61247:0:0:0:0:
320,192,60805,1,0,0:0:0:0:
192,192,61070,1,0,0:0:0:50:Snare 2.wav
448,192,61158,1,2,0:0:0:0:
64,192,61335,1,0,0:0:0:50:Snare 2.wav
320,192,61335,128,0,61511:0:0:0:0:
192,192,61511,128,2,61688:0:0:0:0:
448,192,61511,1,0,0:0:0:0:
64,192,61688,128,0,61776:0:0:0:50:Snare 2.wav
320,192,61688,1,0,0:0:0:0:
448,192,61776,128,0,62041:0:0:0:50:Snare 2.wav
64,192,61864,1,2,0:0:0:0:
192,192,62041,128,0,62217:0:0:0:50:Snare 2.wav
64,192,62217,128,2,62482:0:0:0:0:
448,192,62217,1,0,0:0:0:0:
320,192,62482,1,0,0:0:0:50:Snare 2.wav
64,192,62570,1,2,0:0:0:0:
448,192,62570,128,0,62835:0:0:0:0:
192,192,62747,1,0,0:0:0:50:Snare 2.wav
320,192,62923,128,2,63188:0:0:0:0:
448,192,62923,1,0,0:0:0:0:
64,192,63188,1,0,0:0:0:50:Snare 2.wav
192,192,63276,128,2,63364:0:0:0:0:
320,192,63276,1,0,0:0:0:0:
64,192,63452,128,0,63541:0:0:0:50:Snare 2.wav
448,192,63452,1,0,0:0:0:0:
192,192,63541,1,0,0:0:0:50:Snare 2.wav
320,192,63629,1,2,0:0:0:0:
448,192,63629,128,0,64335:0:0:0:0:
64,192,63894,1,0,0:0:0:50:Snare 2.wav
320,192,63982,1,2,0:0:0:0:
192,192,64158,1,0,0:0:0:50:Snare 2.wav
64,192,64335,1,2,0:0:0:0:
320,192,64335,1,0,0:0:0:0:
64,192,64599,1,0,0:0:0:50:Snare 2.wav
320,192,64688,128,2,64776:0:0:0:0:
448,192,64688,1,0,0:0:0:0:
192,192,64864,128,0,64952:0:0:0:50:Snare 2.wav
320,192,64864,1,0,0:0:0:0:
64,192,65041,128,2,66276:0:0:0:0:
448,192,65041,1,0,0:0:0:0:
192,192,65305,1,0,0:0:0:50:Snare 2.wav
448,192,65394,1,2,0:0:0:0:
320,192,65570,1,0,0:0:0:50:Snare 2.wav
192,192,65747,1,2,0:0:0:0:
448,192,66011,1,0,0:0:0:50:Snare 2.wav
192,192,66099,1,2,0:0:0:0:
320,192,66276,1,0,0:0:0:50:Snare 2.wav
64,192,66452,1,2,0:0:0:0:
448,192,66452,1,0,0:0:0:70:Snare 3.wav
192,192,66541,1,0,0:0:0:70:Snare 3.wav
320,192,66629,1,0,0:0:0:70:Snare 3.wav
64,192,66717,1,0,0:0:0:70:Snare 3.wav
192,192,66805,1,2,0:0:0:0:
448,192,66805,1,0,0:0:0:70:Snare 3.wav
320,192,66894,1,0,0:0:0:70:Snare 3.wav
64,192,66982,1,0,0:0:0:70:Snare 3.wav
192,192,67070,1,0,0:0:0:70:Snare 3.wav
320,192,67158,1,2,0:0:0:0:
448,192,67158,1,0,0:0:0:70:Snare 3.wav
64,192,67247,1,0,0:0:0:70:Snare 3.wav
448,192,67335,1,0,0:0:0:70:Snare 3.wav
192,192,67423,1,0,0:0:0:70:Snare 3.wav
320,192,67511,1,0,0:0:0:70:Snare 3.wav
64,192,67599,1,0,0:0:0:70:Snare 3.wav
448,192,67688,1,0,0:0:0:70:Snare 3.wav
320,192,67776,1,0,0:0:0:70:Snare 3.wav
64,192,67864,128,2,68129:0:0:0:0:
192,192,67864,1,4,0:0:0:0:
448,192,67864,1,0,0:0:0:0:
448,192,68129,1,0,0:0:0:50:Snare 2.wav
64,192,68217,1,2,0:0:0:0:
320,192,68217,128,0,68482:0:0:0:0:
192,192,68394,1,0,0:0:0:50:Snare 2.wav
320,192,68570,1,8,0:0:0:0:
448,192,68570,128,2,68835:0:0:0:0:
192,192,68835,1,0,0:0:0:50:Snare 2.wav
320,192,68835,1,0,0:0:0:0:
64,192,68923,128,2,69011:0:0:0:0:
448,192,68923,1,0,0:0:0:0:
192,192,69099,128,8,69188:0:0:0:0:
320,192,69099,1,0,0:0:0:0:
64,192,69276,1,8,0:0:0:0:
320,192,69276,128,2,69982:0:0:0:0:
192,192,69541,1,0,0:0:0:50:Snare 2.wav
64,192,69629,1,2,0:0:0:0:
448,192,69629,1,0,0:0:0:0:
192,192,69805,1,0,0:0:0:50:Snare 2.wav
64,192,69982,1,8,0:0:0:0:
448,192,69982,1,2,0:0:0:0:
320,192,70247,1,8,0:0:0:0:
448,192,70247,1,0,0:0:0:0:
64,192,70335,128,2,70423:0:0:0:0:
192,192,70335,1,0,0:0:0:0:
320,192,70511,128,8,70599:0:0:0:0:
448,192,70511,1,0,0:0:0:0:
64,192,70599,1,8,0:0:0:0:
192,192,70688,128,8,71129:0:0:0:0:
448,192,70688,1,2,0:0:0:0:
64,192,70952,1,0,0:0:0:50:Snare 2.wav
320,192,71041,1,2,0:0:0:0:
448,192,71041,1,0,0:0:0:0:
64,192,71217,128,0,71305:0:0:0:50:Snare 2.wav
192,192,71217,1,0,0:0:0:0:
64,192,71394,1,8,0:0:0:0:
448,192,71394,128,2,71658:0:0:0:0:
192,192,71658,1,8,0:0:0:0:
320,192,71658,1,0,0:0:0:0:
64,192,71747,1,2,0:0:0:0:
448,192,71747,1,0,0:0:0:0:
64,192,71923,1,8,0:0:0:0:
192,192,71923,128,0,72011:0:0:0:0:
320,192,72099,128,2,72541:0:0:0:0:
448,192,72099,1,8,0:0:0:0:
64,192,72364,1,0,0:0:0:50:Snare 2.wav
192,192,72452,1,2,0:0:0:0:
448,192,72452,1,0,0:0:0:0:
64,192,72629,128,0,72717:0:0:0:50:Snare 2.wav
320,192,72629,1,0,0:0:0:0:
64,192,72805,1,8,0:0:0:0:
192,192,72805,128,2,72982:0:0:0:0:
320,192,72982,128,0,73070:0:0:0:0:
64,192,73070,1,8,0:0:0:0:
448,192,73070,128,0,73335:0:0:0:0:
192,192,73158,1,2,0:0:0:0:
320,192,73158,1,0,0:0:0:0:
64,192,73335,1,8,0:0:0:0:
192,192,73335,1,0,0:0:0:0:
320,192,73423,1,8,0:0:0:0:
448,192,73423,1,0,0:0:0:0:
64,192,73511,1,8,0:0:0:0:
192,192,73511,1,2,0:0:0:0:
320,192,73688,1,8,0:0:0:0:
448,192,73688,1,0,0:0:0:0:
192,192,73776,1,0,0:0:0:50:Snare 2.wav
64,192,73864,1,2,0:0:0:0:
448,192,73864,1,8,0:0:0:0:
64,192,74041,1,8,0:0:0:0:
192,192,74041,1,0,0:0:0:0:
192,192,74217,1,8,0:0:0:0:
448,192,74217,1,2,0:0:0:0:
64,192,74394,1,8,0:0:0:0:
320,192,74394,1,0,0:0:0:0:
192,192,74482,1,0,0:0:0:50:Snare 2.wav
320,192,74570,1,8,0:0:0:0:
448,192,74570,1,2,0:0:0:0:
64,192,74747,1,8,0:0:0:0:
192,192,74747,1,0,0:0:0:0:
192,192,74923,1,8,0:0:0:0:
448,192,74923,1,2,0:0:0:0:
320,192,75099,1,8,0:0:0:0:
448,192,75099,1,0,0:0:0:0:
64,192,75188,1,0,0:0:0:50:Snare 2.wav
192,192,75276,1,8,0:0:0:0:
320,192,75276,1,2,0:0:0:0:
64,192,75452,1,8,0:0:0:0:
192,192,75452,1,0,0:0:0:0:
320,192,75629,1,8,0:0:0:0:
448,192,75629,1,2,0:0:0:0:
64,192,75805,1,8,0:0:0:0:
448,192,75805,1,0,0:0:0:0:
320,192,75894,1,0,0:0:0:50:Snare 2.wav
64,192,75982,1,8,0:0:0:0:
192,192,75982,1,2,0:0:0:0:
320,192,76158,1,8,0:0:0:0:
448,192,76158,1,0,0:0:0:0:
64,192,76335,1,8,0:0:0:0:
192,192,76335,1,2,0:0:0:0:
320,192,76423,1,8,0:0:0:0:
448,192,76423,1,0,0:0:0:0:
64,192,76511,1,8,0:0:0:0:
192,192,76511,1,2,0:0:0:0:
320,192,76599,1,8,0:0:0:0:
448,192,76599,1,0,0:0:0:0:
64,192,76688,1,8,0:0:0:0:
192,192,76688,1,2,0:0:0:0:
320,192,76776,1,8,0:0:0:0:
448,192,76776,1,0,0:0:0:0:
64,192,76864,1,8,0:0:0:0:
192,192,76864,1,2,0:0:0:0:
320,192,76952,1,8,0:0:0:0:
448,192,76952,1,0,0:0:0:0:
64,192,77041,1,8,0:0:0:0:
192,192,77041,1,2,0:0:0:0:
320,192,77129,1,8,0:0:0:0:
448,192,77129,1,0,0:0:0:0:
64,192,77217,1,8,0:0:0:0:
192,192,77217,1,2,0:0:0:0:
320,192,77305,1,8,0:0:0:0:
448,192,77305,1,0,0:0:0:0:
64,192,77394,1,8,0:0:0:0:
192,192,77394,1,2,0:0:0:0:
320,192,77482,1,8,0:0:0:0:
448,192,77482,1,0,0:0:0:0:
64,192,77570,1,8,0:0:0:0:
192,192,77570,1,2,0:0:0:0:
320,192,77658,1,8,0:0:0:0:
448,192,77658,1,0,0:0:0:0:
64,192,77747,1,0,0:0:0:70:Tom3.wav
192,192,77747,1,0,0:0:0:0:
320,192,77923,1,0,0:0:0:0:
192,192,78011,1,0,0:0:0:0:
64,192,78099,1,0,0:0:0:70:Snare 3.wav
448,192,78099,1,0,0:0:0:0:
320,192,78276,1,0,0:0:0:0:
64,192,78452,128,8,78541:0:0:0:0:
192,192,78452,128,0,78541:0:0:0:0:
448,192,78541,128,0,78629:0:0:0:0:
320,192,78629,128,0,78717:0:0:0:0:
192,192,78717,128,0,78805:0:0:0:0:
64,192,78805,128,0,79070:0:0:0:70:Clap 2.wav
448,192,78805,128,0,79070:0:0:0:0:
320,192,78982,128,0,79070:0:0:0:0:
320,192,79158,128,0,79423:0:0:0:0:
448,192,79158,128,0,79776:0:0:0:0:
192,192,79158,128,4,79423:0:0:0:0:
64,192,79158,128,2,79423:0:0:0:0:
64,192,79511,128,8,79776:0:0:0:0:
192,192,79511,128,2,80129:0:0:0:0:
320,192,79511,128,0,79776:0:0:0:0:
64,192,79864,128,2,80129:0:0:0:0:
320,192,79864,128,0,80129:0:0:0:0:
448,192,79864,128,0,80129:0:0:0:0:
64,192,80217,128,8,80305:0:0:0:0:
192,192,80217,128,2,80305:0:0:0:0:
448,192,80217,128,0,80305:0:0:0:0:
320,192,80394,128,0,80482:0:0:0:0:
448,192,80394,128,0,80482:0:0:0:0:
64,192,80570,128,2,80835:0:0:0:0:
192,192,80570,128,0,80835:0:0:0:0:
320,192,80570,128,0,80835:0:0:0:0:
64,192,80923,128,8,81099:0:0:0:0:
192,192,80923,128,2,81099:0:0:0:0:
448,192,80923,128,0,81099:0:0:0:0:
320,192,81099,1,0,0:0:0:0:
192,192,81188,1,0,0:0:0:0:
64,192,81276,128,2,81452:0:0:0:0:
320,192,81276,128,0,81452:0:0:0:0:
448,192,81276,128,0,81452:0:0:0:0:
192,192,81452,1,0,0:0:0:0:
320,192,81541,1,0,0:0:0:0:
64,192,81629,128,2,81894:0:0:0:0:
192,192,81629,128,8,81894:0:0:0:0:
448,192,81629,128,0,81894:0:0:0:0:
320,192,81805,128,0,81894:0:0:0:0:
64,192,81982,128,2,82599:0:0:0:0:
320,192,81982,128,0,82247:0:0:0:0:
448,192,81982,128,0,82247:0:0:0:0:
192,192,82335,128,8,82599:0:0:0:0:
320,192,82335,128,2,82599:0:0:0:0:
448,192,82335,128,0,82952:0:0:0:0:
64,192,82688,128,2,82952:0:0:0:0:
192,192,82688,128,0,82952:0:0:0:0:
320,192,82688,128,0,82952:0:0:0:0:
64,192,83041,128,8,83129:0:0:0:0:
192,192,83041,128,2,83129:0:0:0:0:
448,192,83041,128,0,83129:0:0:0:0:
192,192,83217,128,0,83305:0:0:0:0:
320,192,83217,128,0,83305:0:0:0:0:
64,192,83394,128,2,83570:0:0:0:0:
320,192,83394,128,0,83570:0:0:0:0:
448,192,83394,128,0,83570:0:0:0:0:
192,192,83570,1,0,0:0:0:0:
320,192,83658,1,0,0:0:0:0:
64,192,83747,128,8,84011:0:0:0:0:
192,192,83747,128,2,84011:0:0:0:0:
448,192,83747,128,0,83835:0:0:0:0:
320,192,83923,128,0,84011:0:0:0:0:
448,192,83923,128,0,84364:0:0:0:0:
64,192,84099,128,2,84188:0:0:0:0:
192,192,84099,128,0,84188:0:0:0:0:
320,192,84099,128,0,84364:0:0:0:0:
64,192,84276,128,0,84717:0:0:0:0:
192,192,84276,128,0,84364:0:0:0:0:
192,192,84452,128,8,84717:0:0:0:0:
320,192,84452,128,2,84717:0:0:0:0:
448,192,84452,128,0,84717:0:0:0:0:
64,192,84805,128,2,85070:0:0:0:0:
192,192,84805,128,0,85423:0:0:0:0:
320,192,84805,128,0,85070:0:0:0:0:
64,192,85158,128,8,85423:0:0:0:0:
320,192,85158,128,2,85776:0:0:0:0:
448,192,85158,128,0,85423:0:0:0:0:
64,192,85511,128,2,85776:0:0:0:0:
192,192,85511,128,0,85776:0:0:0:0:
448,192,85511,128,0,85776:0:0:0:0:
192,192,85864,128,8,85952:0:0:0:0:
320,192,85864,128,2,85952:0:0:0:0:
448,192,85864,128,0,85952:0:0:0:0:
64,192,86041,128,0,86129:0:0:0:0:
448,192,86041,128,0,86129:0:0:0:0:
64,192,86217,128,2,86482:0:0:0:0:
192,192,86217,128,0,86482:0:0:0:0:
320,192,86217,128,0,86482:0:0:0:0:
192,192,86570,128,8,86747:0:0:0:0:
320,192,86570,128,2,86747:0:0:0:0:
448,192,86570,128,0,86747:0:0:0:0:
64,192,86747,1,0,0:0:0:0:
448,192,86835,1,0,0:0:0:0:
64,192,86923,128,2,87099:0:0:0:0:
192,192,86923,128,0,87099:0:0:0:0:
320,192,86923,128,0,87099:0:0:0:0:
448,192,87099,1,0,0:0:0:0:
64,192,87188,1,0,0:0:0:0:
192,192,87276,128,8,87541:0:0:0:0:
320,192,87276,128,2,87541:0:0:0:0:
448,192,87276,128,0,87541:0:0:0:0:
64,192,87452,128,0,87541:0:0:0:0:
64,192,87629,128,2,87894:0:0:0:0:
320,192,87629,128,0,87894:0:0:0:0:
448,192,87629,128,0,88247:0:0:0:0:
64,192,87982,128,8,88247:0:0:0:0:
192,192,87982,128,2,88247:0:0:0:0:
320,192,87982,128,0,88599:0:0:0:0:
64,192,88335,128,2,88599:0:0:0:0:
192,192,88335,128,0,88599:0:0:0:0:
448,192,88335,128,0,88599:0:0:0:0:
64,192,88688,128,8,88776:0:0:0:0:
192,192,88688,128,2,88776:0:0:0:0:
320,192,88688,128,0,88776:0:0:0:0:
192,192,88864,128,0,88952:0:0:0:0:
448,192,88864,128,0,88952:0:0:0:0:
64,192,89041,128,2,89217:0:0:0:0:
320,192,89041,128,0,89217:0:0:0:0:
448,192,89041,128,0,89217:0:0:0:0:
192,192,89217,1,0,0:0:0:0:
320,192,89305,1,0,0:0:0:0:
64,192,89394,128,0,89570:0:0:0:50:Snare 2.wav
448,192,89394,128,0,89747:0:0:0:0:
320,192,89570,128,0,89747:0:0:0:0:
64,192,89747,128,0,89923:0:0:0:70:Splash.wav
192,192,89747,128,0,89923:0:0:0:0:
320,192,89923,1,0,0:0:0:50:Snare 2.wav
448,192,89923,1,0,0:0:0:0:
64,192,90011,1,0,0:0:0:50:Snare 2.wav
192,192,90011,1,0,0:0:0:0:
320,192,90099,1,0,0:0:0:50:Snare 2.wav
448,192,90099,128,0,90364:0:0:0:0:
64,192,90276,128,0,90364:0:0:0:0:
64,192,90452,128,2,91070:0:0:0:0:
192,192,90452,128,4,90717:0:0:0:0:
320,192,90452,128,0,90717:0:0:0:0:
448,192,90452,128,0,90717:0:0:0:0:
192,192,90805,128,8,91070:0:0:0:0:
320,192,90805,128,2,91070:0:0:0:0:
448,192,90805,128,0,91423:0:0:0:0:
64,192,91158,128,2,91423:0:0:0:0:
192,192,91158,128,0,91423:0:0:0:0:
320,192,91158,128,0,91423:0:0:0:0:
64,192,91511,128,8,91599:0:0:0:0:
192,192,91511,128,2,91599:0:0:0:0:
448,192,91511,128,0,91599:0:0:0:0:
320,192,91688,128,0,91776:0:0:0:0:
448,192,91688,128,0,91776:0:0:0:0:
64,192,91864,128,2,92129:0:0:0:0:
192,192,91864,128,0,92129:0:0:0:0:
320,192,91864,128,0,92129:0:0:0:0:
64,192,92217,128,8,92394:0:0:0:0:
192,192,92217,128,2,92394:0:0:0:0:
448,192,92217,128,0,92394:0:0:0:0:
320,192,92394,1,0,0:0:0:0:
64,192,92482,1,0,0:0:0:0:
192,192,92570,128,2,92747:0:0:0:0:
320,192,92570,128,0,92747:0:0:0:0:
448,192,92570,128,0,92747:0:0:0:0:
64,192,92747,1,0,0:0:0:0:
448,192,92835,1,0,0:0:0:0:
64,192,92923,128,8,93188:0:0:0:0:
192,192,92923,128,2,93188:0:0:0:0:
320,192,92923,128,0,93188:0:0:0:0:
448,192,93099,128,0,93188:0:0:0:0:
64,192,93276,128,2,93541:0:0:0:0:
192,192,93276,128,0,93541:0:0:0:0:
448,192,93276,128,0,93894:0:0:0:0:
64,192,93629,128,8,93894:0:0:0:0:
192,192,93629,128,2,94247:0:0:0:0:
320,192,93629,128,0,93894:0:0:0:0:
64,192,93982,128,2,94247:0:0:0:0:
320,192,93982,128,0,94247:0:0:0:0:
448,192,93982,128,0,94247:0:0:0:0:
64,192,94335,128,8,94423:0:0:0:0:
192,192,94335,128,2,94423:0:0:0:0:
448,192,94335,128,0,94423:0:0:0:0:
192,192,94511,128,0,94599:0:0:0:0:
320,192,94511,128,0,94599:0:0:0:0:
64,192,94688,128,2,94864:0:0:0:0:
320,192,94688,128,0,94864:0:0:0:0:
448,192,94688,128,0,94864:0:0:0:0:
192,192,94864,1,0,0:0:0:0:
320,192,94952,1,0,0:0:0:0:
64,192,95041,128,8,95305:0:0:0:0:
192,192,95041,128,2,95129:0:0:0:0:
448,192,95041,128,0,95305:0:0:0:0:
192,192,95217,128,0,95482:0:0:0:0:
320,192,95217,128,0,95305:0:0:0:0:
64,192,95394,128,2,95482:0:0:0:0:
320,192,95394,128,0,95658:0:0:0:0:
448,192,95394,128,0,95658:0:0:0:0:
64,192,95570,128,0,95658:0:0:0:0:
192,192,95570,128,0,95658:0:0:0:0:
64,192,95747,128,8,96011:0:0:0:0:
320,192,95747,128,2,95923:0:0:0:0:
448,192,95747,128,0,96011:0:0:0:0:
192,192,95923,1,0,0:0:0:0:
320,192,96011,1,0,0:0:0:0:
64,192,96099,128,2,96364:0:0:0:0:
192,192,96099,128,0,96364:0:0:0:0:
448,192,96099,128,0,96717:0:0:0:0:
64,192,96452,128,8,97070:0:0:0:0:
192,192,96452,128,2,96717:0:0:0:0:
320,192,96452,128,0,96717:0:0:0:0:
192,192,96805,128,2,97070:0:0:0:0:
320,192,96805,128,0,97070:0:0:0:0:
448,192,96805,128,0,97070:0:0:0:0:
64,192,97158,128,8,97247:0:0:0:0:
320,192,97158,128,2,97247:0:0:0:0:
448,192,97158,128,0,97247:0:0:0:0:
192,192,97335,128,0,97423:0:0:0:0:
320,192,97335,128,0,97423:0:0:0:0:
64,192,97511,128,2,97776:0:0:0:0:
192,192,97511,128,0,97776:0:0:0:0:
448,192,97511,128,0,97776:0:0:0:0:
64,192,97864,128,8,98041:0:0:0:0:
192,192,97864,128,2,98041:0:0:0:0:
320,192,97864,128,0,98041:0:0:0:0:
448,192,98041,1,0,0:0:0:0:
64,192,98129,1,0,0:0:0:0:
192,192,98217,128,2,98394:0:0:0:0:
320,192,98217,128,0,98394:0:0:0:0:
448,192,98217,128,0,98394:0:0:0:0:
64,192,98394,1,0,0:0:0:0:
448,192,98482,1,0,0:0:0:0:
64,192,98570,128,8,98835:0:0:0:0:
192,192,98570,128,2,98835:0:0:0:0:
320,192,98570,128,0,98835:0:0:0:0:
448,192,98747,128,0,98835:0:0:0:0:
64,192,98923,128,2,99188:0:0:0:0:
192,192,98923,128,0,99188:0:0:0:0:
448,192,98923,128,0,99541:0:0:0:0:
64,192,99276,128,8,99541:0:0:0:0:
192,192,99276,128,2,99541:0:0:0:0:
320,192,99276,128,0,99894:0:0:0:0:
64,192,99629,128,2,99894:0:0:0:0:
192,192,99629,128,0,99894:0:0:0:0:
448,192,99629,128,0,99894:0:0:0:0:
64,192,99982,128,8,100070:0:0:0:0:
192,192,99982,128,2,100070:0:0:0:0:
448,192,99982,128,0,100070:0:0:0:0:
320,192,100158,128,0,100247:0:0:0:0:
448,192,100158,128,0,100247:0:0:0:0:
64,192,100335,128,2,101041:0:0:0:0:
192,192,100335,128,0,100599:0:0:0:0:
320,192,100335,128,0,100952:0:0:0:0:
192,192,100688,128,0,101041:0:0:0:0:
448,192,100688,128,0,100952:0:0:0:0:
320,192,101041,1,8,0:0:0:0:
448,192,101041,1,0,0:0:0:0:
64,192,101217,1,0,0:0:0:50:Snare 2.wav
192,192,101261,1,0,0:0:0:50:Snare 2.wav
320,192,101305,1,0,0:0:0:50:Snare 2.wav
448,192,101349,1,0,0:0:0:50:Snare 2.wav
64,192,101394,1,8,0:0:0:0:
192,192,101394,1,0,0:0:0:70:Splash.wav
64,192,101747,1,4,0:0:0:0:
192,192,101747,1,2,0:0:0:0:
320,192,101747,1,0,0:0:0:0:
448,192,101747,1,0,0:0:0:0:
448,192,102011,1,0,0:0:0:0:
64,192,102099,1,0,0:0:0:50:Snare 2.wav
192,192,102276,1,0,0:0:0:0:
320,192,102452,1,0,0:0:0:0:
64,192,102717,1,0,0:0:0:0:
448,192,102805,1,0,0:0:0:50:Snare 2.wav
320,192,102982,1,0,0:0:0:0:
192,192,103158,1,0,0:0:0:0:
448,192,103423,1,0,0:0:0:0:
64,192,103511,1,0,0:0:0:50:Snare 2.wav
192,192,103688,1,0,0:0:0:0:
320,192,103864,1,0,0:0:0:50:Snare 2.wav
64,192,103952,1,0,0:0:0:50:Snare 2.wav
448,192,104041,1,0,0:0:0:70:Tom1.wav
64,192,104217,1,0,0:0:0:70:Clap 2.wav
192,192,104217,1,0,0:0:0:0:
448,192,104217,1,0,0:0:0:0:
64,192,104570,1,2,0:0:0:0:
320,192,104570,1,4,0:0:0:0:
448,192,104570,1,0,0:0:0:0:
192,192,104835,1,0,0:0:0:0:
320,192,104923,1,2,0:0:0:0:
448,192,104923,1,8,0:0:0:0:
64,192,105099,1,0,0:0:0:0:
192,192,105276,1,2,0:0:0:0:
448,192,105276,1,0,0:0:0:70:Clap 2.wav
320,192,105541,1,0,0:0:0:0:
64,192,105629,1,2,0:0:0:0:
448,192,105629,1,8,0:0:0:0:
64,192,105805,1,0,0:0:0:70:Clap 2.wav
192,192,105805,1,0,0:0:0:0:
320,192,105982,1,2,0:0:0:0:
448,192,105982,1,0,0:0:0:0:
192,192,106158,1,0,0:0:0:50:Snare 2.wav
448,192,106247,1,0,0:0:0:0:
64,192,106335,1,2,0:0:0:0:
320,192,106335,1,8,0:0:0:0:
192,192,106511,1,0,0:0:0:0:
320,192,106688,1,2,0:0:0:0:
448,192,106688,1,0,0:0:0:70:Clap 2.wav
64,192,106864,1,0,0:0:0:0:
448,192,106952,1,0,0:0:0:0:
64,192,107041,1,8,0:0:0:0:
192,192,107041,1,0,0:0:0:0:
320,192,107217,1,0,0:0:0:0:
64,192,107394,1,2,0:0:0:0:
448,192,107394,1,0,0:0:0:0:
320,192,107658,1,0,0:0:0:0:
64,192,107747,1,2,0:0:0:0:
192,192,107747,1,8,0:0:0:0:
448,192,107923,1,0,0:0:0:0:
64,192,108099,1,2,0:0:0:0:
320,192,108099,1,0,0:0:0:70:Clap 2.wav
192,192,108364,1,0,0:0:0:0:
320,192,108452,1,2,0:0:0:0:
448,192,108452,1,8,0:0:0:0:
64,192,108629,1,0,0:0:0:0:
192,192,108805,1,2,0:0:0:0:
448,192,108805,1,0,0:0:0:0:
320,192,109070,1,0,0:0:0:0:
64,192,109158,1,2,0:0:0:0:
448,192,109158,1,8,0:0:0:0:
192,192,109335,1,0,0:0:0:0:
64,192,109511,1,2,0:0:0:0:
320,192,109511,1,0,0:0:0:70:Clap 2.wav
448,192,109776,1,0,0:0:0:0:
64,192,109864,1,2,0:0:0:0:
192,192,109864,1,8,0:0:0:0:
320,192,110041,1,0,0:0:0:0:
64,192,110217,1,2,0:0:0:0:
448,192,110217,1,0,0:0:0:0:
192,192,110482,1,0,0:0:0:0:
320,192,110570,1,2,0:0:0:0:
448,192,110570,1,8,0:0:0:0:
64,192,110747,1,0,0:0:0:0:
192,192,110923,1,2,0:0:0:0:
448,192,110923,1,0,0:0:0:70:Clap 2.wav
192,192,111188,1,0,0:0:0:0:
64,192,111276,1,2,0:0:0:0:
448,192,111276,1,8,0:0:0:0:
320,192,111452,1,0,0:0:0:70:Clap 2.wav
448,192,111452,1,0,0:0:0:0:
64,192,111629,1,2,0:0:0:0:
192,192,111629,1,0,0:0:0:50:Snare 2.wav
320,192,111717,1,0,0:0:0:50:Snare 2.wav
64,192,111805,1,0,0:0:0:50:Snare 2.wav
448,192,111805,1,0,0:0:0:0:
192,192,111894,1,0,0:0:0:50:Snare 2.wav
320,192,111982,1,0,0:0:0:50:Snare 2.wav
448,192,111982,1,0,0:0:0:0:
192,192,112070,1,0,0:0:0:50:Snare 2.wav
64,192,112158,1,0,0:0:0:50:Snare 2.wav
448,192,112158,1,0,0:0:0:0:
320,192,112247,1,0,0:0:0:50:Snare 2.wav
64,192,112335,1,0,0:0:0:70:Snare 3.wav
192,192,112335,1,0,0:0:0:0:
64,192,112511,1,0,0:0:0:70:Snare 3.wav
192,192,112511,1,0,0:0:0:0:
64,192,112688,1,0,0:0:0:70:Snare 3.wav
192,192,112688,1,0,0:0:0:0:
320,192,112776,1,0,0:0:0:50:Snare 2.wav
64,192,112864,1,0,0:0:0:50:Snare 2.wav
448,192,112864,1,0,0:0:0:0:
192,192,112952,1,0,0:0:0:50:Snare 2.wav
320,192,113041,1,2,0:0:0:0:
448,192,113041,1,0,0:0:0:0:
64,192,113305,1,0,0:0:0:50:Snare 2.wav
192,192,113305,1,0,0:0:0:0:
192,192,113394,1,2,0:0:0:0:
448,192,113394,1,8,0:0:0:0:
320,192,113570,1,0,0:0:0:50:Snare 2.wav
448,192,113570,1,0,0:0:0:0:
64,192,113747,1,2,0:0:0:0:
192,192,113747,1,0,0:0:0:70:Clap 2.wav
64,192,114011,1,0,0:0:0:50:Snare 2.wav
448,192,114011,1,0,0:0:0:0:
320,192,114099,1,2,0:0:0:0:
448,192,114099,1,8,0:0:0:0:
64,192,114276,1,0,0:0:0:50:Snare 2.wav
192,192,114276,1,0,0:0:0:0:
192,192,114452,1,2,0:0:0:0:
448,192,114452,1,0,0:0:0:0:
320,192,114717,1,0,0:0:0:50:Snare 2.wav
448,192,114717,1,0,0:0:0:0:
64,192,114805,1,2,0:0:0:0:
320,192,114805,1,8,0:0:0:0:
64,192,114982,1,0,0:0:0:50:Snare 2.wav
192,192,114982,1,0,0:0:0:0:
192,192,115158,1,2,0:0:0:0:
448,192,115158,1,0,0:0:0:70:Clap 2.wav
64,192,115423,1,0,0:0:0:50:Snare 2.wav
448,192,115423,1,0,0:0:0:0:
64,192,115511,1,2,0:0:0:0:
192,192,115511,1,8,0:0:0:0:
320,192,115688,1,0,0:0:0:50:Snare 2.wav
448,192,115688,1,0,0:0:0:0:
64,192,115864,1,2,0:0:0:0:
320,192,115864,1,0,0:0:0:0:
64,192,116129,1,0,0:0:0:50:Snare 2.wav
448,192,116129,1,0,0:0:0:0:
320,192,116217,1,2,0:0:0:0:
448,192,116217,1,8,0:0:0:0:
192,192,116394,1,0,0:0:0:50:Snare 2.wav
320,192,116394,1,0,0:0:0:0:
64,192,116570,1,2,0:0:0:0:
192,192,116570,1,0,0:0:0:70:Clap 2.wav
192,192,116835,1,0,0:0:0:50:Snare 2.wav
448,192,116835,1,0,0:0:0:0:
64,192,116923,1,2,0:0:0:0:
192,192,116923,1,8,0:0:0:0:
320,192,117099,1,0,0:0:0:50:Snare 2.wav
448,192,117099,1,0,0:0:0:0:
64,192,117276,1,2,0:0:0:0:
320,192,117276,1,0,0:0:0:0:
64,192,117541,1,0,0:0:0:50:Snare 2.wav
192,192,117541,1,0,0:0:0:0:
192,192,117629,1,2,0:0:0:0:
448,192,117629,1,8,0:0:0:0:
320,192,117805,1,0,0:0:0:50:Snare 2.wav
448,192,117805,1,0,0:0:0:0:
64,192,117982,1,2,0:0:0:0:
192,192,117982,1,0,0:0:0:70:Clap 2.wav
64,192,118247,1,0,0:0:0:50:Snare 2.wav
320,192,118247,1,0,0:0:0:0:
320,192,118335,1,8,0:0:0:0:
448,192,118335,1,0,0:0:0:0:
64,192,118511,1,0,0:0:0:50:Snare 2.wav
448,192,118511,1,0,0:0:0:0:
64,192,118688,1,2,0:0:0:0:
192,192,118688,1,0,0:0:0:0:
192,192,118952,1,0,0:0:0:50:Snare 2.wav
448,192,118952,1,0,0:0:0:0:
320,192,119041,1,2,0:0:0:0:
448,192,119041,1,8,0:0:0:0:
64,192,119217,1,0,0:0:0:50:Snare 2.wav
192,192,119217,1,0,0:0:0:0:
64,192,119394,1,2,0:0:0:0:
448,192,119394,1,0,0:0:0:70:Clap 2.wav
64,192,119658,1,0,0:0:0:50:Snare 2.wav
320,192,119658,1,0,0:0:0:0:
64,192,119747,1,2,0:0:0:0:
192,192,119747,1,8,0:0:0:0:
320,192,119923,1,0,0:0:0:50:Snare 2.wav
448,192,119923,1,0,0:0:0:0:
192,192,120099,1,2,0:0:0:0:
448,192,120099,1,0,0:0:0:0:
64,192,120364,1,0,0:0:0:50:Snare 2.wav
192,192,120364,1,0,0:0:0:0:
64,192,120452,1,2,0:0:0:0:
320,192,120452,1,8,0:0:0:0:
320,192,120629,1,0,0:0:0:50:Snare 2.wav
448,192,120629,1,0,0:0:0:0:
64,192,120805,1,2,0:0:0:0:
448,192,120805,1,0,0:0:0:70:Clap 2.wav
64,192,121070,1,0,0:0:0:50:Snare 2.wav
320,192,121070,1,0,0:0:0:0:
320,192,121158,1,2,0:0:0:0:
448,192,121158,1,8,0:0:0:0:
192,192,121335,1,0,0:0:0:50:Snare 2.wav
448,192,121335,1,0,0:0:0:0:
64,192,121511,1,2,0:0:0:0:
320,192,121511,1,0,0:0:0:0:
192,192,121776,1,0,0:0:0:50:Snare 2.wav
448,192,121776,1,0,0:0:0:0:
64,192,121864,1,2,0:0:0:0:
192,192,121864,1,8,0:0:0:0:
64,192,122041,1,0,0:0:0:50:Snare 2.wav
448,192,122041,1,0,0:0:0:0:
320,192,122217,1,2,0:0:0:0:
448,192,122217,1,0,0:0:0:70:Clap 2.wav
64,192,122482,1,0,0:0:0:50:Snare 2.wav
320,192,122482,1,0,0:0:0:0:
64,192,122570,1,2,0:0:0:0:
192,192,122570,1,8,0:0:0:0:
320,192,122747,1,0,0:0:0:50:Snare 2.wav
448,192,122747,1,0,0:0:0:0:
64,192,122923,1,2,0:0:0:0:
448,192,122923,1,0,0:0:0:0:
64,192,123099,1,0,0:0:0:70:LR_Drum_Rim_Fast.wav
192,192,123099,1,0,0:0:0:0:
320,192,123188,1,0,0:0:0:0:
64,192,123276,1,0,0:0:0:70:LR_Drum_Rim_Fast.wav
192,192,123276,1,0,0:0:0:0:
64,192,123452,1,0,0:0:0:70:LR_Drum_Rim_Fast.wav
448,192,123452,1,0,0:0:0:0:
192,192,123541,1,0,0:0:0:70:LR_Drum_Rim_Fast.wav
320,192,123629,1,0,0:0:0:70:LR_Drum_Rim_Fast.wav
448,192,123629,1,0,0:0:0:0:
64,192,123805,1,0,0:0:0:70:Tom1.wav
320,192,123805,1,0,0:0:0:0:
64,192,123982,1,0,0:0:0:70:LR_Drum_Rim_Fast.wav
192,192,123982,1,0,0:0:0:0:
448,192,124070,1,0,0:0:0:70:LR_Drum_Rim_Fast.wav
192,192,124158,1,0,0:0:0:70:Tom2.wav
320,192,124158,1,0,0:0:0:0:
64,192,124247,1,0,0:0:0:0:
320,192,124335,128,2,124511:0:0:0:0:
448,192,124335,128,4,124688:0:0:0:0:
64,192,124511,128,0,124688:0:0:0:0:
192,192,124688,128,0,124864:0:0:0:0:
64,192,124864,128,2,125217:0:0:0:0:
320,192,124864,128,0,125041:0:0:0:0:
192,192,125041,128,8,125217:0:0:0:0:
448,192,125041,1,0,0:0:0:0:
320,192,125217,128,0,125394:0:0:0:0:
64,192,125394,128,2,125747:0:0:0:0:
448,192,125394,128,0,125570:0:0:0:0:
192,192,125570,128,0,125747:0:0:0:0:
320,192,125658,1,0,0:0:0:50:Tom2.wav
448,192,125747,128,8,125923:0:0:0:70:Snare 3.wav
64,192,125923,128,2,126099:0:0:0:0:
192,192,125923,128,0,126099:0:0:0:0:
320,192,126099,1,8,0:0:0:0:
448,192,126099,1,0,0:0:0:0:
64,192,126276,1,2,0:0:0:0:
448,192,126276,1,0,0:0:0:0:
64,192,126452,1,8,0:0:0:0:
192,192,126452,128,0,126717:0:0:0:0:
192,192,126805,1,2,0:0:0:0:
448,192,126805,1,0,0:0:0:0:
320,192,126982,128,0,127247:0:0:0:0:
64,192,127158,1,2,0:0:0:0:
448,192,127158,1,0,0:0:0:0:
320,192,127335,1,0,0:0:0:0:
192,192,127423,1,0,0:0:0:0:
64,192,127511,1,2,0:0:0:0:
448,192,127511,128,0,127776:0:0:0:0:
192,192,127688,1,0,0:0:0:0:
64,192,127864,1,8,0:0:0:0:
448,192,127864,1,0,0:0:0:0:
192,192,128041,128,2,128305:0:0:0:0:
320,192,128041,1,0,0:0:0:0:
64,192,128129,1,0,0:0:0:0:
448,192,128217,1,0,0:0:0:0:
192,192,128394,1,0,0:0:0:0:
64,192,128570,128,2,129276:0:0:0:0:
320,192,128570,1,0,0:0:0:0:
448,192,128747,1,0,0:0:0:0:
192,192,128835,1,0,0:0:0:0:
320,192,128923,1,8,0:0:0:0:
448,192,128923,1,0,0:0:0:0:
192,192,129099,1,2,0:0:0:0:
320,192,129188,1,2,0:0:0:0:
192,192,129276,1,8,0:0:0:0:
448,192,129276,1,0,0:0:0:0:
64,192,129452,1,0,0:0:0:0:
320,192,129629,128,8,129805:0:0:0:0:
448,192,129629,1,0,0:0:0:0:
192,192,129805,128,0,129982:0:0:0:50:Snare 2.wav
320,192,129894,1,0,0:0:0:50:Snare 2.wav
64,192,129982,128,2,130335:0:0:0:0:
448,192,129982,128,0,130158:0:0:0:0:
320,192,130158,128,0,130335:0:0:0:0:
192,192,130335,128,2,130511:0:0:0:0:
448,192,130335,1,0,0:0:0:70:Snare 3.wav
320,192,130511,128,0,130864:0:0:0:0:
448,192,130511,128,0,130688:0:0:0:0:
64,192,130688,128,2,130864:0:0:0:0:
192,192,130688,1,0,0:0:0:0:
192,192,130864,128,0,131041:0:0:0:0:
320,192,131041,128,2,131217:0:0:0:0:
448,192,131041,128,0,131394:0:0:0:40:Snare 3.wav
64,192,131217,128,0,131394:0:0:0:0:
192,192,131394,1,2,0:0:0:0:
320,192,131394,128,0,131570:0:0:0:0:
64,192,131570,128,0,131923:0:0:0:0:
448,192,131570,128,0,131747:0:0:0:0:
192,192,131747,128,2,131923:0:0:0:0:
320,192,131747,1,0,0:0:0:0:
448,192,131923,128,0,132099:0:0:0:0:
64,192,132099,1,2,0:0:0:0:
192,192,132099,128,0,132364:0:0:0:0:
320,192,132276,1,0,0:0:0:0:
192,192,132452,1,2,0:0:0:0:
448,192,132452,1,0,0:0:0:0:
64,192,132629,128,0,132894:0:0:0:0:
320,192,132805,1,2,0:0:0:0:
448,192,132805,1,0,0:0:0:0:
64,192,132982,1,2,0:0:0:0:
192,192,132982,1,0,0:0:0:0:
320,192,133070,1,0,0:0:0:50:Snare 3.wav
64,192,133158,1,2,0:0:0:0:
448,192,133158,128,0,133423:0:0:0:0:
192,192,133335,1,2,0:0:0:0:
320,192,133335,1,0,0:0:0:0:
64,192,133511,1,2,0:0:0:0:
448,192,133511,1,0,0:0:0:0:
320,192,133688,128,2,133952:0:0:0:0:
448,192,133688,1,0,0:0:0:0:
64,192,133864,1,2,0:0:0:0:
192,192,133864,1,0,0:0:0:0:
64,192,134041,128,2,134217:0:0:0:0:
320,192,134041,1,0,0:0:0:0:
192,192,134217,1,2,0:0:0:0:
448,192,134217,128,0,134923:0:0:0:0:
64,192,134482,1,0,0:0:0:0:
192,192,134526,1,0,0:0:0:0:
320,192,134570,1,0,0:0:0:70:Tom1.wav
192,192,134747,1,0,0:0:0:70:Tom1.wav
64,192,134923,1,0,0:0:0:70:Tom3.wav
320,192,134923,1,0,0:0:0:0:
64,192,135276,1,0,0:0:0:70:Tom3.wav
448,192,135276,1,0,0:0:0:0:
192,192,135629,1,2,0:0:0:0:
320,192,135629,1,4,0:0:0:0:
448,192,135629,128,0,135982:0:0:0:0:
64,192,136158,128,2,136511:0:0:0:0:
448,192,136158,1,0,0:0:0:0:
192,192,136335,1,8,0:0:0:0:
320,192,136335,1,0,0:0:0:0:
448,192,136335,1,0,0:0:0:0:
64,192,136688,1,2,0:0:0:0:
320,192,136688,128,0,137041:0:0:0:0:
448,192,137041,1,0,0:0:0:40:Clap 2.wav
192,192,137394,128,0,137658:0:0:0:40:Clap 2.wav
64,192,137570,1,2,0:0:0:0:
448,192,137570,1,0,0:0:0:0:
320,192,137658,1,2,0:0:0:0:
64,192,137747,1,8,0:0:0:0:
192,192,137747,1,0,0:0:0:40:Clap 2.wav
448,192,137747,1,0,0:0:0:0:
192,192,138099,1,2,0:0:0:0:
320,192,138099,1,0,0:0:0:0:
64,192,138452,128,2,138982:0:0:0:0:
448,192,138452,1,0,0:0:0:40:Clap 2.wav
192,192,138805,128,0,138982:0:0:0:40:Clap 2.wav
320,192,138982,1,2,0:0:0:0:
448,192,138982,128,0,139335:0:0:0:0:
64,192,139158,1,8,0:0:0:0:
192,192,139158,1,0,0:0:0:0:
320,192,139158,1,0,0:0:0:0:
64,192,139335,128,0,139864:0:0:0:0:
192,192,139511,128,2,139864:0:0:0:0:
448,192,139511,1,0,0:0:0:40:Clap 2.wav
320,192,139864,1,0,0:0:0:40:Clap 2.wav
64,192,140041,1,2,0:0:0:0:
192,192,140041,1,0,0:0:0:0:
320,192,140217,128,2,140482:0:0:0:0:
448,192,140217,1,0,0:0:0:40:Clap 2.wav
64,192,140570,1,8,0:0:0:0:
320,192,140570,1,0,0:0:0:0:
448,192,140570,1,0,0:0:0:0:
192,192,140747,1,2,0:0:0:0:
320,192,140835,1,0,0:0:0:0:
64,192,140923,1,2,0:0:0:0:
448,192,140923,1,0,0:0:0:0:
192,192,140967,1,0,0:0:0:0:
320,192,141011,1,0,0:0:0:0:
64,192,141099,1,0,0:0:0:0:
192,192,141188,1,0,0:0:0:0:
320,192,141276,1,2,0:0:0:0:
448,192,141276,128,0,141629:0:0:0:40:Clap 2.wav
192,192,141629,1,0,0:0:0:40:Clap 2.wav
64,192,141805,128,2,142158:0:0:0:0:
448,192,141805,1,0,0:0:0:0:
192,192,141982,1,8,0:0:0:0:
320,192,141982,1,0,0:0:0:0:
448,192,141982,1,0,0:0:0:0:
64,192,142335,1,2,0:0:0:0:
320,192,142335,128,0,142688:0:0:0:40:Clap 2.wav
448,192,142688,1,0,0:0:0:40:Clap 2.wav
64,192,143041,128,0,143305:0:0:0:40:Clap 2.wav
320,192,143217,1,2,0:0:0:0:
448,192,143217,1,0,0:0:0:0:
192,192,143305,1,2,0:0:0:0:
64,192,143394,1,8,0:0:0:0:
320,192,143394,1,0,0:0:0:0:
448,192,143394,1,0,0:0:0:0:
64,192,143747,1,2,0:0:0:0:
192,192,143747,1,0,0:0:0:40:Clap 2.wav
192,192,144099,128,2,144629:0:0:0:0:
320,192,144099,1,0,0:0:0:0:
448,192,144099,1,0,0:0:0:0:
64,192,144452,128,0,144629:0:0:0:40:Clap 2.wav
320,192,144629,1,2,0:0:0:0:
448,192,144629,128,0,145070:0:0:0:0:
64,192,144805,1,8,0:0:0:0:
192,192,144805,1,0,0:0:0:0:
320,192,144805,1,0,0:0:0:0:
192,192,145158,128,2,145335:0:0:0:0:
448,192,145158,1,0,0:0:0:0:
64,192,145335,1,0,0:0:0:0:
320,192,145511,1,2,0:0:0:0:
448,192,145511,1,0,0:0:0:30:Clap 2.wav
64,192,145688,1,2,0:0:0:0:
192,192,145688,1,0,0:0:0:0:
320,192,145776,1,0,0:0:0:0:
448,192,145776,1,0,0:0:0:0:
64,192,145864,1,2,0:0:0:0:
192,192,145864,1,0,0:0:0:0:
64,192,146041,1,2,0:0:0:0:
448,192,146041,1,0,0:0:0:0:
320,192,146394,1,2,0:0:0:0:
192,192,146482,1,0,0:0:0:0:
64,192,146570,1,0,0:0:0:70:Clap 2.wav
448,192,146570,1,0,0:0:0:70:Tom1.wav
320,192,146747,1,0,0:0:0:70:Tom1.wav
64,192,146923,1,2,0:0:0:0:
192,192,146923,1,0,0:0:0:0:
448,192,147011,1,0,0:0:0:0:
64,192,147099,1,0,0:0:0:0:
320,192,147188,1,0,0:0:0:0:
192,192,147276,1,0,0:0:0:0:
448,192,147364,1,0,0:0:0:0:
64,192,147452,1,2,0:0:0:0:
320,192,147452,1,0,0:0:0:0:
192,192,147541,1,0,0:0:0:0:
64,192,147629,1,8,0:0:0:0:
320,192,147629,1,0,0:0:0:0:
448,192,147629,1,0,0:0:0:0:
192,192,147717,1,0,0:0:0:0:
448,192,147805,1,0,0:0:0:0:
64,192,147894,1,8,0:0:0:0:
320,192,147894,1,0,0:0:0:0:
192,192,147982,1,2,0:0:0:0:
448,192,147982,1,0,0:0:0:0:
320,192,148070,1,0,0:0:0:0:
64,192,148158,1,8,0:0:0:0:
192,192,148158,1,0,0:0:0:0:
448,192,148247,1,0,0:0:0:0:
64,192,148335,1,8,0:0:0:0:
320,192,148335,1,0,0:0:0:0:
192,192,148423,1,0,0:0:0:0:
320,192,148511,1,0,0:0:0:0:
64,192,148599,1,0,0:0:0:0:
320,192,148688,1,8,0:0:0:0:
448,192,148688,1,0,0:0:0:0:
192,192,148776,1,0,0:0:0:0:
64,192,148864,1,2,0:0:0:0:
448,192,148864,1,0,0:0:0:0:
320,192,148952,1,2,0:0:0:0:
64,192,149041,1,8,0:0:0:0:
192,192,149041,1,0,0:0:0:0:
448,192,149041,1,0,0:0:0:0:
320,192,149129,1,0,0:0:0:0:
192,192,149217,1,0,0:0:0:0:
320,192,149305,1,8,0:0:0:0:
448,192,149305,1,0,0:0:0:0:
64,192,149394,1,2,0:0:0:0:
192,192,149394,1,0,0:0:0:0:
448,192,149482,1,0,0:0:0:0:
64,192,149570,1,8,0:0:0:0:
320,192,149570,1,0,0:0:0:0:
192,192,149658,1,8,0:0:0:0:
448,192,149658,1,0,0:0:0:0:
64,192,149747,1,2,0:0:0:0:
320,192,149747,1,0,0:0:0:0:
192,192,149835,1,0,0:0:0:0:
448,192,149923,1,0,0:0:0:0:
64,192,150011,1,0,0:0:0:0:
192,192,150099,1,8,0:0:0:0:
320,192,150099,1,0,0:0:0:0:
448,192,150188,1,0,0:0:0:0:
64,192,150276,1,2,0:0:0:0:
192,192,150276,1,0,0:0:0:0:
320,192,150364,1,0,0:0:0:0:
64,192,150452,1,8,0:0:0:0:
192,192,150452,1,0,0:0:0:0:
448,192,150452,1,0,0:0:0:0:
320,192,150541,1,0,0:0:0:0:
64,192,150629,1,0,0:0:0:50:Tom1.wav
192,192,150717,1,8,0:0:0:0:
448,192,150717,1,0,0:0:0:0:
64,192,150805,1,2,0:0:0:0:
320,192,150805,1,0,0:0:0:0:
192,192,150894,1,0,0:0:0:0:
320,192,150982,1,8,0:0:0:0:
448,192,150982,1,0,0:0:0:0:
64,192,151070,1,0,0:0:0:0:
192,192,151158,1,8,0:0:0:0:
448,192,151158,1,0,0:0:0:0:
320,192,151247,1,0,0:0:0:0:
64,192,151335,1,2,0:0:0:0:
192,192,151335,1,0,0:0:0:0:
448,192,151423,1,0,0:0:0:0:
64,192,151511,1,2,0:0:0:0:
320,192,151511,1,0,0:0:0:0:
192,192,151599,1,0,0:0:0:0:
448,192,151688,1,0,0:0:0:0:
320,192,151776,1,0,0:0:0:0:
64,192,151864,1,8,0:0:0:0:
192,192,151864,1,0,0:0:0:0:
448,192,151864,1,0,0:0:0:0:
320,192,151952,1,0,0:0:0:0:
64,192,152041,1,0,0:0:0:0:
192,192,152041,1,0,0:0:0:0:
320,192,152129,1,8,0:0:0:0:
448,192,152129,1,0,0:0:0:0:
64,192,152217,1,2,0:0:0:0:
192,192,152217,1,0,0:0:0:0:
320,192,152261,1,0,0:0:0:0:
448,192,152305,1,0,0:0:0:0:
64,192,152394,1,0,0:0:0:50:Snare 2.wav
192,192,152394,1,0,0:0:0:0:
320,192,152482,1,0,0:0:0:50:Snare 2.wav
448,192,152482,1,0,0:0:0:0:
64,192,152570,1,2,0:0:0:0:
192,192,152570,1,0,0:0:0:50:Snare 2.wav
320,192,152658,1,0,0:0:0:0:
64,192,152747,1,0,0:0:0:50:Snare 2.wav
448,192,152747,1,0,0:0:0:0:
192,192,152835,1,0,0:0:0:0:
320,192,152923,1,0,0:0:0:50:Snare 2.wav
448,192,152923,1,0,0:0:0:0:
64,192,153011,1,0,0:0:0:0:
192,192,153099,1,2,0:0:0:0:
320,192,153099,1,0,0:0:0:50:Snare 2.wav
448,192,153188,1,0,0:0:0:0:
64,192,153276,1,8,0:0:0:0:
192,192,153276,1,0,0:0:0:50:Snare 2.wav
320,192,153276,1,0,0:0:0:0:
448,192,153364,1,0,0:0:0:0:
64,192,153452,1,0,0:0:0:50:Snare 2.wav
192,192,153452,1,0,0:0:0:0:
320,192,153541,1,0,0:0:0:0:
64,192,153629,1,2,0:0:0:0:
448,192,153629,1,0,0:0:0:50:Snare 2.wav
192,192,153717,1,0,0:0:0:0:
320,192,153805,1,0,0:0:0:50:Snare 2.wav
448,192,153805,1,0,0:0:0:0:
64,192,153894,1,0,0:0:0:0:
192,192,153982,1,0,0:0:0:50:Snare 2.wav
448,192,153982,1,0,0:0:0:0:
320,192,154070,1,0,0:0:0:0:
64,192,154158,1,0,0:0:0:50:Snare 2.wav
192,192,154158,1,0,0:0:0:0:
448,192,154247,1,0,0:0:0:0:
64,192,154335,1,0,0:0:0:50:Snare 2.wav
320,192,154335,1,0,0:0:0:0:
192,192,154423,1,0,0:0:0:0:
64,192,154511,1,2,0:0:0:0:
448,192,154511,1,0,0:0:0:50:Snare 2.wav
320,192,154599,1,2,0:0:0:0:
64,192,154688,1,8,0:0:0:0:
192,192,154688,1,0,0:0:0:50:Snare 2.wav
448,192,154688,1,0,0:0:0:0:
320,192,154776,1,0,0:0:0:0:
192,192,154864,1,0,0:0:0:50:Snare 2.wav
448,192,154864,1,0,0:0:0:0:
64,192,154952,1,0,0:0:0:0:
320,192,155041,1,2,0:0:0:0:
448,192,155041,1,0,0:0:0:50:Snare 2.wav
192,192,155129,1,0,0:0:0:0:
64,192,155217,1,0,0:0:0:50:Snare 2.wav
320,192,155217,1,0,0:0:0:0:
448,192,155305,1,0,0:0:0:0:
64,192,155394,1,2,0:0:0:0:
192,192,155394,1,0,0:0:0:50:Snare 2.wav
320,192,155482,1,0,0:0:0:50:Snare 2.wav
448,192,155482,1,0,0:0:0:0:
64,192,155570,1,0,0:0:0:50:Snare 2.wav
192,192,155570,1,0,0:0:0:0:
320,192,155658,1,0,0:0:0:50:Snare 2.wav
448,192,155658,1,0,0:0:0:0:
64,192,155747,1,0,0:0:0:50:Snare 2.wav
192,192,155747,1,0,0:0:0:0:
320,192,155835,1,0,0:0:0:50:Snare 2.wav
448,192,155835,1,0,0:0:0:0:
64,192,155923,1,2,0:0:0:0:
192,192,155923,1,0,0:0:0:50:Snare 2.wav
320,192,156011,1,0,0:0:0:50:Snare 2.wav
448,192,156011,1,0,0:0:0:0:
64,192,156099,1,8,0:0:0:0:
192,192,156099,1,0,0:0:0:50:Snare 2.wav
320,192,156188,1,0,0:0:0:50:Snare 2.wav
448,192,156188,1,0,0:0:0:0:
64,192,156276,1,0,0:0:0:50:Snare 2.wav
192,192,156276,1,0,0:0:0:0:
320,192,156364,1,0,0:0:0:50:Snare 2.wav
448,192,156364,1,0,0:0:0:0:
64,192,156452,1,2,0:0:0:0:
192,192,156452,1,0,0:0:0:50:Snare 2.wav
320,192,156541,1,0,0:0:0:50:Snare 2.wav
448,192,156541,1,0,0:0:0:0:
64,192,156629,1,0,0:0:0:50:Snare 2.wav
192,192,156629,1,0,0:0:0:0:
320,192,156717,1,0,0:0:0:50:Snare 2.wav
448,192,156717,1,0,0:0:0:0:
64,192,156805,1,0,0:0:0:50:Clap 2.wav
192,192,156805,1,0,0:0:0:0:
448,192,156982,128,0,157158:0:0:0:50:Snare 2.wav
320,192,157070,128,0,157158:0:0:0:0:
64,192,157158,1,8,0:0:0:0:
192,192,157158,1,0,0:0:0:50:Clap 2.wav
64,192,157335,128,0,157511:0:0:0:0:
192,192,157423,128,0,157511:0:0:0:0:
320,192,157511,1,8,0:0:0:0:
448,192,157511,128,0,157688:0:0:0:0:
64,192,157688,128,0,157776:0:0:0:50:Snare 3.wav
192,192,157688,128,0,157776:0:0:0:0:
320,192,157776,128,0,157864:0:0:0:0:
64,192,157864,128,0,158129:0:0:0:70:Tom2.wav
448,192,157864,128,0,158129:0:0:0:0:
192,192,158041,128,0,158129:0:0:0:0:
64,192,158217,128,2,158835:0:0:0:0:
192,192,158217,128,4,158482:0:0:0:0:
320,192,158217,128,0,158482:0:0:0:0:
448,192,158217,128,0,158482:0:0:0:0:
192,192,158570,128,8,158835:0:0:0:0:
320,192,158570,128,2,159188:0:0:0:0:
448,192,158570,128,0,158835:0:0:0:0:
64,192,158923,128,2,159188:0:0:0:0:
192,192,158923,128,0,159188:0:0:0:0:
448,192,158923,128,0,159188:0:0:0:0:
64,192,159276,128,8,159364:0:0:0:0:
320,192,159276,128,2,159364:0:0:0:0:
448,192,159276,128,0,159364:0:0:0:0:
64,192,159452,128,0,159541:0:0:0:0:
192,192,159452,128,0,159541:0:0:0:0:
192,192,159629,128,2,159894:0:0:0:0:
320,192,159629,128,0,159894:0:0:0:0:
448,192,159629,128,0,159894:0:0:0:0:
64,192,159982,128,8,160158:0:0:0:0:
320,192,159982,128,2,160158:0:0:0:0:
448,192,159982,128,0,160158:0:0:0:0:
192,192,160158,1,0,0:0:0:0:
320,192,160247,1,0,0:0:0:0:
64,192,160335,128,2,160511:0:0:0:0:
192,192,160335,128,0,160511:0:0:0:0:
448,192,160335,128,0,160511:0:0:0:0:
320,192,160511,1,0,0:0:0:0:
192,192,160599,1,0,0:0:0:0:
64,192,160688,128,8,160952:0:0:0:0:
320,192,160688,128,2,160952:0:0:0:0:
448,192,160688,128,0,160952:0:0:0:0:
192,192,160864,128,0,160952:0:0:0:0:
64,192,161041,128,2,161305:0:0:0:0:
192,192,161041,128,0,161305:0:0:0:0:
448,192,161041,128,0,161658:0:0:0:0:
64,192,161394,128,8,162011:0:0:0:0:
192,192,161394,128,2,161658:0:0:0:0:
320,192,161394,128,0,161658:0:0:0:0:
192,192,161747,128,2,162011:0:0:0:0:
320,192,161747,128,0,162011:0:0:0:0:
448,192,161747,128,0,162011:0:0:0:0:
64,192,162099,128,8,162188:0:0:0:0:
320,192,162099,128,2,162188:0:0:0:0:
448,192,162099,128,0,162188:0:0:0:0:
192,192,162276,128,0,162364:0:0:0:0:
320,192,162276,128,0,162364:0:0:0:0:
64,192,162452,128,2,162629:0:0:0:0:
192,192,162452,128,0,162629:0:0:0:0:
448,192,162452,128,0,162629:0:0:0:0:
320,192,162629,1,0,0:0:0:0:
192,192,162717,1,0,0:0:0:0:
64,192,162805,128,8,162894:0:0:0:0:
320,192,162805,128,2,163070:0:0:0:0:
448,192,162805,128,0,163070:0:0:0:0:
64,192,162982,128,0,163423:0:0:0:0:
192,192,162982,128,0,163070:0:0:0:0:
192,192,163158,128,2,163423:0:0:0:0:
320,192,163158,128,0,163247:0:0:0:0:
448,192,163158,128,0,163247:0:0:0:0:
320,192,163335,128,0,163423:0:0:0:0:
448,192,163335,128,0,163776:0:0:0:0:
64,192,163511,128,8,163776:0:0:0:0:
192,192,163511,128,2,163776:0:0:0:0:
320,192,163511,128,0,163776:0:0:0:0:
192,192,163864,128,2,164129:0:0:0:0:
320,192,163864,128,0,164482:0:0:0:0:
448,192,163864,128,0,164129:0:0:0:0:
64,192,164217,128,8,164482:0:0:0:0:
192,192,164217,128,2,164835:0:0:0:0:
448,192,164217,128,0,164482:0:0:0:0:
64,192,164570,128,2,164835:0:0:0:0:
320,192,164570,128,0,164835:0:0:0:0:
448,192,164570,128,0,164835:0:0:0:0:
64,192,164923,128,8,165011:0:0:0:0:
192,192,164923,128,2,165011:0:0:0:0:
320,192,164923,128,0,165011:0:0:0:0:
64,192,165099,128,0,165188:0:0:0:0:
448,192,165099,128,0,165188:0:0:0:0:
192,192,165276,128,2,165541:0:0:0:0:
320,192,165276,128,0,165541:0:0:0:0:
448,192,165276,128,0,165541:0:0:0:0:
64,192,165629,128,8,165805:0:0:0:0:
192,192,165629,128,2,165805:0:0:0:0:
320,192,165629,128,0,165805:0:0:0:0:
448,192,165805,1,0,0:0:0:0:
64,192,165894,1,0,0:0:0:0:
192,192,165982,128,2,166158:0:0:0:0:
320,192,165982,128,0,166158:0:0:0:0:
448,192,165982,128,0,166158:0:0:0:0:
64,192,166158,1,0,0:0:0:0:
448,192,166247,1,0,0:0:0:0:
64,192,166335,128,8,166599:0:0:0:0:
192,192,166335,128,2,166599:0:0:0:0:
320,192,166335,128,0,166599:0:0:0:0:
448,192,166511,128,0,166599:0:0:0:0:
64,192,166688,128,2,167305:0:0:0:0:
192,192,166688,128,0,166952:0:0:0:0:
448,192,166688,128,0,166952:0:0:0:0:
192,192,167041,128,8,167658:0:0:0:0:
320,192,167041,128,2,167305:0:0:0:0:
448,192,167041,128,0,167305:0:0:0:0:
64,192,167394,128,2,167658:0:0:0:0:
320,192,167394,128,0,167658:0:0:0:0:
448,192,167394,128,0,167658:0:0:0:0:
192,192,167747,128,8,167835:0:0:0:0:
320,192,167747,128,2,167835:0:0:0:0:
448,192,167747,128,0,167835:0:0:0:0:
64,192,167923,128,0,168011:0:0:0:0:
320,192,167923,128,0,168011:0:0:0:0:
64,192,168099,128,2,168276:0:0:0:0:
192,192,168099,128,0,168276:0:0:0:0:
448,192,168099,128,0,168276:0:0:0:0:
320,192,168276,1,0,0:0:0:0:
192,192,168364,1,0,0:0:0:0:
448,192,168452,128,0,168629:0:0:0:50:Snare 2.wav
64,192,168452,128,0,168805:0:0:0:0:
192,192,168629,128,0,168805:0:0:0:0:
448,192,168805,128,0,168982:0:0:0:70:Splash.wav
320,192,168805,128,0,168982:0:0:0:0:
192,192,168982,1,0,0:0:0:50:Snare 2.wav
64,192,168982,1,0,0:0:0:0:
320,192,169070,1,0,0:0:0:0:
448,192,169070,1,0,0:0:0:50:Snare 2.wav
192,192,169158,1,0,0:0:0:50:Snare 2.wav
64,192,169158,128,0,169423:0:0:0:0:
448,192,169335,128,0,169423:0:0:0:0:
64,192,169511,128,2,169776:0:0:0:0:
192,192,169511,128,4,169776:0:0:0:0:
320,192,169511,128,0,169776:0:0:0:0:
448,192,169511,128,0,170129:0:0:0:0:
64,192,169864,128,8,170482:0:0:0:0:
192,192,169864,128,2,170129:0:0:0:0:
320,192,169864,128,0,170129:0:0:0:0:
192,192,170217,128,2,170482:0:0:0:0:
320,192,170217,128,0,170482:0:0:0:0:
448,192,170217,128,0,170482:0:0:0:0:
64,192,170570,128,8,170658:0:0:0:0:
320,192,170570,128,2,170658:0:0:0:0:
448,192,170570,128,0,170658:0:0:0:0:
64,192,170747,128,0,170835:0:0:0:0:
192,192,170747,128,0,170835:0:0:0:0:
192,192,170923,128,2,171188:0:0:0:0:
320,192,170923,128,0,171188:0:0:0:0:
448,192,170923,128,0,171188:0:0:0:0:
64,192,171276,128,8,171452:0:0:0:0:
320,192,171276,128,2,171452:0:0:0:0:
448,192,171276,128,0,171452:0:0:0:0:
192,192,171452,1,0,0:0:0:0:
448,192,171541,1,0,0:0:0:0:
64,192,171629,128,2,171805:0:0:0:0:
192,192,171629,128,0,171805:0:0:0:0:
320,192,171629,128,0,171805:0:0:0:0:
448,192,171805,1,0,0:0:0:0:
64,192,171894,1,0,0:0:0:0:
192,192,171982,128,8,172247:0:0:0:0:
320,192,171982,128,2,172247:0:0:0:0:
448,192,171982,128,0,172247:0:0:0:0:
64,192,172158,128,0,172247:0:0:0:0:
64,192,172335,128,2,172952:0:0:0:0:
320,192,172335,128,0,172599:0:0:0:0:
448,192,172335,128,0,172599:0:0:0:0:
192,192,172688,128,8,172952:0:0:0:0:
320,192,172688,128,2,173305:0:0:0:0:
448,192,172688,128,0,172952:0:0:0:0:
64,192,173041,128,2,173305:0:0:0:0:
192,192,173041,128,0,173305:0:0:0:0:
448,192,173041,128,0,173305:0:0:0:0:
64,192,173394,128,8,173482:0:0:0:0:
320,192,173394,128,2,173482:0:0:0:0:
448,192,173394,128,0,173482:0:0:0:0:
192,192,173570,128,0,173658:0:0:0:0:
320,192,173570,128,0,173658:0:0:0:0:
64,192,173747,128,2,173923:0:0:0:0:
192,192,173747,128,0,173923:0:0:0:0:
448,192,173747,128,0,173923:0:0:0:0:
320,192,173923,1,0,0:0:0:0:
192,192,174011,1,0,0:0:0:0:
64,192,174099,128,8,174364:0:0:0:0:
320,192,174099,128,2,174188:0:0:0:0:
448,192,174099,128,0,174364:0:0:0:0:
192,192,174276,128,0,174364:0:0:0:0:
320,192,174276,128,0,174541:0:0:0:0:
64,192,174452,128,2,174717:0:0:0:0:
192,192,174452,128,0,174717:0:0:0:0:
448,192,174452,128,0,174541:0:0:0:0:
320,192,174629,128,0,174717:0:0:0:0:
448,192,174629,128,0,174717:0:0:0:0:
64,192,174805,128,8,175070:0:0:0:0:
192,192,174805,128,2,174982:0:0:0:0:
448,192,174805,128,0,175070:0:0:0:0:
320,192,174982,1,0,0:0:0:0:
192,192,175070,1,0,0:0:0:0:
64,192,175158,128,2,175776:0:0:0:0:
320,192,175158,128,0,175423:0:0:0:0:
448,192,175158,128,0,175423:0:0:0:0:
192,192,175511,128,8,175776:0:0:0:0:
320,192,175511,128,2,175776:0:0:0:0:
448,192,175511,128,0,176129:0:0:0:0:
64,192,175864,128,2,176129:0:0:0:0:
192,192,175864,128,0,176129:0:0:0:0:
320,192,175864,128,0,176129:0:0:0:0:
64,192,176217,128,8,176305:0:0:0:0:
192,192,176217,128,2,176305:0:0:0:0:
448,192,176217,128,0,176305:0:0:0:0:
192,192,176394,128,0,176482:0:0:0:0:
320,192,176394,128,0,176482:0:0:0:0:
64,192,176570,128,2,176835:0:0:0:0:
320,192,176570,128,0,176835:0:0:0:0:
448,192,176570,128,0,176835:0:0:0:0:
192,192,176923,128,8,177099:0:0:0:0:
320,192,176923,128,2,177099:0:0:0:0:
448,192,176923,128,0,177099:0:0:0:0:
64,192,177099,1,0,0:0:0:0:
448,192,177188,1,0,0:0:0:0:
64,192,177276,128,2,177452:0:0:0:0:
192,192,177276,128,0,177452:0:0:0:0:
320,192,177276,128,0,177452:0:0:0:0:
448,192,177452,1,0,0:0:0:0:
64,192,177541,1,0,0:0:0:0:
192,192,177629,128,8,177894:0:0:0:0:
320,192,177629,128,2,177894:0:0:0:0:
448,192,177629,128,0,177894:0:0:0:0:
64,192,177805,128,0,177894:0:0:0:0:
64,192,177982,128,2,178599:0:0:0:0:
320,192,177982,128,0,178247:0:0:0:0:
448,192,177982,128,0,178247:0:0:0:0:
192,192,178335,128,8,178952:0:0:0:0:
320,192,178335,128,2,178599:0:0:0:0:
448,192,178335,128,0,178599:0:0:0:0:
64,192,178688,128,2,178952:0:0:0:0:
320,192,178688,128,0,178952:0:0:0:0:
448,192,178688,128,0,178952:0:0:0:0:
64,192,179041,128,8,179129:0:0:0:0:
320,192,179041,128,2,179129:0:0:0:0:
448,192,179041,128,0,179129:0:0:0:0:
64,192,179217,128,0,179305:0:0:0:0:
192,192,179217,128,0,179305:0:0:0:0:
192,192,179394,128,2,180011:0:0:0:0:
320,192,179394,128,0,179658:0:0:0:0:
448,192,179394,128,0,180099:0:0:0:0:
64,192,179747,128,0,180011:0:0:0:0:
320,192,179747,128,0,180099:0:0:0:0:
64,192,180099,1,8,0:0:0:0:
192,192,180099,1,0,0:0:0:0:
448,192,180276,1,0,0:0:0:50:Snare 2.wav
320,192,180320,1,0,0:0:0:50:Snare 2.wav
192,192,180364,1,0,0:0:0:50:Snare 2.wav
64,192,180408,1,0,0:0:0:50:Snare 2.wav
320,192,180452,1,8,0:0:0:0:
448,192,180452,1,0,0:0:0:70:Splash.wav
64,192,180805,1,0,0:0:0:70:Splash.wav
192,192,180805,128,0,182217:0:0:0:0:
448,192,180805,1,0,0:0:0:0:
320,192,180894,1,0,0:0:0:0:
448,192,180982,1,0,0:0:0:0:
448,192,181158,1,0,0:0:0:0:
64,192,181511,1,0,0:0:0:0:
448,192,181599,1,0,0:0:0:0:
320,192,181688,1,0,0:0:0:0:
320,192,181864,1,0,0:0:0:0:
448,192,182041,1,0,0:0:0:0:
64,192,182129,1,0,0:0:0:0:
320,192,182217,128,0,183629:0:0:0:0:
448,192,182217,1,0,0:0:0:0:
64,192,182570,1,0,0:0:0:0:
448,192,182658,1,0,0:0:0:0:
192,192,182747,1,0,0:0:0:0:
192,192,182923,1,0,0:0:0:0:
64,192,183629,1,0,0:0:0:0:
448,192,183629,128,0,185041:0:0:0:0:
192,192,183717,1,0,0:0:0:0:
320,192,183805,1,0,0:0:0:0:
320,192,183982,1,0,0:0:0:0:
64,192,184158,1,0,0:0:0:0:
320,192,184247,1,0,0:0:0:0:
192,192,184335,1,0,0:0:0:0:
192,192,184511,1,0,0:0:0:0:
320,192,184864,1,0,0:0:0:0:
192,192,184952,1,0,0:0:0:0:
64,192,185041,1,0,0:0:0:0:
64,192,185217,1,0,0:0:0:0:
320,192,185394,1,0,0:0:0:0:
64,192,185482,1,0,0:0:0:0:
448,192,185570,1,0,0:0:0:0:
64,192,185747,128,0,186452:0:0:0:0:
192,192,185747,1,0,0:0:0:0:
320,192,185923,1,0,0:0:0:0:
192,192,186011,1,0,0:0:0:0:
448,192,186099,1,0,0:0:0:0:
192,192,186452,1,4,0:0:0:0:
320,192,186452,1,0,0:0:0:0:
448,192,186452,128,0,187864:0:0:0:0:
64,192,186541,1,0,0:0:0:0:
320,192,186629,1,0,0:0:0:0:
320,192,186805,1,0,0:0:0:0:
192,192,186982,1,0,0:0:0:30:Ride.wav
64,192,187158,1,0,0:0:0:0:
320,192,187247,1,0,0:0:0:0:
192,192,187335,1,0,0:0:0:30:Ride.wav
64,192,187511,1,4,0:0:0:0:
192,192,187511,1,0,0:0:0:0:
320,192,187688,1,0,0:0:0:0:
64,192,187776,1,0,0:0:0:0:
192,192,187864,1,0,0:0:0:0:
320,192,187864,128,0,188923:0:0:0:0:
192,192,188217,1,0,0:0:0:0:
448,192,188305,1,0,0:0:0:0:
64,192,188394,1,0,0:0:0:0:
64,192,188570,1,0,0:0:0:30:Ride.wav
192,192,188923,128,0,189099:0:0:0:30:Ride.wav
64,192,189099,128,0,189276:0:0:0:30:Ride.wav
320,192,189276,1,0,0:0:0:0:
448,192,189276,128,0,190688:0:0:0:0:
192,192,189364,1,0,0:0:0:0:
64,192,189452,1,0,0:0:0:0:
64,192,189629,1,0,0:0:0:30:Ride.wav
320,192,189805,1,0,0:0:0:0:
64,192,189894,1,0,0:0:0:0:
192,192,189982,1,0,0:0:0:0:
192,192,190158,1,0,0:0:0:30:Ride.wav
320,192,190335,1,0,0:0:0:30:Ride.wav
64,192,190511,1,0,0:0:0:30:Ride.wav
320,192,190599,1,0,0:0:0:0:
64,192,190688,128,0,191923:0:0:0:0:
192,192,190688,1,0,0:0:0:0:
192,192,190864,1,0,0:0:0:0:
448,192,191041,1,0,0:0:0:0:
320,192,191129,1,0,0:0:0:0:
192,192,191217,1,0,0:0:0:50:Tom2.wav
320,192,191305,1,0,0:0:0:50:Tom2.wav
448,192,191394,128,0,191923:0:0:0:50:Tom3.wav
320,192,191923,1,0,0:0:0:0:
64,192,192099,128,2,192364:0:0:0:0:
192,192,192099,1,4,0:0:0:0:
448,192,192099,1,0,0:0:0:0:
192,192,192364,1,0,0:0:0:50:Snare 2.wav
320,192,192452,1,2,0:0:0:0:
448,192,192452,128,0,192717:0:0:0:0:
64,192,192629,1,0,0:0:0:50:Snare 2.wav
192,192,192805,128,2,193070:0:0:0:0:
448,192,192805,1,0,0:0:0:0:
64,192,193070,1,0,0:0:0:50:Snare 2.wav
192,192,193158,1,2,0:0:0:0:
320,192,193158,128,0,193247:0:0:0:0:
64,192,193335,1,0,0:0:0:50:Snare 2.wav
448,192,193335,128,0,193423:0:0:0:0:
320,192,193423,1,0,0:0:0:50:Snare 2.wav
64,192,193511,128,2,194217:0:0:0:0:
192,192,193511,1,0,0:0:0:0:
448,192,193776,1,0,0:0:0:50:Snare 2.wav
192,192,193864,1,2,0:0:0:0:
320,192,194041,1,0,0:0:0:50:Snare 2.wav
192,192,194217,1,2,0:0:0:0:
448,192,194217,1,0,0:0:0:0:
64,192,194482,1,0,0:0:0:50:Snare 2.wav
320,192,194570,128,2,194658:0:0:0:0:
448,192,194570,1,0,0:0:0:0:
192,192,194747,128,0,194835:0:0:0:50:Snare 2.wav
320,192,194747,1,0,0:0:0:0:
64,192,194923,128,2,195629:0:0:0:0:
448,192,194923,1,0,0:0:0:0:
192,192,195188,1,0,0:0:0:50:Snare 2.wav
448,192,195276,1,2,0:0:0:0:
320,192,195452,128,0,195629:0:0:0:50:Snare 2.wav
192,192,195629,128,2,195982:0:0:0:0:
448,192,195629,1,0,0:0:0:0:
64,192,195894,1,0,0:0:0:50:Snare 2.wav
320,192,195982,1,2,0:0:0:0:
448,192,195982,1,0,0:0:0:0:
64,192,196158,1,0,0:0:0:50:Snare 2.wav
320,192,196158,128,0,196247:0:0:0:0:
192,192,196335,1,2,0:0:0:0:
448,192,196335,128,0,196776:0:0:0:0:
320,192,196599,1,0,0:0:0:50:Snare 2.wav
64,192,196688,1,2,0:0:0:0:
192,192,196864,128,0,197041:0:0:0:50:Snare 2.wav
448,192,196864,1,0,0:0:0:0:
64,192,197041,1,2,0:0:0:0:
320,192,197041,128,0,197217:0:0:0:0:
192,192,197217,1,0,0:0:0:50:Snare 2.wav
448,192,197217,128,0,197305:0:0:0:0:
64,192,197305,128,0,197570:0:0:0:50:Snare 2.wav
448,192,197394,1,2,0:0:0:0:
320,192,197570,128,0,197747:0:0:0:50:Snare 2.wav
64,192,197747,1,2,0:0:0:0:
448,192,197747,128,0,198011:0:0:0:0:
192,192,198011,1,0,0:0:0:50:Snare 2.wav
64,192,198099,128,2,198364:0:0:0:0:
448,192,198099,1,0,0:0:0:0:
320,192,198276,1,0,0:0:0:50:Snare 2.wav
64,192,198452,1,2,0:0:0:0:
192,192,198452,128,0,198717:0:0:0:0:
448,192,198717,1,0,0:0:0:50:Snare 2.wav
192,192,198805,1,2,0:0:0:0:
320,192,198805,128,0,198894:0:0:0:0:
64,192,198982,1,0,0:0:0:50:Snare 2.wav
448,192,198982,128,0,199070:0:0:0:0:
320,192,199070,1,0,0:0:0:50:Snare 2.wav
64,192,199158,128,2,199864:0:0:0:0:
192,192,199158,1,0,0:0:0:0:
448,192,199423,1,0,0:0:0:50:Snare 2.wav
192,192,199511,1,2,0:0:0:0:
320,192,199688,1,0,0:0:0:50:Snare 2.wav
192,192,199864,1,2,0:0:0:0:
448,192,199864,1,0,0:0:0:0:
448,192,200129,1,0,0:0:0:50:Snare 2.wav
64,192,200217,1,2,0:0:0:0:
192,192,200217,128,0,200305:0:0:0:0:
192,192,200394,1,0,0:0:0:50:Snare 2.wav
320,192,200394,128,0,200482:0:0:0:0:
64,192,200570,1,2,0:0:0:0:
448,192,200570,128,0,201805:0:0:0:0:
320,192,200835,1,0,0:0:0:50:Snare 2.wav
64,192,200923,1,2,0:0:0:0:
192,192,201099,1,0,0:0:0:50:Snare 2.wav
320,192,201276,1,2,0:0:0:0:
64,192,201541,1,0,0:0:0:50:Snare 2.wav
320,192,201629,1,2,0:0:0:0:
192,192,201805,1,0,0:0:0:50:Snare 2.wav
64,192,201982,1,2,0:0:0:0:
448,192,201982,1,8,0:0:0:70:Snare 3.wav
320,192,202070,1,8,0:0:0:70:Snare 3.wav
192,192,202158,1,8,0:0:0:70:Snare 3.wav
448,192,202247,1,8,0:0:0:70:Snare 3.wav
64,192,202335,1,2,0:0:0:0:
320,192,202335,1,8,0:0:0:70:Snare 3.wav
192,192,202423,1,8,0:0:0:70:Snare 3.wav
448,192,202511,1,8,0:0:0:70:Snare 3.wav
320,192,202599,1,8,0:0:0:70:Snare 3.wav
64,192,202688,1,2,0:0:0:0:
192,192,202688,1,8,0:0:0:70:Snare 3.wav
448,192,202776,1,8,0:0:0:70:Snare 3.wav
64,192,202864,1,8,0:0:0:70:Snare 3.wav
320,192,202952,1,8,0:0:0:70:Snare 3.wav
192,192,203041,1,0,0:0:0:70:Clap 2.wav
448,192,203041,1,8,0:0:0:70:Snare 3.wav
64,192,203129,1,8,0:0:0:70:Snare 3.wav
320,192,203217,1,8,0:0:0:70:Snare 3.wav
192,192,203305,1,8,0:0:0:70:Snare 3.wav
64,192,203394,1,2,0:0:0:0:
320,192,203394,1,4,0:0:0:0:
448,192,203394,128,0,203658:0:0:0:0:
64,192,203658,1,0,0:0:0:50:Snare 2.wav
192,192,203747,128,2,204011:0:0:0:0:
448,192,203747,1,0,0:0:0:0:
320,192,203923,1,0,0:0:0:50:Snare 2.wav
64,192,204099,128,8,204364:0:0:0:0:
192,192,204099,1,2,0:0:0:0:
192,192,204364,1,0,0:0:0:50:Snare 2.wav
320,192,204364,1,0,0:0:0:0:
64,192,204452,1,2,0:0:0:0:
448,192,204452,128,0,204541:0:0:0:0:
192,192,204629,1,0,0:0:0:50:Snare 2.wav
320,192,204629,128,0,204717:0:0:0:0:
448,192,204717,1,0,0:0:0:50:Snare 2.wav
64,192,204805,1,2,0:0:0:0:
192,192,204805,128,0,205511:0:0:0:0:
320,192,205070,1,0,0:0:0:50:Snare 2.wav
64,192,205158,1,2,0:0:0:0:
448,192,205158,1,0,0:0:0:0:
320,192,205335,1,0,0:0:0:50:Snare 2.wav
64,192,205511,1,8,0:0:0:0:
448,192,205511,1,2,0:0:0:0:
64,192,205776,1,0,0:0:0:50:Snare 2.wav
192,192,205776,1,0,0:0:0:0:
320,192,205864,1,2,0:0:0:0:
448,192,205864,128,0,205952:0:0:0:0:
64,192,206041,1,0,0:0:0:50:Snare 2.wav
192,192,206041,128,0,206129:0:0:0:0:
192,192,206217,1,2,0:0:0:0:
320,192,206217,128,0,206658:0:0:0:0:
448,192,206482,1,0,0:0:0:50:Snare 2.wav
64,192,206570,1,2,0:0:0:0:
192,192,206570,1,0,0:0:0:0:
192,192,206747,128,0,206835:0:0:0:50:Snare 2.wav
320,192,206747,1,0,0:0:0:0:
64,192,206923,128,2,207188:0:0:0:0:
448,192,206923,1,8,0:0:0:0:
192,192,207188,1,0,0:0:0:50:Snare 2.wav
320,192,207188,1,0,0:0:0:0:
64,192,207276,1,2,0:0:0:0:
448,192,207276,1,0,0:0:0:0:
320,192,207452,128,0,207541:0:0:0:50:Snare 2.wav
448,192,207452,1,0,0:0:0:0:
64,192,207629,1,2,0:0:0:0:
192,192,207629,128,0,208070:0:0:0:0:
448,192,207894,1,0,0:0:0:50:Snare 2.wav
64,192,207982,1,2,0:0:0:0:
320,192,207982,1,0,0:0:0:0:
192,192,208158,1,0,0:0:0:50:Snare 2.wav
448,192,208158,128,0,208247:0:0:0:0:
320,192,208335,128,2,208511:0:0:0:0:
448,192,208335,1,8,0:0:0:0:
192,192,208511,128,0,208599:0:0:0:0:
64,192,208599,128,0,208864:0:0:0:50:Snare 2.wav
448,192,208599,1,0,0:0:0:0:
192,192,208688,1,2,0:0:0:0:
320,192,208688,1,0,0:0:0:0:
320,192,208864,1,0,0:0:0:50:Snare 2.wav
448,192,208864,1,0,0:0:0:0:
64,192,209041,1,8,0:0:0:0:
192,192,209041,1,2,0:0:0:0:
64,192,209217,1,2,0:0:0:0:
448,192,209217,1,0,0:0:0:0:
192,192,209305,1,0,0:0:0:50:Snare 2.wav
320,192,209394,1,2,0:0:0:0:
448,192,209394,1,0,0:0:0:0:
64,192,209570,1,2,0:0:0:0:
320,192,209570,1,0,0:0:0:0:
64,192,209747,1,2,0:0:0:0:
192,192,209747,1,0,0:0:0:0:
320,192,209923,1,2,0:0:0:0:
448,192,209923,1,0,0:0:0:0:
192,192,210011,1,0,0:0:0:50:Snare 2.wav
64,192,210099,1,2,0:0:0:0:
448,192,210099,1,0,0:0:0:0:
64,192,210276,1,2,0:0:0:0:
192,192,210276,1,0,0:0:0:0:
192,192,210452,1,2,0:0:0:0:
448,192,210452,1,0,0:0:0:0:
64,192,210629,1,2,0:0:0:0:
320,192,210629,1,0,0:0:0:0:
192,192,210717,1,0,0:0:0:50:Snare 2.wav
320,192,210805,1,2,0:0:0:0:
448,192,210805,1,0,0:0:0:0:
64,192,210982,1,2,0:0:0:0:
448,192,210982,1,0,0:0:0:0:
64,192,211158,1,2,0:0:0:0:
192,192,211158,1,0,0:0:0:0:
192,192,211335,1,2,0:0:0:0:
448,192,211335,1,0,0:0:0:0:
64,192,211423,1,0,0:0:0:50:Snare 2.wav
320,192,211511,1,2,0:0:0:0:
448,192,211511,1,0,0:0:0:0:
64,192,211688,1,2,0:0:0:0:
192,192,211688,1,0,0:0:0:0:
320,192,211864,1,8,0:0:0:0:
448,192,211864,1,2,0:0:0:0:
64,192,211952,1,2,0:0:0:0:
320,192,212041,1,2,0:0:0:0:
64,192,212129,1,8,0:0:0:0:
192,192,212129,1,0,0:0:0:0:
320,192,212217,1,2,0:0:0:0:
448,192,212217,1,8,0:0:0:0:
192,192,212305,1,2,0:0:0:0:
64,192,212394,1,2,0:0:0:0:
448,192,212394,1,8,0:0:0:0:
64,192,212570,1,2,0:0:0:0:
192,192,212570,1,8,0:0:0:0:
320,192,212658,1,2,0:0:0:0:
192,192,212747,1,2,0:0:0:0:
448,192,212747,1,8,0:0:0:0:
64,192,212835,1,2,0:0:0:0:
320,192,212923,1,2,0:0:0:0:
448,192,212923,1,8,0:0:0:0:
64,192,213099,1,8,0:0:0:0:
192,192,213099,1,0,0:0:0:0:
64,192,214688,128,2,215041:0:0:0:0:
192,192,214688,1,4,0:0:0:0:
320,192,214688,1,0,0:0:0:0:
448,192,214688,1,0,0:0:0:0:
320,192,215041,1,2,0:0:0:0:
448,192,215041,1,0,0:0:0:0:
64,192,215217,1,2,0:0:0:0:
448,192,215217,128,0,215570:0:0:0:0:
64,192,215394,1,8,0:0:0:0:
192,192,215394,1,0,0:0:0:0:
320,192,215394,1,0,0:0:0:0:
192,192,215747,128,2,216099:0:0:0:0:
448,192,215747,1,4,0:0:0:0:
64,192,216099,1,0,0:0:0:0:
192,192,216276,1,0,0:0:0:50:Snare 2.wav
320,192,216452,128,0,216717:0:0:0:0:
64,192,216629,1,2,0:0:0:0:
448,192,216629,1,0,0:0:0:0:
192,192,216717,1,2,0:0:0:0:
64,192,216805,1,8,0:0:0:0:
320,192,216805,1,0,0:0:0:0:
448,192,216805,1,0,0:0:0:0:
192,192,217158,1,2,0:0:0:0:
320,192,217158,1,0,0:0:0:0:
64,192,217511,1,2,0:0:0:0:
448,192,217511,128,0,218041:0:0:0:0:
192,192,217688,1,0,0:0:0:50:Snare 2.wav
320,192,217864,128,0,218041:0:0:0:0:
64,192,218041,128,2,218394:0:0:0:0:
192,192,218041,1,0,0:0:0:0:
192,192,218217,1,8,0:0:0:0:
320,192,218217,1,0,0:0:0:0:
448,192,218217,1,0,0:0:0:0:
448,192,218394,128,0,218923:0:0:0:0:
64,192,218570,1,2,0:0:0:0:
320,192,218570,128,0,218923:0:0:0:0:
192,192,218747,1,0,0:0:0:50:Snare 2.wav
64,192,218923,1,0,0:0:0:0:
320,192,219099,1,2,0:0:0:0:
448,192,219099,1,0,0:0:0:0:
64,192,219276,1,2,0:0:0:0:
192,192,219276,128,4,219541:0:0:0:0:
64,192,219629,1,8,0:0:0:0:
192,192,219629,1,0,0:0:0:0:
448,192,219629,1,0,0:0:0:0:
320,192,219805,1,0,0:0:0:0:
192,192,219894,1,0,0:0:0:0:
64,192,219982,1,2,0:0:0:0:
448,192,219982,1,0,0:0:0:0:
320,192,220026,1,0,0:0:0:0:
192,192,220070,1,0,0:0:0:0:
448,192,220158,1,0,0:0:0:0:
320,192,220247,1,0,0:0:0:0:
64,192,220335,128,2,220688:0:0:0:0:
192,192,220335,1,4,0:0:0:0:
320,192,220688,1,0,0:0:0:0:
64,192,220864,1,2,0:0:0:0:
448,192,220864,128,0,221217:0:0:0:0:
64,192,221041,1,8,0:0:0:0:
192,192,221041,1,0,0:0:0:0:
320,192,221041,1,0,0:0:0:0:
192,192,221394,128,2,221747:0:0:0:0:
448,192,221394,1,4,0:0:0:0:
64,192,221747,1,0,0:0:0:0:
192,192,221923,1,0,0:0:0:50:Snare 2.wav
448,192,222099,128,0,222364:0:0:0:0:
64,192,222276,1,2,0:0:0:0:
192,192,222276,1,0,0:0:0:0:
320,192,222364,1,2,0:0:0:0:
64,192,222452,1,8,0:0:0:0:
192,192,222452,1,0,0:0:0:0:
448,192,222452,1,0,0:0:0:0:
64,192,222805,1,2,0:0:0:0:
448,192,222805,1,0,0:0:0:0:
192,192,222982,1,0,0:0:0:50:Snare 2.wav
64,192,223158,1,2,0:0:0:0:
320,192,223158,128,0,223688:0:0:0:0:
448,192,223158,1,0,0:0:0:0:
64,192,223335,1,2,0:0:0:0:
192,192,223335,1,0,0:0:0:0:
192,192,223511,128,0,223688:0:0:0:0:
64,192,223688,128,2,224217:0:0:0:0:
448,192,223688,1,0,0:0:0:0:
320,192,223776,1,2,0:0:0:0:
192,192,223864,1,8,0:0:0:0:
448,192,223864,1,0,0:0:0:0:
192,192,224041,1,2,0:0:0:0:
320,192,224041,1,0,0:0:0:0:
448,192,224217,128,0,224570:0:0:0:0:
320,192,224394,1,0,0:0:0:50:Snare 2.wav
64,192,224570,1,2,0:0:0:0:
192,192,224570,1,0,0:0:0:0:
320,192,224747,1,0,0:0:0:0:
64,192,224835,1,0,0:0:0:0:
320,192,224923,1,0,0:0:0:0:
448,192,224923,1,0,0:0:0:0:
64,192,225099,1,2,0:0:0:0:
192,192,225099,1,0,0:0:0:0:
64,192,225276,1,8,0:0:0:0:
448,192,225276,1,0,0:0:0:0:
192,192,225452,1,0,0:0:0:0:
320,192,225541,1,0,0:0:0:0:
64,192,225629,1,2,0:0:0:70:Tom1.wav
448,192,225629,1,0,0:0:0:0:
192,192,225805,1,2,0:0:0:70:Tom1.wav
320,192,225982,1,4,0:0:0:0:
448,192,225982,1,2,0:0:0:0:
64,192,226070,1,0,0:0:0:0:
320,192,226158,1,0,0:0:0:0:
192,192,226247,1,0,0:0:0:0:
64,192,226335,1,8,0:0:0:0:
448,192,226335,1,0,0:0:0:0:
320,192,226423,1,0,0:0:0:0:
192,192,226511,1,2,0:0:0:0:
448,192,226511,1,0,0:0:0:0:
320,192,226599,1,0,0:0:0:0:
64,192,226688,1,8,0:0:0:0:
192,192,226688,1,0,0:0:0:0:
448,192,226688,1,0,0:0:0:0:
320,192,226776,1,0,0:0:0:0:
64,192,226864,1,0,0:0:0:0:
192,192,226952,1,8,0:0:0:0:
448,192,226952,1,0,0:0:0:0:
64,192,227041,1,2,0:0:0:0:
320,192,227041,1,0,0:0:0:0:
192,192,227129,1,0,0:0:0:0:
320,192,227217,1,8,0:0:0:0:
448,192,227217,1,0,0:0:0:0:
64,192,227305,1,0,0:0:0:0:
192,192,227394,1,8,0:0:0:0:
448,192,227394,1,0,0:0:0:0:
320,192,227482,1,0,0:0:0:0:
192,192,227570,1,0,0:0:0:50:Snare 2.wav
448,192,227658,1,0,0:0:0:0:
64,192,227747,1,8,0:0:0:0:
192,192,227747,1,0,0:0:0:0:
320,192,227835,1,0,0:0:0:0:
64,192,227923,1,2,0:0:0:0:
448,192,227923,1,0,0:0:0:0:
192,192,228011,1,2,0:0:0:0:
64,192,228099,1,8,0:0:0:0:
320,192,228099,1,0,0:0:0:0:
448,192,228099,1,0,0:0:0:0:
192,192,228188,1,0,0:0:0:0:
320,192,228276,1,0,0:0:0:0:
64,192,228364,1,8,0:0:0:0:
192,192,228364,1,0,0:0:0:0:
320,192,228452,1,2,0:0:0:0:
448,192,228452,1,0,0:0:0:0:
64,192,228541,1,0,0:0:0:0:
192,192,228629,1,8,0:0:0:0:
448,192,228629,1,0,0:0:0:0:
64,192,228717,1,8,0:0:0:0:
320,192,228717,1,0,0:0:0:0:
192,192,228805,1,2,0:0:0:0:
448,192,228805,1,0,0:0:0:0:
320,192,228894,1,0,0:0:0:0:
64,192,228982,1,2,0:0:0:0:
192,192,228982,1,0,0:0:0:0:
448,192,229070,1,0,0:0:0:0:
64,192,229158,1,8,0:0:0:0:
320,192,229158,1,0,0:0:0:0:
192,192,229247,1,0,0:0:0:0:
320,192,229335,1,2,0:0:0:0:
448,192,229335,1,0,0:0:0:0:
64,192,229423,1,0,0:0:0:0:
192,192,229511,1,8,0:0:0:0:
320,192,229511,1,0,0:0:0:0:
448,192,229511,1,0,0:0:0:0:
64,192,229599,1,0,0:0:0:0:
448,192,229688,1,0,0:0:0:50:Tom1.wav
64,192,229776,1,8,0:0:0:0:
320,192,229776,1,0,0:0:0:0:
192,192,229864,1,2,0:0:0:0:
448,192,229864,1,8,0:0:0:0:
320,192,229952,1,0,0:0:0:0:
64,192,230041,1,0,0:0:0:50:Snare 2.wav
192,192,230041,1,0,0:0:0:0:
448,192,230129,1,0,0:0:0:0:
64,192,230217,1,0,0:0:0:50:Snare 2.wav
320,192,230217,1,0,0:0:0:0:
192,192,230305,1,0,0:0:0:0:
320,192,230394,1,2,0:0:0:0:
448,192,230394,1,0,0:0:0:0:
64,192,230482,1,0,0:0:0:0:
192,192,230570,1,2,0:0:0:0:
448,192,230570,1,4,0:0:0:0:
320,192,230658,1,0,0:0:0:0:
64,192,230747,1,0,0:0:0:0:
192,192,230835,1,0,0:0:0:0:
64,192,230923,1,8,0:0:0:0:
320,192,230923,1,0,0:0:0:0:
448,192,230923,1,0,0:0:0:0:
192,192,231011,1,0,0:0:0:0:
320,192,231099,1,0,0:0:0:0:
448,192,231099,1,0,0:0:0:0:
64,192,231188,1,0,0:0:0:0:
192,192,231188,1,8,0:0:0:0:
320,192,231276,1,2,0:0:0:0:
448,192,231276,1,0,0:0:0:0:
192,192,231320,1,0,0:0:0:0:
64,192,231364,1,0,0:0:0:0:
320,192,231452,1,8,0:0:0:0:
448,192,231452,1,0,0:0:0:0:
64,192,231541,1,0,0:0:0:0:
192,192,231541,1,8,0:0:0:0:
320,192,231629,1,2,0:0:0:0:
448,192,231629,1,0,0:0:0:0:
192,192,231717,1,0,0:0:0:0:
64,192,231805,1,0,0:0:0:50:Snare 2.wav
448,192,231805,1,0,0:0:0:0:
320,192,231894,1,0,0:0:0:50:Snare 2.wav
64,192,231982,1,0,0:0:0:50:Snare 2.wav
192,192,231982,1,0,0:0:0:0:
448,192,232070,1,0,0:0:0:0:
192,192,232158,1,2,0:0:0:0:
320,192,232158,1,0,0:0:0:0:
64,192,232247,1,0,0:0:0:0:
192,192,232335,1,8,0:0:0:0:
320,192,232335,1,0,0:0:0:0:
448,192,232335,1,0,0:0:0:0:
64,192,232423,1,0,0:0:0:0:
320,192,232511,1,0,0:0:0:50:Snare 2.wav
448,192,232511,1,0,0:0:0:0:
192,192,232599,1,0,0:0:0:0:
64,192,232688,1,2,0:0:0:0:
448,192,232688,1,0,0:0:0:0:
320,192,232776,1,0,0:0:0:0:
64,192,232864,1,0,0:0:0:50:Snare 2.wav
192,192,232864,1,0,0:0:0:0:
448,192,232952,1,0,0:0:0:0:
64,192,233041,1,0,0:0:0:50:Snare 2.wav
320,192,233041,1,0,0:0:0:0:
192,192,233129,1,0,0:0:0:0:
320,192,233217,1,0,0:0:0:50:Snare 2.wav
448,192,233217,1,0,0:0:0:0:
64,192,233305,1,0,0:0:0:0:
192,192,233394,1,0,0:0:0:50:Snare 2.wav
448,192,233394,1,0,0:0:0:0:
320,192,233482,1,0,0:0:0:0:
64,192,233570,1,2,0:0:0:0:
448,192,233570,1,0,0:0:0:0:
192,192,233658,1,2,0:0:0:0:
64,192,233747,1,8,0:0:0:0:
320,192,233747,1,0,0:0:0:0:
448,192,233747,1,0,0:0:0:0:
192,192,233835,1,0,0:0:0:0:
64,192,233923,1,0,0:0:0:50:Snare 2.wav
320,192,233923,1,0,0:0:0:0:
448,192,234011,1,0,0:0:0:0:
64,192,234099,1,2,0:0:0:0:
192,192,234099,1,0,0:0:0:0:
320,192,234188,1,0,0:0:0:0:
192,192,234276,1,0,0:0:0:50:Snare 2.wav
448,192,234276,1,0,0:0:0:0:
64,192,234364,1,0,0:0:0:0:
320,192,234452,1,2,0:0:0:0:
448,192,234452,1,0,0:0:0:50:Snare 2.wav
64,192,234541,1,0,0:0:0:50:Snare 2.wav
192,192,234541,1,0,0:0:0:0:
320,192,234629,1,0,0:0:0:50:Snare 2.wav
448,192,234629,1,0,0:0:0:0:
64,192,234717,1,0,0:0:0:50:Snare 2.wav
192,192,234717,1,0,0:0:0:0:
320,192,234805,1,0,0:0:0:50:Snare 2.wav
448,192,234805,1,0,0:0:0:0:
64,192,234894,1,0,0:0:0:50:Snare 2.wav
192,192,234894,1,0,0:0:0:0:
320,192,234982,1,2,0:0:0:0:
448,192,234982,1,0,0:0:0:50:Snare 2.wav
64,192,235070,1,0,0:0:0:50:Snare 2.wav
192,192,235070,1,0,0:0:0:0:
320,192,235158,1,8,0:0:0:0:
448,192,235158,1,0,0:0:0:50:Snare 2.wav
64,192,235247,1,0,0:0:0:50:Snare 2.wav
192,192,235247,1,0,0:0:0:0:
320,192,235335,1,0,0:0:0:50:Snare 2.wav
448,192,235335,1,0,0:0:0:0:
64,192,235423,1,0,0:0:0:50:Snare 2.wav
192,192,235423,1,0,0:0:0:0:
320,192,235511,1,10,0:0:0:0:
448,192,235511,1,0,0:0:0:50:Snare 2.wav
64,192,235599,1,0,0:0:0:50:Snare 2.wav
192,192,235599,1,0,0:0:0:0:
320,192,235688,1,0,0:0:0:50:Snare 2.wav
448,192,235688,1,0,0:0:0:0:
64,192,235776,1,0,0:0:0:50:Snare 2.wav
192,192,235776,1,0,0:0:0:0:
320,192,235864,1,0,0:0:0:70:Tom3.wav
448,192,235864,1,0,0:0:0:0:
192,192,236041,1,0,0:0:0:0:
320,192,236129,1,0,0:0:0:0:
64,192,236217,1,0,0:0:0:70:Snare 3.wav
448,192,236217,1,0,0:0:0:0:
192,192,236394,1,0,0:0:0:0:
448,192,236482,1,0,0:0:0:0:
320,192,236526,1,0,0:0:0:0:
64,192,236570,1,8,0:0:0:0:
192,192,236570,1,0,0:0:0:0:
64,192,236747,1,0,0:0:0:50:Snare 2.wav
192,192,236791,1,0,0:0:0:50:Snare 2.wav
320,192,236835,1,0,0:0:0:50:Snare 2.wav
448,192,236879,1,0,0:0:0:50:Snare 2.wav
64,192,236923,128,8,237188:0:0:0:0:
192,192,236923,128,0,237188:0:0:0:70:Clap 2.wav
448,192,237099,128,0,237188:0:0:0:0:
64,192,237276,128,2,237541:0:0:0:0:
192,192,237276,128,4,237541:0:0:0:0:
320,192,237276,128,0,237541:0:0:0:0:
448,192,237276,128,0,237894:0:0:0:0:
64,192,237629,128,2,237894:0:0:0:0:
192,192,237629,128,8,238247:0:0:0:0:
320,192,237629,128,0,237894:0:0:0:0:
64,192,237982,128,2,238247:0:0:0:0:
320,192,237982,128,0,238247:0:0:0:0:
448,192,237982,128,0,238247:0:0:0:0:
64,192,238335,128,2,238423:0:0:0:0:
192,192,238335,128,8,238423:0:0:0:0:
448,192,238335,128,0,238423:0:0:0:0:
320,192,238511,128,0,238599:0:0:0:0:
448,192,238511,128,0,238599:0:0:0:0:
64,192,238688,128,2,238952:0:0:0:0:
192,192,238688,128,0,238952:0:0:0:0:
320,192,238688,128,0,238952:0:0:0:0:
64,192,239041,128,2,239217:0:0:0:0:
192,192,239041,128,8,239217:0:0:0:0:
448,192,239041,128,0,239217:0:0:0:0:
320,192,239217,1,0,0:0:0:0:
192,192,239305,1,0,0:0:0:0:
64,192,239394,128,2,239570:0:0:0:0:
320,192,239394,128,0,239570:0:0:0:0:
448,192,239394,128,0,239570:0:0:0:0:
192,192,239570,1,0,0:0:0:0:
320,192,239658,1,0,0:0:0:0:
64,192,239747,128,8,240011:0:0:0:0:
192,192,239747,128,2,240011:0:0:0:0:
448,192,239747,128,0,240011:0:0:0:0:
320,192,239923,128,0,240011:0:0:0:0:
64,192,240099,128,2,240717:0:0:0:0:
320,192,240099,128,0,240364:0:0:0:0:
448,192,240099,128,0,240364:0:0:0:0:
192,192,240452,128,2,240717:0:0:0:0:
320,192,240452,128,8,240717:0:0:0:0:
448,192,240452,128,0,241070:0:0:0:0:
64,192,240805,128,2,241070:0:0:0:0:
192,192,240805,128,0,241070:0:0:0:0:
320,192,240805,128,0,241070:0:0:0:0:
64,192,241158,128,2,241247:0:0:0:0:
192,192,241158,128,8,241247:0:0:0:0:
448,192,241158,128,0,241247:0:0:0:0:
192,192,241335,128,0,241423:0:0:0:0:
320,192,241335,128,0,241423:0:0:0:0:
64,192,241511,128,2,241688:0:0:0:0:
320,192,241511,128,0,241688:0:0:0:0:
448,192,241511,128,0,241688:0:0:0:0:
192,192,241688,1,0,0:0:0:0:
320,192,241776,1,0,0:0:0:0:
64,192,241864,128,2,242129:0:0:0:0:
192,192,241864,128,8,242129:0:0:0:0:
448,192,241864,128,0,241952:0:0:0:0:
320,192,242041,128,0,242129:0:0:0:0:
448,192,242041,128,0,242482:0:0:0:0:
64,192,242217,128,2,242305:0:0:0:0:
192,192,242217,128,0,242305:0:0:0:0:
320,192,242217,128,0,242482:0:0:0:0:
64,192,242394,128,0,242835:0:0:0:0:
192,192,242394,128,0,242482:0:0:0:0:
192,192,242570,128,2,242835:0:0:0:0:
320,192,242570,128,8,242835:0:0:0:0:
448,192,242570,128,0,242835:0:0:0:0:
64,192,242923,128,2,243188:0:0:0:0:
192,192,242923,128,0,243541:0:0:0:0:
320,192,242923,128,0,243188:0:0:0:0:
64,192,243276,128,2,243541:0:0:0:0:
320,192,243276,128,8,243894:0:0:0:0:
448,192,243276,128,0,243541:0:0:0:0:
64,192,243629,128,2,243894:0:0:0:0:
192,192,243629,128,0,243894:0:0:0:0:
448,192,243629,128,0,243894:0:0:0:0:
192,192,243982,128,2,244070:0:0:0:0:
320,192,243982,128,8,244070:0:0:0:0:
448,192,243982,128,0,244070:0:0:0:0:
64,192,244158,128,0,244247:0:0:0:0:
448,192,244158,128,0,244247:0:0:0:0:
64,192,244335,128,2,244599:0:0:0:0:
192,192,244335,128,0,244599:0:0:0:0:
320,192,244335,128,0,244599:0:0:0:0:
192,192,244688,128,2,244864:0:0:0:0:
320,192,244688,128,8,244864:0:0:0:0:
448,192,244688,128,0,244864:0:0:0:0:
64,192,244864,1,0,0:0:0:0:
448,192,244952,1,0,0:0:0:0:
64,192,245041,128,2,245217:0:0:0:0:
192,192,245041,128,0,245217:0:0:0:0:
320,192,245041,128,0,245217:0:0:0:0:
448,192,245217,1,0,0:0:0:0:
64,192,245305,1,0,0:0:0:0:
192,192,245394,128,2,245658:0:0:0:0:
320,192,245394,128,8,245658:0:0:0:0:
448,192,245394,128,0,245658:0:0:0:0:
64,192,245570,128,0,245658:0:0:0:0:
64,192,245747,128,2,246011:0:0:0:0:
320,192,245747,128,0,246011:0:0:0:0:
448,192,245747,128,0,246364:0:0:0:0:
64,192,246099,128,2,246364:0:0:0:0:
192,192,246099,128,8,246364:0:0:0:0:
320,192,246099,128,0,246717:0:0:0:0:
64,192,246452,128,2,246717:0:0:0:0:
192,192,246452,128,0,246717:0:0:0:0:
448,192,246452,128,0,246717:0:0:0:0:
64,192,246805,128,2,246894:0:0:0:0:
192,192,246805,128,8,246894:0:0:0:0:
320,192,246805,128,0,246894:0:0:0:0:
192,192,246982,128,0,247070:0:0:0:0:
448,192,246982,128,0,247070:0:0:0:0:
64,192,247158,128,2,247335:0:0:0:0:
320,192,247158,128,0,247335:0:0:0:0:
448,192,247158,128,0,247335:0:0:0:0:
192,192,247335,1,0,0:0:0:0:
320,192,247423,1,0,0:0:0:0:
448,192,247511,128,0,247864:0:0:0:0:
64,192,247511,128,0,247688:0:0:0:50:Snare 2.wav
320,192,247688,128,0,247864:0:0:0:0:
192,192,247864,128,0,248041:0:0:0:0:
64,192,247864,128,0,248041:0:0:0:70:Splash.wav
448,192,248041,1,0,0:0:0:0:
320,192,248041,1,0,0:0:0:50:Snare 2.wav
64,192,248129,1,0,0:0:0:50:Snare 2.wav
192,192,248129,1,0,0:0:0:0:
448,192,248217,128,0,248482:0:0:0:0:
320,192,248217,1,0,0:0:0:50:Snare 2.wav
64,192,248394,128,0,248482:0:0:0:0:
64,192,248570,128,2,249188:0:0:0:0:
192,192,248570,128,4,248835:0:0:0:0:
320,192,248570,128,0,248835:0:0:0:0:
448,192,248570,128,0,248835:0:0:0:0:
192,192,248923,128,2,249188:0:0:0:0:
320,192,248923,128,8,249188:0:0:0:0:
448,192,248923,128,0,249541:0:0:0:0:
64,192,249276,128,2,249541:0:0:0:0:
192,192,249276,128,0,249541:0:0:0:0:
320,192,249276,128,0,249541:0:0:0:0:
64,192,249629,128,2,249717:0:0:0:0:
192,192,249629,128,8,249717:0:0:0:0:
448,192,249629,128,0,249717:0:0:0:0:
320,192,249805,128,0,249894:0:0:0:0:
448,192,249805,128,0,249894:0:0:0:0:
64,192,249982,128,2,250247:0:0:0:0:
192,192,249982,128,0,250247:0:0:0:0:
320,192,249982,128,0,250247:0:0:0:0:
64,192,250335,128,2,250511:0:0:0:0:
192,192,250335,128,8,250511:0:0:0:0:
448,192,250335,128,0,250511:0:0:0:0:
320,192,250511,1,0,0:0:0:0:
64,192,250599,1,0,0:0:0:0:
192,192,250688,128,2,250864:0:0:0:0:
320,192,250688,128,0,250864:0:0:0:0:
448,192,250688,128,0,250864:0:0:0:0:
64,192,250864,1,0,0:0:0:0:
448,192,250952,1,0,0:0:0:0:
64,192,251041,128,2,251305:0:0:0:0:
192,192,251041,128,8,251305:0:0:0:0:
320,192,251041,128,0,251305:0:0:0:0:
448,192,251217,128,0,251305:0:0:0:0:
64,192,251394,128,2,251658:0:0:0:0:
192,192,251394,128,0,251658:0:0:0:0:
448,192,251394,128,0,252011:0:0:0:0:
64,192,251747,128,2,252011:0:0:0:0:
192,192,251747,128,8,252364:0:0:0:0:
320,192,251747,128,0,252011:0:0:0:0:
64,192,252099,128,2,252364:0:0:0:0:
320,192,252099,128,0,252364:0:0:0:0:
448,192,252099,128,0,252364:0:0:0:0:
64,192,252452,128,2,252541:0:0:0:0:
192,192,252452,128,8,252541:0:0:0:0:
448,192,252452,128,0,252541:0:0:0:0:
192,192,252629,128,0,252717:0:0:0:0:
320,192,252629,128,0,252717:0:0:0:0:
64,192,252805,128,2,252982:0:0:0:0:
320,192,252805,128,0,252982:0:0:0:0:
448,192,252805,128,0,252982:0:0:0:0:
192,192,252982,1,0,0:0:0:0:
320,192,253070,1,0,0:0:0:0:
64,192,253158,128,2,253423:0:0:0:0:
192,192,253158,128,8,253247:0:0:0:0:
448,192,253158,128,0,253423:0:0:0:0:
192,192,253335,128,0,253599:0:0:0:0:
320,192,253335,128,0,253423:0:0:0:0:
64,192,253511,128,2,253599:0:0:0:0:
320,192,253511,128,0,253776:0:0:0:0:
448,192,253511,128,0,253776:0:0:0:0:
64,192,253688,128,0,253776:0:0:0:0:
192,192,253688,128,0,253776:0:0:0:0:
64,192,253864,128,2,254129:0:0:0:0:
320,192,253864,128,8,254041:0:0:0:0:
448,192,253864,128,0,254129:0:0:0:0:
192,192,254041,1,0,0:0:0:0:
320,192,254129,1,0,0:0:0:0:
64,192,254217,128,2,254482:0:0:0:0:
192,192,254217,128,0,254482:0:0:0:0:
448,192,254217,128,0,254835:0:0:0:0:
64,192,254570,128,2,255188:0:0:0:0:
192,192,254570,128,8,254835:0:0:0:0:
320,192,254570,128,0,254835:0:0:0:0:
192,192,254923,128,2,255188:0:0:0:0:
320,192,254923,128,0,255188:0:0:0:0:
448,192,254923,128,0,255188:0:0:0:0:
64,192,255276,128,2,255364:0:0:0:0:
320,192,255276,128,8,255364:0:0:0:0:
448,192,255276,128,0,255364:0:0:0:0:
192,192,255452,128,0,255541:0:0:0:0:
320,192,255452,128,0,255541:0:0:0:0:
64,192,255629,128,2,255894:0:0:0:0:
192,192,255629,128,0,255894:0:0:0:0:
448,192,255629,128,0,255894:0:0:0:0:
64,192,255982,128,2,256158:0:0:0:0:
192,192,255982,128,8,256158:0:0:0:0:
320,192,255982,128,0,256158:0:0:0:0:
448,192,256158,1,0,0:0:0:0:
64,192,256247,1,0,0:0:0:0:
192,192,256335,128,2,256511:0:0:0:0:
320,192,256335,128,0,256511:0:0:0:0:
448,192,256335,128,0,256511:0:0:0:0:
64,192,256511,1,0,0:0:0:0:
448,192,256599,1,0,0:0:0:0:
64,192,256688,128,2,256952:0:0:0:0:
192,192,256688,128,8,256952:0:0:0:0:
320,192,256688,128,0,256952:0:0:0:0:
448,192,256864,128,0,256952:0:0:0:0:
64,192,257041,128,2,257305:0:0:0:0:
192,192,257041,128,0,257305:0:0:0:0:
448,192,257041,128,0,257658:0:0:0:0:
64,192,257394,128,2,257658:0:0:0:0:
192,192,257394,128,8,257658:0:0:0:0:
320,192,257394,128,0,258011:0:0:0:0:
64,192,257747,128,2,258011:0:0:0:0:
192,192,257747,128,0,258011:0:0:0:0:
448,192,257747,128,0,258011:0:0:0:0:
64,192,258099,128,2,258188:0:0:0:0:
192,192,258099,128,8,258188:0:0:0:0:
448,192,258099,128,0,258188:0:0:0:0:
320,192,258276,128,0,258364:0:0:0:0:
448,192,258276,128,0,258364:0:0:0:0:
64,192,258452,128,2,259158:0:0:0:0:
192,192,258452,128,0,258717:0:0:0:0:
320,192,258452,128,0,259070:0:0:0:0:
192,192,258805,128,0,259158:0:0:0:0:
448,192,258805,128,0,259070:0:0:0:0:
320,192,259158,1,8,0:0:0:0:
448,192,259158,1,0,0:0:0:0:
64,192,259335,1,0,0:0:0:50:Snare 2.wav
192,192,259379,1,0,0:0:0:50:Snare 2.wav
320,192,259423,1,0,0:0:0:50:Snare 2.wav
448,192,259467,1,0,0:0:0:50:Snare 2.wav
64,192,259511,1,8,0:0:0:0:
192,192,259511,1,0,0:0:0:50:Tom1.wav
64,192,259864,1,0,0:0:0:70:Splash.wav
320,192,259864,1,0,0:0:0:0:
448,192,259864,128,0,260217:0:0:0:0:
192,192,259952,1,0,0:0:0:0:
320,192,260041,1,0,0:0:0:0:
64,192,260217,128,0,260570:0:0:0:0:
320,192,260217,1,0,0:0:0:0:
320,192,260570,128,0,260923:0:0:0:0:
448,192,260570,1,0,0:0:0:0:
64,192,260658,1,0,0:0:0:0:
192,192,260747,1,0,0:0:0:0:
192,192,260923,128,0,261099:0:0:0:0:
64,192,261099,128,0,261276:0:0:0:0:
192,192,261188,1,0,0:0:0:0:
320,192,261276,1,0,0:0:0:0:
448,192,261276,128,0,262688:0:0:0:0:
64,192,261629,1,0,0:0:0:0:
320,192,261717,1,0,0:0:0:0:
192,192,261805,1,0,0:0:0:0:
192,192,261982,1,0,0:0:0:0:
64,192,262688,128,0,264099:0:0:0:0:
320,192,262688,1,0,0:0:0:0:
448,192,262776,1,0,0:0:0:0:
192,192,262864,1,0,0:0:0:0:
192,192,263041,1,0,0:0:0:0:
448,192,263217,1,0,0:0:0:0:
192,192,263305,1,0,0:0:0:0:
320,192,263394,1,0,0:0:0:0:
320,192,263570,1,0,0:0:0:0:
192,192,263923,1,0,0:0:0:0:
320,192,264011,1,0,0:0:0:0:
448,192,264099,1,0,0:0:0:0:
448,192,264276,1,0,0:0:0:0:
192,192,264452,1,0,0:0:0:0:
448,192,264541,1,0,0:0:0:0:
64,192,264629,1,0,0:0:0:0:
192,192,264805,1,0,0:0:0:0:
320,192,264805,128,0,265511:0:0:0:0:
448,192,264982,1,0,0:0:0:0:
64,192,265070,1,0,0:0:0:0:
192,192,265158,1,0,0:0:0:0:
64,192,265511,1,4,0:0:0:0:
192,192,265511,128,0,266923:0:0:0:0:
448,192,265511,1,0,0:0:0:0:
320,192,265599,1,0,0:0:0:0:
448,192,265688,1,0,0:0:0:0:
448,192,265864,1,0,0:0:0:0:
64,192,266041,1,0,0:0:0:30:Ride.wav
320,192,266217,1,0,0:0:0:0:
448,192,266305,1,0,0:0:0:0:
64,192,266394,1,0,0:0:0:0:
64,192,266570,1,0,0:0:0:30:Ride.wav
448,192,266747,1,0,0:0:0:0:
320,192,266835,1,0,0:0:0:0:
64,192,266923,128,0,268335:0:0:0:0:
448,192,266923,1,0,0:0:0:0:
192,192,267099,1,0,0:0:0:30:Ride.wav
320,192,267276,1,0,0:0:0:0:
448,192,267364,1,0,0:0:0:0:
192,192,267452,1,0,0:0:0:0:
192,192,267629,1,0,0:0:0:30:Ride.wav
320,192,268158,1,0,0:0:0:30:Ride.wav
192,192,268335,1,0,0:0:0:0:
448,192,268335,128,0,269747:0:0:0:0:
64,192,268423,1,0,0:0:0:0:
320,192,268511,1,0,0:0:0:0:
320,192,268688,1,0,0:0:0:30:Ride.wav
64,192,268864,1,0,0:0:0:0:
320,192,268952,1,0,0:0:0:0:
192,192,269041,1,0,0:0:0:0:
192,192,269217,1,0,0:0:0:30:Ride.wav
64,192,269394,1,0,0:0:0:30:Ride.wav
192,192,269570,1,0,0:0:0:0:
320,192,269658,1,0,0:0:0:0:
64,192,269747,128,0,270452:0:0:0:30:Ride.wav
192,192,269747,1,0,0:0:0:0:
192,192,269923,1,0,0:0:0:0:
320,192,270099,1,0,0:0:0:30:Ride.wav
448,192,270188,1,0,0:0:0:0:
192,192,270276,1,0,0:0:0:30:Ride.wav
320,192,270452,128,0,271070:0:0:0:0:
448,192,270452,128,0,271070:0:0:0:0:
64,192,271158,1,4,0:0:0:0:
320,192,271158,128,0,272570:0:0:0:0:
448,192,271158,1,0,0:0:0:0:
192,192,271247,1,0,0:0:0:0:
64,192,271335,1,0,0:0:0:0:
64,192,271511,1,0,0:0:0:0:
192,192,271864,1,0,0:0:0:0:
64,192,271952,1,0,0:0:0:0:
448,192,272041,1,0,0:0:0:0:
448,192,272217,1,0,0:0:0:0:
64,192,272394,1,0,0:0:0:0:
448,192,272482,1,0,0:0:0:0:
64,192,272570,1,0,0:0:0:0:
192,192,272570,128,0,273982:0:0:0:0:
448,192,272923,1,0,0:0:0:0:
64,192,273011,1,0,0:0:0:0:
320,192,273099,1,0,0:0:0:0:
320,192,273276,1,0,0:0:0:0:
64,192,273982,128,0,275394:0:0:0:0:
448,192,273982,1,0,0:0:0:0:
320,192,274070,1,0,0:0:0:0:
192,192,274158,1,0,0:0:0:0:
192,192,274335,1,0,0:0:0:0:
448,192,274511,1,0,0:0:0:0:
192,192,274599,1,0,0:0:0:0:
320,192,274688,1,0,0:0:0:0:
320,192,274864,1,0,0:0:0:0:
192,192,275217,1,0,0:0:0:0:
320,192,275305,1,0,0:0:0:0:
448,192,275394,1,0,0:0:0:0:
448,192,275570,1,0,0:0:0:0:
192,192,275747,1,0,0:0:0:0:
448,192,275835,1,0,0:0:0:0:
64,192,275923,1,0,0:0:0:0:
320,192,276099,1,0,0:0:0:0:
448,192,276099,128,0,276805:0:0:0:0:
192,192,276276,1,0,0:0:0:0:
320,192,276364,1,0,0:0:0:0:
64,192,276452,1,0,0:0:0:0:
64,192,276805,128,4,278217:0:0:0:0:
192,192,276805,1,0,0:0:0:0:
320,192,276805,1,0,0:0:0:0:
448,192,276894,1,0,0:0:0:0:
192,192,276982,1,0,0:0:0:0:
192,192,277158,1,0,0:0:0:0:
448,192,277335,1,0,0:0:0:30:Ride.wav
192,192,277511,1,0,0:0:0:0:
320,192,277599,1,0,0:0:0:0:
448,192,277688,1,0,0:0:0:0:
448,192,277864,1,0,0:0:0:30:Ride.wav
192,192,278041,1,0,0:0:0:0:
320,192,278129,1,0,0:0:0:0:
192,192,278217,128,0,279629:0:0:0:0:
448,192,278217,1,0,0:0:0:0:
64,192,278394,1,0,0:0:0:30:Ride.wav
320,192,278570,1,0,0:0:0:0:
448,192,278658,1,0,0:0:0:0:
64,192,278747,1,0,0:0:0:0:
64,192,278923,1,0,0:0:0:30:Ride.wav
64,192,279452,1,0,0:0:0:30:Ride.wav
320,192,279629,128,0,281041:0:0:0:0:
448,192,279629,1,0,0:0:0:0:
64,192,279717,1,0,0:0:0:0:
192,192,279805,1,0,0:0:0:0:
192,192,279982,1,0,0:0:0:30:Ride.wav
64,192,280158,1,0,0:0:0:0:
192,192,280247,1,0,0:0:0:0:
448,192,280335,1,0,0:0:0:0:
448,192,280511,1,0,0:0:0:30:Ride.wav
448,192,280864,1,0,0:0:0:0:
192,192,280952,1,0,0:0:0:0:
64,192,281041,1,0,0:0:0:20:Clap 2.wav
448,192,281041,128,0,281747:0:0:0:0:
64,192,281217,1,0,0:0:0:0:
192,192,281394,1,0,0:0:0:30:Ride.wav
64,192,281482,1,0,0:0:0:0:
320,192,281570,1,0,0:0:0:30:Ride.wav
64,192,281747,128,0,282452:0:0:0:0:
192,192,281747,128,0,282452:0:0:0:0:
