osu file format v14

[General]
AudioFilename: audio.mp3
AudioLeadIn: 0
PreviewTime: 56923
Countdown: 1
SampleSet: Normal
StackLeniency: 0.6
Mode: 0
LetterboxInBreaks: 0
WidescreenStoryboard: 1

[Editor]
Bookmarks: 80037
DistanceSpacing: 1
BeatDivisor: 4
GridSize: 4
TimelineZoom: 2.1

[Metadata]
Title:Genkai Toppa x Survivor (TV Size)
TitleUnicode:限界突破×サバイバー (TV Size)
Artist:Kiyoshi Hikawa
ArtistUnicode:吉井和哉
Creator:Rebanto
Version:Insane
Source:ドラゴンボール超
Tags:dragon ball super op2 limit break x survivor dragonball anime opening japanese pop jpop j-pop
BeatmapID:1366627
BeatmapSetID:581461

[Difficulty]
HPDrainRate:5
CircleSize:3.8
OverallDifficulty:8
ApproachRate:9
SliderMultiplier:1.8
SliderTickRate:1

[Events]
//Background and Video events
0,0,"son_goku_ultra_instinct_form_by_rmehedi-dbpwu2b.jpg",0,0
//Break Periods
2,11523,13283
//Storyboard Layer 0 (Background)
//Storyboard Layer 1 (Fail)
//Storyboard Layer 2 (Pass)
//Storyboard Layer 3 (Foreground)
//Storyboard Layer 4 (Overlay)
//Storyboard Sound Samples

[TimingPoints]
-197,320,4,1,1,70,1,0
6203,-100,4,1,1,70,0,0
11323,-133.333333333333,4,2,0,65,0,0
34363,-200,4,2,0,60,0,0
34683,-100,4,2,0,60,0,0
36923,-200,4,2,0,60,0,0
37243,-100,4,2,0,60,0,0
39483,-111.111111111111,4,2,0,65,0,0
44603,-200,4,2,0,65,0,0
44923,-100,4,2,0,65,0,0
45243,-117.647058823529,4,2,0,65,0,0
47163,-200,4,2,0,65,0,0
47483,-100,4,2,0,65,0,0
47803,-133.333333333333,4,2,0,65,0,0
49723,-111.111111111111,4,2,0,70,0,0
57403,-100,4,1,1,80,0,1
63003,-83.3333333333333,4,1,0,80,0,1
63323,-100,4,1,1,80,0,1
64283,-83.3333333333333,4,1,0,80,0,1
64603,-100,4,1,1,80,0,1
73243,-76.9230769230769,4,1,1,80,0,1
73563,-100,4,1,1,80,0,1
73723,-100,4,1,1,80,0,1
74523,-76.9230769230769,4,1,1,80,0,1
74843,-100,4,1,1,80,0,1
75323,-100,4,1,1,80,0,1
77883,-117.647058823529,4,1,1,70,0,0
84283,-117.647058823529,4,1,1,5,0,0

[Colours]
Combo1 : 205,205,205
Combo2 : 245,139,33
Combo3 : 38,78,215
Combo4 : 238,72,72

[HitObjects]
141,262,603,5,0,0:0:0:0:
278,220,763,2,0,P|235:195|190:203,1,90
96,327,1083,6,0,P|93:276|82:222,1,90,4|0,0:0|0:0,0:0:0:0:
208,28,1723,2,0,P|200:72|198:117,1,90,4|0,0:0|0:0,0:0:0:0:
309,350,2363,2,0,P|301:305|299:260,2,90,4|0|0,0:0|0:0|0:0,0:0:0:0:
443,179,2843,6,0,P|409:212|363:213,1,90,4|0,0:0|0:0,0:0:0:0:
356,18,3163,2,0,B|379:141|379:141|364:118|328:107,1,180,4|0,0:0|0:0,0:0:0:0:
89,119,3643,6,0,P|143:144|211:148,1,90,4|0,0:0|0:0,0:0:0:0:
423,196,4283,2,0,P|379:206|339:226,1,90,4|0,0:0|0:0,0:0:0:0:
85,301,4923,6,0,P|128:310|168:332,2,90,4|0|0,0:0|0:0|0:0,0:0:0:0:
284,351,5403,2,0,B|277:270|277:270|286:252|286:252|277:166,1,180,4|0,0:0|0:0,0:0:0:0:
264,28,5883,1,4,0:0:0:0:
264,28,6203,6,0,P|213:19|167:41,1,90,4|0,0:0|0:0,0:0:0:0:
72,115,6523,2,0,L|79:230,1,90,8|0,0:0|0:0,0:0:0:0:
156,349,6843,1,0,0:0:0:0:
194,194,7003,1,0,0:0:0:0:
75,292,7163,1,8,0:0:0:0:
266,320,7323,6,0,B|307:345|350:320|350:320|392:295|437:320,1,180,4|0,0:0|0:0,0:0:0:0:
307,248,7803,2,0,P|305:199|288:152,1,90,8|0,0:0|0:0,0:0:0:0:
352,35,8123,1,0,0:0:0:0:
224,107,8283,1,0,0:0:0:0:
386,149,8443,1,8,0:0:0:0:
201,24,8603,6,0,P|159:52|178:190,1,180,4|0,0:0|0:0,0:0:0:0:
245,322,9083,2,0,P|237:273|236:206,1,90,8|0,0:0|0:0,0:0:0:0:
335,123,9403,1,0,0:0:0:0:
316,276,9563,1,0,0:0:0:0:
191,162,9723,1,8,0:0:0:0:
418,145,9883,6,0,B|409:226|409:226|417:238|417:238|405:343,1,180,4|0,0:0|0:0,0:0:0:0:
229,331,10363,1,12,0:0:0:0:
310,181,10523,1,0,0:0:0:0:
330,360,10683,1,4,0:0:0:0:
309,156,10843,1,0,0:0:0:0:
160,252,11003,5,12,0:0:0:0:
380,292,11163,1,0,0:0:0:0:
270,88,11323,1,4,0:0:0:0:
126,83,13883,6,0,P|84:76|35:52,1,67.5000025749208,6|0,0:0|0:0,0:0:0:0:
115,167,14203,2,0,P|148:162|180:151,1,67.5000025749208
260,48,14523,1,0,0:0:0:0:
260,48,14683,1,0,0:0:0:0:
282,146,14843,1,0,0:0:0:0:
382,27,15003,6,0,P|362:71|360:102,1,67.5000025749208,6|0,0:0|0:0,0:0:0:0:
429,164,15323,2,0,P|444:193|451:226,1,67.5000025749208,4|0,0:0|0:0,0:0:0:0:
349,225,15643,1,0,0:0:0:0:
471,330,15803,2,0,P|420:319|375:318,1,67.5000025749208,4|0,0:0|0:0,0:0:0:0:
277,360,16123,1,4,0:0:0:0:
277,360,16203,1,0,0:0:0:0:
277,360,16283,1,0,0:0:0:0:
144,275,16443,6,0,P|141:229|166:193,1,67.5000025749208,6|0,0:0|0:0,0:0:0:0:
225,143,16763,2,0,L|312:150,1,67.5000025749208
372,219,17083,1,0,0:0:0:0:
372,219,17243,1,0,0:0:0:0:
363,102,17403,1,0,0:0:0:0:
455,192,17563,6,0,P|461:237|436:273,1,67.5000025749208,6|0,0:0|0:0,0:0:0:0:
320,321,17883,2,0,L|402:327,1,67.5000025749208,4|0,0:0|0:0,0:0:0:0:
487,336,18203,1,0,0:0:0:0:
361,237,18363,2,0,L|293:232,2,67.5000025749208,4|0|4,0:0|0:0|0:0,0:0:0:0:
461,245,18843,1,0,0:0:0:0:
334,155,19003,6,0,L|266:150,1,67.5000025749208,6|0,0:0|0:0,0:0:0:0:
164,143,19323,1,0,0:0:0:0:
208,233,19483,1,0,0:0:0:0:
220,68,19643,2,0,P|185:53|147:63,1,67.5000025749208,4|0,0:0|0:0,0:0:0:0:
67,134,19963,1,0,0:0:0:0:
71,32,20123,1,0,0:0:0:0:
170,142,20283,6,0,P|164:190|166:237,1,67.5000025749208,6|0,0:0|0:0,0:0:0:0:
187,327,20603,1,0,0:0:0:0:
95,283,20763,1,0,0:0:0:0:
251,255,20923,2,0,P|281:259|327:276,1,67.5000025749208,4|0,0:0|0:0,0:0:0:0:
457,330,21243,2,0,P|423:334|391:345,1,67.5000025749208,4|0,0:0|0:0,0:0:0:0:
305,180,21563,6,0,B|342:189|367:172|367:172|395:154|437:164,1,135.000005149842,6|0,0:0|0:0,0:0:0:0:
342,35,22043,1,0,0:0:0:0:
342,35,22123,1,0,0:0:0:0:
342,35,22203,2,0,P|329:93|328:117,1,67.5000025749208,4|0,0:0|0:0,0:0:0:0:
231,228,22523,2,0,P|226:194|217:162,1,67.5000025749208
163,76,22843,5,6,0:0:0:0:
114,164,23003,1,0,0:0:0:0:
263,77,23163,2,0,P|306:81|341:95,1,67.5000025749208
370,189,23483,1,4,0:0:0:0:
403,26,23643,1,0,0:0:0:0:
475,178,23803,1,4,0:0:0:0:
399,4,23963,1,0,0:0:0:0:
372,219,24123,6,0,P|330:231|283:208,1,67.5000025749208,6|0,0:0|0:0,0:0:0:0:
231,158,24443,2,0,L|224:76,1,67.5000025749208
331,4,24763,2,0,B|336:65|336:65|326:77|326:77|332:164,1,135.000005149842
346,278,25243,6,0,P|388:284|427:258,1,67.5000025749208,6|0,0:0|0:0,0:0:0:0:
474,196,25563,2,0,L|466:109,1,67.5000025749208,4|0,0:0|0:0,0:0:0:0:
462,27,25883,1,0,0:0:0:0:
315,87,26043,2,0,P|348:94|380:84,1,67.5000025749208,4|0,0:0|0:0,0:0:0:0:
262,18,26363,1,4,0:0:0:0:
262,18,26443,1,0,0:0:0:0:
262,18,26523,1,0,0:0:0:0:
155,82,26683,6,0,L|162:165,1,67.5000025749208,6|0,0:0|0:0,0:0:0:0:
173,249,27003,2,0,P|119:260|85:240,1,67.5000025749208
10,192,27323,2,0,L|21:341,1,135.000005149842
178,349,27803,6,0,P|142:342|93:341,1,67.5000025749208,6|0,0:0|0:0,0:0:0:0:
250,286,28123,2,0,P|283:279|316:277,1,67.5000025749208,4|0,0:0|0:0,0:0:0:0:
154,229,28443,1,0,0:0:0:0:
310,190,28603,1,4,0:0:0:0:
201,81,28763,1,0,0:0:0:0:
246,257,28923,1,4,0:0:0:0:
246,257,29243,6,0,L|253:160,1,67.5000025749208,6|0,0:0|0:0,0:0:0:0:
260,81,29563,1,0,0:0:0:0:
340,149,29723,1,0,0:0:0:0:
175,134,29883,2,0,P|130:129|96:117,1,67.5000025749208,4|0,0:0|0:0,0:0:0:0:
26,42,30203,1,0,0:0:0:0:
130,21,30363,1,0,0:0:0:0:
16,148,30523,6,0,P|18:181|27:214,1,67.5000025749208,6|0,0:0|0:0,0:0:0:0:
116,272,30843,1,0,0:0:0:0:
16,319,31003,1,0,0:0:0:0:
118,172,31163,2,0,P|151:174|184:183,1,67.5000025749208,4|0,0:0|0:0,0:0:0:0:
271,272,31483,2,0,P|237:274|204:283,1,67.5000025749208,4|0,0:0|0:0,0:0:0:0:
368,344,31803,6,0,L|375:193,1,135.000005149842,6|0,0:0|0:0,0:0:0:0:
338,59,32283,1,0,0:0:0:0:
338,59,32363,1,0,0:0:0:0:
338,59,32443,2,0,P|328:113|319:135,1,67.5000025749208,4|0,0:0|0:0,0:0:0:0:
278,266,32763,2,0,P|267:233|263:200,1,67.5000025749208
249,67,33083,5,6,0:0:0:0:
169,139,33243,1,0,0:0:0:0:
336,149,33403,2,0,L|422:156,1,67.5000025749208
241,227,33723,1,4,0:0:0:0:
341,237,33883,1,0,0:0:0:0:
229,333,34043,1,4,0:0:0:0:
329,343,34203,1,0,0:0:0:0:
158,259,34363,6,0,P|104:265|73:278,1,67.5,4|0,0:0|0:0,0:0:0:0:
57,298,34683,2,0,L|41:209,1,90,4|0,0:0|0:0,0:0:0:0:
85,76,35003,5,0,0:0:0:0:
87,92,35323,1,0,0:0:0:0:
90,109,35643,1,2,0:0:0:0:
93,126,35963,1,0,0:0:0:0:
96,143,36283,1,0,0:0:0:0:
99,160,36603,1,0,0:0:0:0:
221,87,36923,6,0,P|265:82|296:70,1,67.5,4|0,0:0|0:0,0:0:0:0:
327,54,37243,2,0,L|315:155,1,90,4|0,0:0|0:0,0:0:0:0:
298,275,37563,5,0,0:0:0:0:
296,259,37883,1,0,0:0:0:0:
293,242,38203,1,2,0:0:0:0:
290,225,38523,1,0,0:0:0:0:
287,208,38843,1,0,0:0:0:0:
397,326,39163,2,0,L|441:329,3,45,4|0|4|0,0:0|0:0|0:0|0:0,0:0:0:0:
368,321,39483,6,0,P|358:277|383:234,1,80.9999975280763,6|0,0:0|0:0,0:0:0:0:
508,185,39803,2,0,L|418:178,1,80.9999975280763
304,165,40123,1,0,0:0:0:0:
383,36,40283,2,0,P|380:98|370:141,1,80.9999975280763
340,246,40603,1,0,0:0:0:0:
236,117,40763,6,0,P|236:157|242:197,1,80.9999975280763,6|0,0:0|0:0,0:0:0:0:
270,308,41083,2,0,P|230:313|193:297,1,80.9999975280763
136,199,41403,1,0,0:0:0:0:
78,346,41563,2,0,L|72:249,1,80.9999975280763
62,133,41883,1,0,0:0:0:0:
179,303,42043,6,0,B|223:309|249:274|249:274|275:238|325:244,1,161.999995056153,6|0,0:0|0:0,0:0:0:0:
433,345,42523,2,0,B|428:274|428:274|438:257|438:257|432:177,1,161.999995056153
425,72,43003,2,0,P|466:58|508:72,1,80.9999975280763
364,133,43323,5,6,0:0:0:0:
364,133,43483,1,0,0:0:0:0:
307,20,43643,1,0,0:0:0:0:
238,135,43803,2,0,P|234:180|216:230,1,80.9999975280763
332,235,44123,1,0,0:0:0:0:
133,192,44283,2,0,P|136:232|147:271,1,80.9999975280763
174,85,44603,6,0,P|127:77|92:87,1,67.5,4|0,0:0|0:0,0:0:0:0:
71,131,44923,2,0,L|55:36,1,90,4|0,0:0|0:0,0:0:0:0:
126,204,45243,2,0,P|95:217|51:218,1,76.5000014591217
175,318,45563,1,0,0:0:0:0:
61,307,45723,2,0,L|-14:301,2,38.2500007295609,0|0|2,0:0|0:0|0:0,0:0:0:0:
208,321,46043,5,0,0:0:0:0:
270,234,46203,2,0,L|364:231,1,76.5000014591217
439,348,46523,2,0,L|441:271,1,76.5000014591217
446,156,46843,2,0,P|407:142|352:159,1,76.5000014591217
191,222,47163,6,0,P|233:218|270:234,1,67.5,4|0,0:0|0:0,0:0:0:0:
294,282,47483,2,0,L|315:151,1,90,4|0,0:0|0:0,0:0:0:0:
328,78,47803,2,0,P|283:91|249:87,1,67.5000025749208
169,22,48123,1,0,0:0:0:0:
183,122,48283,2,0,L|190:176,2,33.7500012874604,0|0|2,0:0|0:0|0:0,0:0:0:0:
88,85,48603,5,0,0:0:0:0:
100,185,48763,2,0,L|110:263,1,67.5000025749208
123,352,49083,2,0,P|71:365|42:350,1,67.5000025749208
197,291,49403,2,0,L|250:294,3,33.7500012874604,4|0|4|0,0:0|0:0|0:0|0:0,0:0:0:0:
292,295,49723,6,0,L|279:213,1,80.9999975280763,6|0,0:0|0:0,0:0:0:0:
257,95,50043,1,0,0:0:0:0:
480,161,50203,2,0,B|410:150|410:150|390:158|390:158|314:145,1,161.999995056153,4|0,0:0|0:0,0:0:0:0:
414,311,50683,2,0,P|431:272|426:234,1,80.9999975280763
237,277,51003,6,0,P|277:275|317:267,1,80.9999975280763,6|0,0:0|0:0,0:0:0:0:
196,184,51323,1,0,0:0:0:0:
397,200,51483,2,0,P|420:272|361:340,1,161.999995056153,4|0,0:0|0:0,0:0:0:0:
250,350,51963,2,0,L|153:337,1,80.9999975280763
42,249,52283,6,0,P|58:289|69:342,1,80.9999975280763,4|0,0:0|0:0,0:0:0:0:
103,133,52603,1,0,0:0:0:0:
248,193,52763,2,0,P|232:230|223:269,1,80.9999975280763,4|0,0:0|0:0,0:0:0:0:
215,76,53083,1,0,0:0:0:0:
314,256,53243,6,0,P|351:271|390:280,1,80.9999975280763,4|0,0:0|0:0,0:0:0:0:
167,148,53563,1,0,0:0:0:0:
299,50,53723,2,0,P|336:34|375:25,1,80.9999975280763,4|0,0:0|0:0,0:0:0:0:
206,223,54043,1,0,0:0:0:0:
91,111,54203,6,0,P|81:73|77:26,1,80.9999975280763,4|0,0:0|0:0,0:0:0:0:
232,208,54523,2,0,P|242:168|245:128,1,80.9999975280763,4|0,0:0|0:0,0:0:0:0:
70,295,54843,6,0,P|31:210|119:254,2,242.999992584229,4|4|4,0:0|0:0|0:0,0:0:0:0:
257,262,56123,1,4,0:0:0:0:
257,262,56603,5,0,0:0:0:0:
257,262,56683,1,0,0:0:0:0:
257,262,56763,1,0,0:0:0:0:
244,356,56923,1,0,0:0:0:0:
269,162,57083,2,0,L|282:49,1,80.9999975280763
176,227,57403,6,0,P|109:227|78:202,1,90,6|0,0:0|0:0,0:0:0:0:
168,53,57723,2,0,P|163:95|149:143,1,90,8|0,0:0|0:0,0:0:0:0:
260,282,58043,1,0,0:0:0:0:
232,149,58203,1,0,0:0:0:0:
351,227,58363,1,8,0:0:0:0:
301,94,58523,6,0,P|306:53|328:-1,1,90,6|0,0:0|0:0,0:0:0:0:
263,237,58843,1,0,0:0:0:0:
377,140,59003,2,0,P|421:145|463:162,1,90,12|0,0:0|0:0,0:0:0:0:
232,149,59323,1,0,0:0:0:0:
351,227,59483,1,0,0:0:0:0:
220,297,59643,2,0,P|175:291|133:274,1,90,12|0,0:0|0:0,0:0:0:0:
24,171,59963,6,0,P|68:165|110:148,1,90,6|0,0:0|0:0,0:0:0:0:
222,26,60283,2,0,L|217:132,1,90,8|0,0:0|0:0,0:0:0:0:
211,270,60603,1,0,0:0:0:0:
290,161,60763,1,0,0:0:0:0:
281,313,60923,1,8,0:0:0:0:
142,191,61083,6,0,P|97:195|54:209,1,90,6|0,0:0|0:0,0:0:0:0:
313,239,61403,1,0,0:0:0:0:
215,355,61563,2,0,P|170:350|127:336,1,90,12|0,0:0|0:0,0:0:0:0:
222,182,61883,1,0,0:0:0:0:
294,325,62043,1,0,0:0:0:0:
116,256,62203,2,0,L|125:156,1,90,12|0,0:0|0:0,0:0:0:0:
135,26,62523,6,0,B|211:32|211:32|230:52|230:52|319:59,1,180,6|8,0:0|0:0,0:0:0:0:
372,147,63003,2,0,L|142:127,1,215.999993408203,4|0,0:0|0:0,0:0:0:0:
21,117,63483,2,0,P|5:176|35:226,1,90,8|0,0:0|0:0,0:0:0:0:
118,350,63803,6,0,B|124:274|124:274|144:255|144:255|151:166,1,180,6|8,0:0|0:0,0:0:0:0:
250,116,64283,2,0,L|230:346,1,215.999993408203,4|0,0:0|0:0,0:0:0:0:
334,372,64763,2,0,L|343:279,1,90,8|0,0:0|0:0,0:0:0:0:
363,95,65083,5,6,0:0:0:0:
250,253,65243,1,0,0:0:0:0:
364,76,65403,1,8,0:0:0:0:
438,277,65563,1,0,0:0:0:0:
256,135,65723,6,0,P|204:130|151:114,1,90,4|0,0:0|0:0,0:0:0:0:
376,206,66043,2,0,P|419:194|464:191,1,90,8|0,0:0|0:0,0:0:0:0:
286,348,66363,6,0,P|262:286|277:249,1,90,6|0,0:0|0:0,0:0:0:0:
327,143,66683,1,8,0:0:0:0:
192,155,66843,1,0,0:0:0:0:
352,229,67003,2,0,L|454:223,1,90,4|0,0:0|0:0,0:0:0:0:
252,83,67323,1,8,0:0:0:0:
264,217,67483,1,0,0:0:0:0:
158,67,67643,6,0,L|68:72,1,90,6|0,0:0|0:0,0:0:0:0:
5,191,67963,2,0,P|0:246|53:294,1,90,8|0,0:0|0:0,0:0:0:0:
191,318,68283,1,0,0:0:0:0:
97,220,68443,1,0,0:0:0:0:
92,354,68603,1,8,0:0:0:0:
165,159,68763,6,0,P|209:156|253:144,1,90,6|0,0:0|0:0,0:0:0:0:
108,304,69083,1,0,0:0:0:0:
244,242,69243,2,0,P|288:244|332:256,1,90,12|0,0:0|0:0,0:0:0:0:
98,217,69563,1,0,0:0:0:0:
206,322,69723,1,0,0:0:0:0:
178,177,69883,2,0,L|164:78,1,90,12|0,0:0|0:0,0:0:0:0:
336,30,70203,6,0,P|272:11|227:32,1,90,6|0,0:0|0:0,0:0:0:0:
321,182,70523,2,0,P|365:187|405:168,1,90,8|0,0:0|0:0,0:0:0:0:
449,22,70843,1,0,0:0:0:0:
313,103,71003,1,0,0:0:0:0:
485,178,71163,1,8,0:0:0:0:
366,11,71323,6,0,P|307:-1|255:2,1,90,6|0,0:0|0:0,0:0:0:0:
485,98,71643,1,0,0:0:0:0:
408,198,71803,2,0,P|364:208|319:209,1,90,12|0,0:0|0:0,0:0:0:0:
261,80,72123,1,0,0:0:0:0:
404,120,72283,1,0,0:0:0:0:
248,258,72443,2,0,P|231:198|256:150,1,90,12|0,0:0|0:0,0:0:0:0:
347,41,72763,6,0,B|299:56|259:26|259:26|216:-3|168:10,1,180,6|8,0:0|0:0,0:0:0:0:
72,48,73243,2,0,P|90:151|131:85,1,233.999989288331,4|0,0:0|0:0,0:0:0:0:
11,210,73723,2,0,P|23:254|25:314,1,90,8|0,0:0|0:0,0:0:0:0:
147,372,74043,6,0,P|148:275|177:157,1,180,6|8,0:0|0:0,0:0:0:0:
292,90,74523,2,0,P|246:177|344:185,1,233.999989288331,4|0,0:0|0:0,0:0:0:0:
466,125,75003,2,0,P|409:101|367:115,1,90,8|0,0:0|0:0,0:0:0:0:
313,307,75323,5,6,0:0:0:0:
216,139,75483,1,0,0:0:0:0:
420,184,75643,1,8,0:0:0:0:
207,241,75803,1,0,0:0:0:0:
351,46,75963,6,0,P|392:35|443:28,1,90,4|0,0:0|0:0,0:0:0:0:
334,204,76283,2,0,P|289:197|245:186,1,90,8|0,0:0|0:0,0:0:0:0:
154,20,76603,6,0,P|127:62|151:120,1,90,6|0,0:0|0:0,0:0:0:0:
268,110,76923,1,8,0:0:0:0:
141,210,77083,1,0,0:0:0:0:
141,210,77163,1,0,0:0:0:0:
141,210,77243,2,0,P|82:219|36:216,1,90,4|0,0:0|0:0,0:0:0:0:
231,300,77563,2,0,P|275:299|320:308,1,90,8|0,0:0|0:0,0:0:0:0:
440,185,77883,6,0,L|447:265,2,76.5000014591217,6|0|0,0:0|0:0|0:0,0:0:0:0:
425,32,78363,2,0,P|375:26|340:46,1,76.5000014591217,4|0,0:0|0:0,0:0:0:0:
300,139,78683,1,0,0:0:0:0:
188,20,78843,2,0,P|196:62|200:124,1,76.5000014591217,4|0,0:0|0:0,0:0:0:0:
146,240,79163,6,0,P|94:254|54:230,2,76.5000014591217,6|0|0,0:0|0:0|0:0,0:0:0:0:
244,179,79643,2,0,P|290:184|332:197,1,76.5000014591217,4|0,0:0|0:0,0:0:0:0:
157,138,79963,1,0,0:0:0:0:
297,284,80123,2,0,P|335:280|372:270,1,76.5000014591217,4|0,0:0|0:0,0:0:0:0:
361,90,80443,1,2,0:0:0:0:
361,90,81403,5,8,0:0:0:0:
380,200,81563,2,0,P|319:185|280:189,1,76.5000014591217,6|0,0:0|0:0,0:0:0:0:
157,252,81883,5,0,0:0:0:0:
316,286,82043,1,8,0:0:0:0:
208,166,82203,1,0,0:0:0:0:
225,328,82363,1,6,0:0:0:0:
256,192,82443,12,0,84283,0:0:0:0:
