osu file format v14

[General]
AudioFilename: audio.mp3
AudioLeadIn: 0
PreviewTime: 56923
Countdown: 1
SampleSet: Soft
StackLeniency: 1
Mode: 0
LetterboxInBreaks: 0
WidescreenStoryboard: 1

[Editor]
DistanceSpacing: 1.2
BeatDivisor: 4
GridSize: 8
TimelineZoom: 1.3

[Metadata]
Title:Genkai Toppa x Survivor (TV Size)
TitleUnicode:限界突破×サバイバー (TV Size)
Artist:Kiyoshi Hikawa
ArtistUnicode:吉井和哉
Creator:Rebanto
Version:Hard
Source:ドラゴンボール超
Tags:dragon ball super op2 limit break x survivor dragonball anime opening japanese pop jpop j-pop
BeatmapID:1366784
BeatmapSetID:581461

[Difficulty]
HPDrainRate:4
CircleSize:3.5
OverallDifficulty:7
ApproachRate:8
SliderMultiplier:1.6
SliderTickRate:1

[Events]
//Background and Video events
0,0,"son_goku_ultra_instinct_form_by_rmehedi-dbpwu2b.jpg",0,0
//Break Periods
2,11523,12897
//Storyboard Layer 0 (Background)
//Storyboard Layer 1 (Fail)
//Storyboard Layer 2 (Pass)
//Storyboard Layer 3 (Foreground)
//Storyboard Layer 4 (Overlay)
//Storyboard Sound Samples

[TimingPoints]
-197,320,4,1,1,65,1,0
6203,-100,4,1,1,70,0,0
11323,-117.647058823529,4,2,0,65,0,0
34363,-200,4,2,0,60,0,0
34683,-117.647058823529,4,2,0,60,0,0
36923,-200,4,2,0,60,0,0
37243,-117.647058823529,4,2,0,60,0,0
39483,-117.647058823529,4,2,0,65,0,0
44603,-200,4,2,0,70,0,0
44923,-100,4,2,0,70,0,0
45243,-117.647058823529,4,2,0,70,0,0
47163,-200,4,2,0,70,0,0
47483,-100,4,2,0,70,0,0
47803,-117.647058823529,4,2,0,70,0,0
49723,-111.111111111111,4,2,0,75,0,0
57403,-100,4,1,1,80,0,1
63003,-83.3333333333333,4,1,0,80,0,1
63323,-100,4,1,1,80,0,1
64283,-83.3333333333333,4,1,0,80,0,1
64603,-100,4,1,1,80,0,1
73243,-76.9230769230769,4,1,1,80,0,1
73563,-100,4,1,1,80,0,1
73723,-100,4,1,1,80,0,1
74523,-76.9230769230769,4,1,1,80,0,1
74843,-100,4,1,1,80,0,1
75323,-100,4,1,1,80,0,1
77883,-117.647058823529,4,1,1,80,0,0
84283,-117.647058823529,4,1,1,70,0,0

[Colours]
Combo1 : 205,205,205
Combo2 : 245,139,33
Combo3 : 38,78,215
Combo4 : 238,72,72

[HitObjects]
83,289,603,6,0,L|204:281,1,80
322,272,1083,5,4,0:0:0:0:
238,227,1243,1,0,0:0:0:0:
406,163,1723,5,4,0:0:0:0:
312,182,1883,1,0,0:0:0:0:
403,22,2363,5,4,0:0:0:0:
337,90,2523,2,0,P|249:77|209:4,2,160,4|4|4,0:0|0:0|0:0,0:0:0:0:
146,83,3643,5,4,0:0:0:0:
135,178,3803,1,0,0:0:0:0:
47,143,4283,5,4,0:0:0:0:
58,238,4443,1,0,0:0:0:0:
222,140,4923,6,0,L|210:246,2,80,4|0|0,0:0|0:0|0:0,0:0:0:0:
306,198,5403,1,4,0:0:0:0:
129,178,5883,1,4,0:0:0:0:
45,350,6203,6,0,L|145:346,1,80,4|0,0:0|0:0,0:0:0:0:
205,292,6523,2,0,L|284:295,1,80,8|0,0:0|0:0,0:0:0:0:
360,355,6843,2,0,P|382:296|366:243,2,80,0|0|8,0:0|0:0|0:0,0:0:0:0:
316,217,7323,6,0,P|292:115|332:52,1,160,4|0,0:0|0:0,0:0:0:0:
409,54,7803,2,0,L|505:60,1,80,8|0,0:0|0:0,0:0:0:0:
456,149,8123,2,0,L|376:144,2,80,0|0|8,0:0|0:0|0:0,0:0:0:0:
329,79,8603,6,0,L|158:88,1,160,4|0,0:0|0:0,0:0:0:0:
85,41,9083,2,0,P|79:126|96:155,1,80,8|0,0:0|0:0,0:0:0:0:
146,184,9403,2,0,L|135:278,2,80,0|0|8,0:0|0:0|0:0,0:0:0:0:
45,286,9883,6,0,P|106:353|214:322,1,160,4|0,0:0|0:0,0:0:0:0:
294,278,10363,2,0,L|187:284,1,80,8|0,0:0|0:0,0:0:0:0:
339,354,10683,2,0,L|418:358,1,80,4|0,0:0|0:0,0:0:0:0:
455,218,11003,1,12,0:0:0:0:
214,282,11323,1,4,0:0:0:0:
371,37,13883,6,0,L|366:163,1,68.0000012969971,6|0,0:0|0:0,0:0:0:0:
306,178,14203,1,0,0:0:0:0:
306,178,14363,1,0,0:0:0:0:
352,261,14523,2,0,L|451:268,1,68.0000012969971
495,207,14843,1,0,0:0:0:0:
497,342,15003,6,0,L|410:347,1,68.0000012969971,6|0,0:0|0:0,0:0:0:0:
326,350,15323,2,0,L|258:353,1,68.0000012969971,4|0,0:0|0:0,0:0:0:0:
155,361,15643,1,0,0:0:0:0:
193,226,15803,2,0,P|204:289|185:312,1,68.0000012969971,4|0,0:0|0:0,0:0:0:0:
119,269,16123,1,4,0:0:0:0:
65,57,16443,6,0,L|59:155,1,68.0000012969971,6|0,0:0|0:0,0:0:0:0:
107,208,16763,1,0,0:0:0:0:
107,208,16923,1,0,0:0:0:0:
53,286,17083,2,0,P|119:302|155:292,1,68.0000012969971
192,241,17403,1,0,0:0:0:0:
273,349,17563,6,0,L|268:270,1,68.0000012969971,6|0,0:0|0:0,0:0:0:0:
313,196,17883,2,0,L|317:128,1,68.0000012969971,4|0,0:0|0:0,0:0:0:0:
327,32,18203,1,0,0:0:0:0:
243,78,18363,1,4,0:0:0:0:
403,93,18523,1,0,0:0:0:0:
403,93,18683,1,4,0:0:0:0:
460,264,19003,6,0,L|367:272,1,68.0000012969971,6|0,0:0|0:0,0:0:0:0:
319,207,19323,2,0,P|299:274|307:304,1,68.0000012969971
326,362,19643,2,0,L|224:354,1,68.0000012969971,4|0,0:0|0:0,0:0:0:0:
202,278,19963,2,0,L|134:283,1,68.0000012969971
43,315,20283,6,0,L|47:221,1,68.0000012969971,6|0,0:0|0:0,0:0:0:0:
120,186,20603,2,0,L|117:118,1,68.0000012969971
38,63,20923,2,0,P|97:25|122:24,1,68.0000012969971,4|0,0:0|0:0,0:0:0:0:
185,52,21243,2,0,L|293:42,1,68.0000012969971,4|0,0:0|0:0,0:0:0:0:
343,16,21563,6,0,P|331:97|313:117,1,68.0000012969971,6|0,0:0|0:0,0:0:0:0:
263,139,21883,1,0,0:0:0:0:
263,139,22043,1,0,0:0:0:0:
352,171,22203,2,0,L|442:166,1,68.0000012969971,4|0,0:0|0:0,0:0:0:0:
427,262,22523,2,0,L|359:265,1,68.0000012969971
271,226,22843,5,6,0:0:0:0:
271,226,23003,1,0,0:0:0:0:
211,300,23163,2,0,P|294:313|321:299,1,68.0000012969971
355,266,23483,1,4,0:0:0:0:
355,266,23643,1,0,0:0:0:0:
368,360,23803,1,4,0:0:0:0:
368,360,23963,1,0,0:0:0:0:
455,255,24123,6,0,L|449:161,1,68.0000012969971,6|0,0:0|0:0,0:0:0:0:
477,95,24443,1,0,0:0:0:0:
477,95,24603,1,0,0:0:0:0:
412,25,24763,2,0,P|332:81|325:128,1,136.000002593994
367,198,25243,6,0,L|265:203,1,68.0000012969971,6|0,0:0|0:0,0:0:0:0:
220,147,25563,2,0,P|165:156|129:188,1,68.0000012969971,4|0,0:0|0:0,0:0:0:0:
112,246,25883,1,0,0:0:0:0:
59,166,26043,2,0,L|51:89,1,68.0000012969971,4|0,0:0|0:0,0:0:0:0:
155,161,26363,1,4,0:0:0:0:
81,338,26683,6,0,L|179:335,1,68.0000012969971,6|0,0:0|0:0,0:0:0:0:
221,273,27003,1,0,0:0:0:0:
221,273,27163,1,0,0:0:0:0:
301,324,27323,2,0,P|313:263|298:220,1,68.0000012969971
251,185,27643,1,0,0:0:0:0:
386,196,27803,6,0,L|487:204,1,68.0000012969971,6|0,0:0|0:0,0:0:0:0:
499,109,28123,2,0,L|431:114,1,68.0000012969971,4|0,0:0|0:0,0:0:0:0:
336,123,28443,1,0,0:0:0:0:
376,37,28603,1,4,0:0:0:0:
281,49,28763,1,0,0:0:0:0:
281,49,28923,1,4,0:0:0:0:
55,162,29243,6,0,L|144:167,1,68.0000012969971,6|0,0:0|0:0,0:0:0:0:
202,112,29563,2,0,P|216:192|210:215,1,68.0000012969971
159,253,29883,2,0,P|236:272|265:264,1,68.0000012969971,4|0,0:0|0:0,0:0:0:0:
301,218,30203,2,0,L|401:215,1,68.0000012969971
453,171,30523,6,0,P|457:260|443:289,1,68.0000012969971,6|0,0:0|0:0,0:0:0:0:
417,321,30843,2,0,L|328:324,1,68.0000012969971
258,290,31163,2,0,P|187:309|166:330,1,68.0000012969971,4|0,0:0|0:0,0:0:0:0:
108,349,31483,2,0,P|98:304|102:266,1,68.0000012969971,4|0,0:0|0:0,0:0:0:0:
151,203,31803,6,0,L|144:115,1,68.0000012969971,6|0,0:0|0:0,0:0:0:0:
81,65,32123,1,0,0:0:0:0:
81,65,32283,1,0,0:0:0:0:
170,31,32443,2,0,L|256:36,1,68.0000012969971,4|0,0:0|0:0,0:0:0:0:
292,113,32763,2,0,L|359:109,1,68.0000012969971
409,27,33083,5,6,0:0:0:0:
409,27,33243,1,0,0:0:0:0:
458,108,33403,2,0,L|451:210,1,68.0000012969971
444,271,33723,1,4,0:0:0:0:
444,271,33883,1,0,0:0:0:0:
371,209,34043,1,4,0:0:0:0:
371,209,34203,1,0,0:0:0:0:
273,302,34363,6,0,L|358:299,1,80,4|4,0:0|0:0,0:0:0:0:
226,210,35003,5,0,0:0:0:0:
132,225,35323,1,0,0:0:0:0:
164,135,35643,1,2,0:0:0:0:
257,117,35963,1,0,0:0:0:0:
322,186,36283,1,0,0:0:0:0:
292,276,36603,1,0,0:0:0:0:
138,316,36923,6,0,L|228:321,1,80,4|4,0:0|0:0,0:0:0:0:
385,259,37563,5,0,0:0:0:0:
447,331,37883,1,0,0:0:0:0:
353,349,38203,1,2,0:0:0:0:
292,275,38523,1,0,0:0:0:0:
320,184,38843,1,0,0:0:0:0:
414,169,39163,6,0,L|476:172,3,34.0000006484985,4|0|4|0,0:0|0:0|0:0|0:0,0:0:0:0:
471,172,39483,2,0,L|456:82,1,68.0000012969971,6|0,0:0|0:0,0:0:0:0:
502,19,39803,2,0,P|436:10|411:18,1,68.0000012969971
366,74,40123,1,0,0:0:0:0:
366,74,40283,1,0,0:0:0:0:
275,103,40443,2,0,L|282:16,1,68.0000012969971
201,147,40763,6,0,P|253:187|286:189,1,68.0000012969971,6|0,0:0|0:0,0:0:0:0:
338,163,41083,2,0,L|426:153,1,68.0000012969971
485,194,41403,1,0,0:0:0:0:
485,194,41563,1,0,0:0:0:0:
502,276,41723,2,0,P|438:307|417:307,1,68.0000012969971
357,264,42043,6,0,L|212:252,1,136.000002593994,6|0,0:0|0:0,0:0:0:0:
179,166,42523,2,0,P|127:214|142:302,1,136.000002593994
166,361,43003,2,0,L|79:364,1,68.0000012969971
31,294,43323,6,0,P|40:228|32:204,1,68.0000012969971,6|0,0:0|0:0,0:0:0:0:
9,136,43643,1,0,0:0:0:0:
61,56,43803,2,0,L|154:61,1,68.0000012969971
198,124,44123,1,0,0:0:0:0:
295,29,44283,2,0,L|227:32,1,68.0000012969971
283,194,44603,6,0,L|288:115,1,80,4|4,0:0|0:0,0:0:0:0:
219,267,45243,6,0,P|256:289|305:285,1,68.0000012969971
364,245,45563,1,0,0:0:0:0:
441,300,45723,2,0,L|434:353,2,34.0000006484985,0|0|2,0:0|0:0|0:0,0:0:0:0:
454,205,46043,1,0,0:0:0:0:
468,110,46203,2,0,L|477:22,1,68.0000012969971
379,30,46523,2,0,L|372:97,1,68.0000012969971
356,192,46843,2,0,P|305:167|284:132,1,68.0000012969971
207,64,47163,6,0,L|295:71,1,80,4|4,0:0|0:0,0:0:0:0:
131,21,47803,6,0,P|121:68|130:103,1,68.0000012969971
187,158,48123,1,0,0:0:0:0:
92,171,48283,2,0,L|31:179,2,34.0000006484985,0|0|2,0:0|0:0|0:0,0:0:0:0:
149,247,48603,1,0,0:0:0:0:
243,232,48763,2,0,L|323:221,1,68.0000012969971
386,165,49083,2,0,P|404:227|400:252,1,68.0000012969971
343,310,49403,6,0,L|284:305,3,34.0000006484985,4|0|4|0,0:0|0:0|0:0|0:0,0:0:0:0:
380,313,49723,2,0,P|439:311|480:291,1,71.9999978027344,6|0,0:0|0:0,0:0:0:0:
503,220,50043,1,0,0:0:0:0:
403,89,50203,2,0,L|411:240,1,143.999995605469,4|0,0:0|0:0,0:0:0:0:
456,322,50683,2,0,P|421:330|385:327,1,71.9999978027344
306,263,51003,6,0,L|218:267,1,71.9999978027344,6|0,0:0|0:0,0:0:0:0:
133,273,51323,1,0,0:0:0:0:
32,280,51483,2,0,P|45:211|127:175,1,143.999995605469,4|0,0:0|0:0,0:0:0:0:
203,195,51963,2,0,L|210:114,1,71.9999978027344
220,23,52283,6,0,L|130:29,2,71.9999978027344,4|0|0,0:0|0:0|0:0,0:0:0:0:
300,83,52763,2,0,L|371:87,2,71.9999978027344,4|0|0,0:0|0:0|0:0,0:0:0:0:
438,29,53243,6,0,P|467:95|413:165,1,143.999995605469,4|0,0:0|0:0,0:0:0:0:
385,242,53723,2,0,B|323:250|323:250|304:238|304:238|222:248,1,143.999995605469,4|0,0:0|0:0,0:0:0:0:
156,293,54203,6,0,P|138:264|149:220,1,71.9999978027344,4|0,0:0|0:0,0:0:0:0:
211,152,54523,2,0,L|309:142,1,71.9999978027344,4|0,0:0|0:0,0:0:0:0:
368,133,54843,2,0,P|427:195|375:328,2,215.999993408203,4|4|4,0:0|0:0|0:0,0:0:0:0:
145,253,56123,1,4,0:0:0:0:
145,253,56603,6,0,L|141:308,2,35.9999989013672
134,365,56923,1,0,0:0:0:0:
54,244,57083,2,0,P|76:190|103:171,1,71.9999978027344
168,84,57403,6,0,L|172:178,1,80,6|0,0:0|0:0,0:0:0:0:
210,251,57723,1,8,0:0:0:0:
210,251,57883,1,0,0:0:0:0:
158,332,58043,2,0,P|213:346|248:336,1,80
301,271,58363,1,8,0:0:0:0:
325,363,58523,6,0,L|424:354,1,80,6|0,0:0|0:0,0:0:0:0:
469,253,58843,2,0,L|389:260,1,80,4|8,0:0|0:0,0:0:0:0:
337,178,59163,1,0,0:0:0:0:
274,104,59323,2,0,P|318:80|361:83,1,80,4|0,0:0|0:0,0:0:0:0:
424,135,59643,2,0,P|439:66|430:39,1,80,12|0,0:0|0:0,0:0:0:0:
337,178,59963,6,0,L|346:351,1,160,6|8,0:0|0:0,0:0:0:0:
250,350,60443,1,0,0:0:0:0:
155,364,60603,2,0,P|156:312|193:268,1,80
260,256,60923,1,8,0:0:0:0:
183,197,61083,6,0,L|91:204,1,80,6|0,0:0|0:0,0:0:0:0:
30,139,61403,1,4,0:0:0:0:
30,43,61563,2,0,L|109:49,1,80,8|0,0:0|0:0,0:0:0:0:
187,105,61883,2,0,L|266:98,1,80,4|0,0:0|0:0,0:0:0:0:
362,89,62203,1,12,0:0:0:0:
362,89,62363,1,0,0:0:0:0:
442,36,62523,6,0,P|459:121|392:177,1,160,6|0,0:0|0:0,0:0:0:0:
323,243,63003,2,0,P|434:286|503:240,2,191.999994140625,4|0|0,0:0|0:0|0:0,0:0:0:0:
292,151,63803,6,0,L|100:166,1,160,6|0,0:0|0:0,0:0:0:0:
28,113,64283,2,0,P|13:185|94:271,2,191.999994140625,4|0|0,0:0|0:0|0:0,0:0:0:0:
94,42,65083,6,0,L|185:45,1,80,6|0,0:0|0:0,0:0:0:0:
232,121,65403,1,8,0:0:0:0:
267,31,65563,1,0,0:0:0:0:
137,125,65723,2,0,L|132:223,1,80,4|0,0:0|0:0,0:0:0:0:
127,300,66043,1,8,0:0:0:0:
127,300,66203,1,0,0:0:0:0:
286,253,66363,6,0,L|199:258,1,80,6|0,0:0|0:0,0:0:0:0:
330,184,66683,1,8,0:0:0:0:
407,240,66843,1,0,0:0:0:0:
409,144,67003,2,0,L|412:55,1,80,4|0,0:0|0:0,0:0:0:0:
329,13,67323,2,0,L|326:92,1,80,8|0,0:0|0:0,0:0:0:0:
246,146,67643,6,0,P|180:133|150:105,1,80,6|0,0:0|0:0,0:0:0:0:
119,45,67963,1,8,0:0:0:0:
119,45,68123,1,0,0:0:0:0:
70,127,68283,2,0,L|82:232,1,80
160,257,68603,1,8,0:0:0:0:
93,326,68763,6,0,P|152:355|195:345,1,80,6|0,0:0|0:0,0:0:0:0:
243,300,69083,1,4,0:0:0:0:
323,352,69243,2,0,L|331:257,1,80,8|0,0:0|0:0,0:0:0:0:
258,207,69563,1,4,0:0:0:0:
258,207,69723,1,0,0:0:0:0:
268,111,69883,2,0,L|361:117,1,80,12|0,0:0|0:0,0:0:0:0:
402,37,70203,6,0,L|322:31,1,80,6|0,0:0|0:0,0:0:0:0:
225,29,70523,1,8,0:0:0:0:
225,29,70683,1,0,0:0:0:0:
177,112,70843,2,0,P|204:179|234:200,1,80
302,201,71163,1,8,0:0:0:0:
233,267,71323,6,0,L|127:272,1,80,6|0,0:0|0:0,0:0:0:0:
259,350,71643,2,0,L|338:353,1,80,4|8,0:0|0:0,0:0:0:0:
434,360,71963,1,0,0:0:0:0:
389,275,72123,2,0,P|382:222|402:177,1,80,4|0,0:0|0:0,0:0:0:0:
438,114,72443,2,0,L|338:110,1,80,12|0,0:0|0:0,0:0:0:0:
296,184,72763,6,0,L|121:192,1,160,6|0,0:0|0:0,0:0:0:0:
80,79,73243,2,0,P|16:146|65:287,1,207.999990478516,4|0,0:0|0:0,0:0:0:0:
101,317,73723,2,0,L|215:312,1,80
268,272,74043,6,0,L|444:280,1,160,6|0,0:0|0:0,0:0:0:0:
483,167,74523,2,0,P|418:190|294:111,1,207.999990478516,4|0,0:0|0:0,0:0:0:0:
301,32,75003,2,0,L|191:37,1,80
125,41,75323,5,6,0:0:0:0:
29,48,75483,1,0,0:0:0:0:
74,201,75643,2,0,L|82:99,1,80,8|0,0:0|0:0,0:0:0:0:
166,165,75963,1,4,0:0:0:0:
166,165,76123,1,0,0:0:0:0:
24,284,76283,2,0,L|128:294,1,80,8|0,0:0|0:0,0:0:0:0:
253,241,76603,6,0,L|173:248,2,80,6|0|8,0:0|0:0|0:0,0:0:0:0:
325,304,77083,1,0,0:0:0:0:
386,230,77243,2,0,L|392:137,1,80,4|0,0:0|0:0,0:0:0:0:
456,80,77563,2,0,P|400:53|364:55,1,80,12|0,0:0|0:0,0:0:0:0:
312,92,77883,6,0,L|225:85,2,68.0000012969971,6|0|0,0:0|0:0|0:0,0:0:0:0:
182,34,78363,2,0,L|114:39,2,68.0000012969971,4|0|0,0:0|0:0|0:0,0:0:0:0:
33,73,78843,2,0,L|23:170,1,68.0000012969971,4|0,0:0|0:0,0:0:0:0:
121,198,79163,6,0,L|114:130,2,68.0000012969971,6|0|0,0:0|0:0|0:0,0:0:0:0:
34,239,79643,2,0,L|27:306,2,68.0000012969971,4|0|0,0:0|0:0|0:0,0:0:0:0:
95,352,80123,2,0,P|150:360|185:349,1,68.0000012969971,4|0,0:0|0:0,0:0:0:0:
221,302,80443,5,6,0:0:0:0:
288,308,80763,1,0,0:0:0:0:
355,313,81083,1,0,0:0:0:0:
422,318,81403,1,8,0:0:0:0:
349,230,81563,6,0,L|346:163,1,68.0000012969971,6|0,0:0|0:0,0:0:0:0:
341,73,81883,1,0,0:0:0:0:
481,107,82043,2,0,P|450:119|417:112,1,68.0000012969971,12|0,0:0|0:0,0:0:0:0:
443,27,82363,1,2,0:0:0:0:
256,192,82443,8,0,84283,0:0:0:0:
