osu file format v14

[General]
AudioFilename: audio.mp3
AudioLeadIn: 0
PreviewTime: 57394
Countdown: 0
SampleSet: None
StackLeniency: 0.5
Mode: 0
LetterboxInBreaks: 0
WidescreenStoryboard: 0

[Editor]
Bookmarks: 3634,10354,10674,10994,11314,13874,18994,24114,31794,33714,34354,34994,36914,37234,39154,39474,44594,47154,47474,49394,52274,54834,55314,55794,56114,56594,62034,66354,67634,76594,77874,80114,82354
DistanceSpacing: 1
BeatDivisor: 2
GridSize: 4
TimelineZoom: 0.9

[Metadata]
Title:Genkai Toppa x Survivor (TV Size)
TitleUnicode:限界突破×サバイバー
Artist:Kiyoshi Hikawa
ArtistUnicode:氷川きよし
Creator:-NeBu-
Version:Normal
Source:Dragon Ball Super
Tags:dragon ball super dbs toei animation anime opening two limit break x survivor dbz db db gt
BeatmapID:1407659
BeatmapSetID:571304

[Difficulty]
HPDrainRate:4
CircleSize:3.5
OverallDifficulty:4
ApproachRate:5
SliderMultiplier:0.899999999999999
SliderTickRate:2

[Events]
//Background and Video events
Video,0,"Dragon Ball Super - OPENING 2 (1080p FULL HD).mp4"
0,0,"dbswall.jpg",0,0
//Break Periods
2,11514,12674
//Storyboard Layer 0 (Background)
//Storyboard Layer 1 (Fail)
//Storyboard Layer 2 (Pass)
//Storyboard Layer 3 (Foreground)
//Storyboard Sound Samples

[TimingPoints]
-206,320,4,3,1,45,1,0
5394,-100,4,3,1,45,0,0
5874,-100,4,3,1,45,0,0
6194,-100,4,3,1,60,0,0
34354,-100,4,3,1,60,0,0
34994,-100,4,3,1,60,0,0
36914,-100,4,3,1,60,0,0
37234,-100,4,3,1,60,0,0
45234,-100,4,3,1,60,0,0
47154,-100,4,3,1,60,0,0
47474,-100,4,3,1,60,0,0
57394,-100,4,3,1,70,0,1
80434,-100,4,3,1,45,0,0
81554,-100,4,3,1,60,0,0
82354,-100,4,3,1,60,0,0

[Colours]
Combo1 : 207,207,207
Combo2 : 255,198,255
Combo3 : 112,181,218
Combo4 : 255,26,26
SliderTrackOverride : 35,20,80

[HitObjects]
112,72,1074,6,0,L|104:124,1,45,8|8,0:0|0:0,0:0:0:0:
232,160,1714,2,0,L|240:212,1,45,8|8,0:0|0:0,0:0:0:0:
104,224,2354,2,0,L|96:276,1,45,8|8,0:0|0:0,0:0:0:0:
156,336,2834,2,0,L|248:348,1,89.9999999999999
400,312,3634,6,0,L|408:260,1,45,8|8,0:0|0:0,0:0:0:0:
276,228,4274,2,0,L|268:176,1,45,8|8,0:0|0:0,0:0:0:0:
400,152,4914,2,0,L|408:100,1,45,8|8,0:0|0:0,0:0:0:0:
336,36,5394,2,2,P|269:19|207:54,1,135
112,84,6194,5,0,0:0:0:0:
76,168,6514,1,0,0:0:0:0:
96,256,6834,2,0,B|109:322|109:322|136:344,1,89.9999999999999
172,356,7314,6,4,L|306:344,1,135,0|0,0:0|0:0,0:0:0:0:
404,328,8114,1,0,0:0:0:0:
448,240,8434,1,0,0:0:0:0:
468,196,8594,2,0,P|478:134|432:80,1,135
344,44,9394,1,0,0:0:0:0:
296,60,9554,1,0,0:0:0:0:
292,160,9874,2,0,P|264:222|200:231,1,135
124,172,10674,1,0,0:0:0:0:
64,252,10994,1,0,0:0:0:0:
144,312,11314,5,0,0:0:0:0:
88,304,13874,6,8,P|129:316|176:300,1,89.9999999999999,0|0,0:0|0:0,0:0:0:0:
244,248,14514,2,8,L|336:240,1,89.9999999999999,0|0,0:0|0:0,0:0:0:0:
368,208,14994,2,8,P|380:165|363:121,1,89.9999999999999,0|0,0:0|0:0,0:0:0:0:
312,52,15634,1,0,0:0:0:0:
268,36,15794,2,8,L|168:28,1,89.9999999999999
132,108,16434,6,0,L|144:200,1,89.9999999999999,8|0,0:0|0:0,0:0:0:0:
104,280,17074,2,8,P|131:315|173:329,1,89.9999999999999,0|0,0:0|0:0,0:0:0:0:
216,312,17554,2,8,L|308:304,1,89.9999999999999,0|0,0:0|0:0,0:0:0:0:
392,332,18194,1,0,0:0:0:0:
420,300,18354,2,8,L|432:208,1,89.9999999999999
404,124,18994,6,8,B|350:105|350:105|304:116,1,89.9999999999999
232,144,19634,2,0,L|142:123,1,89.9999999999999
80,188,20274,2,0,B|66:245|66:245|78:281,1,89.9999999999999
160,308,20914,2,0,L|248:288,1,89.9999999999999
332,324,21554,6,8,P|376:333|424:304,1,89.9999999999999
468,240,22194,2,0,P|477:196|448:148,1,89.9999999999999
376,104,22834,2,0,L|284:124,1,89.9999999999999
224,200,23474,2,0,L|244:292,1,89.9999999999999
332,324,24114,6,0,P|376:333|424:304,1,89.9999999999999,8|8,0:0|0:0,0:0:0:0:
456,232,24754,2,0,L|472:140,1,89.9999999999999,0|0,0:0|0:0,0:0:0:0:
440,108,25234,2,0,B|398:91|398:91|352:100,1,89.9999999999999,8|8,0:0|0:0,0:0:0:0:
276,144,25874,1,8,0:0:0:0:
240,172,26034,2,0,L|148:184,1,89.9999999999999,0|0,0:0|0:0,0:0:0:0:
108,264,26674,6,8,L|212:284,1,89.9999999999999,0|0,0:0|0:0,0:0:0:0:
276,340,27314,2,0,P|314:359|360:350,1,89.9999999999999
400,328,27794,2,8,L|420:236,1,89.9999999999999
368,156,28434,1,0,0:0:0:0:
396,116,28594,2,0,L|376:20,1,89.9999999999999,8|0,0:0|0:0,0:0:0:0:
280,44,29234,6,0,L|180:60,1,89.9999999999999,8|8,0:0|0:0,0:0:0:0:
128,132,29874,2,8,P|109:172|115:219,1,89.9999999999999,0|0,0:0|0:0,0:0:0:0:
172,296,30514,2,0,B|215:311|215:311|262:298,1,89.9999999999999
332,232,31154,2,0,L|428:248,1,89.9999999999999
464,156,31794,6,0,P|476:114|456:68,1,89.9999999999999
372,24,32434,2,0,P|330:12|284:32,1,89.9999999999999
196,68,33074,2,0,L|104:76,1,89.9999999999999
64,164,33714,2,0,L|156:176,1,89.9999999999999
244,144,34354,6,8,P|246:190|226:234,1,89.9999999999999,0|0,0:0|0:0,0:0:0:0:
272,308,34994,2,8,P|313:325|357:322,1,89.9999999999999,0|0,0:0|0:0,0:0:0:0:
428,268,35634,1,0,0:0:0:0:
436,224,35794,1,0,0:0:0:0:
404,140,36114,2,0,P|343:107|280:136,1,135
208,180,36914,6,8,L|198:270,1,89.9999999999999,0|0,0:0|0:0,0:0:0:0:
132,324,37554,2,0,P|90:335|44:316,1,89.9999999999999
24,232,38194,1,0,0:0:0:0:
32,188,38354,1,0,0:0:0:0:
76,108,38674,2,0,P|136:93|177:145,1,135
180,236,39474,6,0,L|193:329,2,89.9999999999999
216,212,40274,2,0,P|257:204|294:234,1,89.9999999999999
316,268,40754,2,0,P|357:280|397:259,1,89.9999999999999
396,168,41394,1,0,0:0:0:0:
356,148,41554,1,0,0:0:0:0:
224,176,42034,6,8,P|182:187|132:164,1,89.9999999999999,0|0,0:0|0:0,0:0:0:0:
108,136,42514,2,0,L|96:44,1,89.9999999999999,8|8,0:0|0:0,0:0:0:0:
116,8,42994,1,8,0:0:0:0:
192,56,43314,6,8,L|288:72,1,89.9999999999999,0|0,0:0|0:0,0:0:0:0:
320,52,43794,2,0,B|363:39|363:39|408:56,1,89.9999999999999,8|0,0:3|0:0,0:0:0:0:
432,92,44274,1,8,0:0:0:0:
396,176,44594,6,2,L|380:268,1,89.9999999999999
304,312,45234,1,8,0:0:0:0:
216,288,45554,1,0,0:0:0:0:
172,208,45874,1,0,0:0:0:0:
192,164,46034,1,0,0:0:0:0:
256,88,46354,2,8,P|200:40|99:75,1,180,0|0,0:0|0:0,0:0:0:0:
76,88,47154,6,0,L|60:184,1,89.9999999999999
124,236,47794,2,8,P|161:259|209:253,1,89.9999999999999,0|0,0:0|0:0,0:0:0:0:
280,208,48434,1,0,0:0:0:0:
328,220,48594,1,0,0:0:0:0:
408,176,48914,2,0,P|432:140|399:61,1,135
316,32,49714,5,0,0:0:0:0:
271,37,49874,1,0,0:0:0:0:
184,24,50194,2,8,L|32:44,1,135,0|0,0:0|0:0,0:0:0:0:
100,116,50994,1,0,0:0:0:0:
144,124,51154,1,0,0:0:0:0:
224,164,51474,2,8,L|357:181,1,135,8|0,0:0|0:0,0:0:0:0:
348,88,52274,6,0,P|393:95|451:172,1,135,8|0,0:0|0:0,0:0:0:0:
376,272,53234,2,0,P|325:268|267:193,1,135,8|0,0:0|0:0,0:0:0:0:
152,148,54194,5,8,0:0:0:0:
100,212,54514,1,4,0:0:0:0:
116,292,54834,2,0,P|176:312|236:272,2,135
116,212,56114,1,0,0:0:0:0:
196,216,57394,6,0,P|239:225|280:208,1,89.9999999999999,8|8,0:0|0:0,0:0:0:0:
356,156,58034,2,0,L|402:147,1,45
480,192,58514,2,8,B|455:266|493:310|493:310|439:322|418:372,1,225,0|0,0:0|0:0,0:0:0:0:
340,328,59634,1,8,0:0:0:0:
252,352,59954,6,0,P|208:365|160:344,1,89.9999999999999,8|8,0:0|0:0,0:0:0:0:
76,312,60594,1,0,0:0:0:0:
68,264,60754,1,0,0:0:0:0:
63,175,61074,2,0,P|160:141|221:229,1,225,0|8,0:0|0:0,0:0:0:0:
260,252,62034,2,0,L|312:260,2,45,2|2|2,0:0|0:0|0:0,0:0:0:0:
221,228,62514,6,8,L|206:123,1,89.9999999999999,0|0,0:0|0:0,0:0:0:0:
228,100,62994,1,0,0:0:0:0:
316,96,63314,6,0,L|364:104,2,45,0|2|2,0:0|0:0|0:0,0:0:0:0:
296,56,63794,2,0,P|252:24|212:24,1,89.9999999999999,10|0,0:0|0:0,0:0:0:0:
176,36,64274,1,0,0:0:0:0:
96,76,64594,5,0,0:0:0:0:
68,112,64754,1,2,0:0:0:0:
68,156,64914,1,2,0:0:0:0:
92,196,65074,2,0,L|200:212,3,89.9999999999999,10|8|8|8,0:0|0:0|0:0|0:0,0:0:0:0:
268,232,66354,2,0,P|328:271|406:200,1,180,4|4,0:0|0:0,0:0:0:0:
392,124,67314,1,0,0:0:0:0:
468,164,67634,6,8,P|481:215|467:263,1,89.9999999999999,0|0,0:0|0:0,0:0:0:0:
408,312,68274,2,8,B|365:326|365:326|312:312,1,89.9999999999999,0|0,0:0|0:0,0:0:0:0:
284,340,68754,2,0,B|293:236|236:275|257:166,1,180
188,108,69714,2,0,L|200:64,2,45,8|0|0,0:0|0:0|0:0,0:0:0:0:
144,116,70194,6,8,P|122:155|121:199,1,89.9999999999999,0|0,0:0|0:0,0:0:0:0:
132,288,70834,2,0,B|148:380|148:380,1,89.9999999999999,8|0,0:0|0:0,0:0:0:0:
180,348,71314,2,0,B|223:321|266:339|266:339|316:363|364:329,1,180
440,292,72274,2,0,L|446:336,2,45
448,252,72754,2,8,P|413:225|367:224,1,89.9999999999999,0|0,0:0|0:0,0:0:0:0:
344,184,73234,1,0,0:0:0:0:
284,116,73554,5,0,0:0:0:0:
252,80,73714,1,2,0:0:0:0:
204,72,73874,1,2,0:0:0:0:
160,84,74034,2,0,L|144:176,1,89.9999999999999,10|0,0:0|0:0,0:0:0:0:
108,200,74514,1,0,0:0:0:0:
68,280,74834,2,0,L|16:288,2,45,0|2|2,0:0|0:0|0:0,0:0:0:0:
108,300,75314,5,8,0:0:0:0:
184,348,75634,1,8,0:0:0:0:
272,328,75954,1,8,0:0:0:0:
304,244,76274,1,8,0:0:0:0:
280,156,76594,6,0,P|286:106|406:72,1,180,8|8,0:0|0:0,0:0:0:0:
416,152,77554,1,4,0:0:0:0:
368,224,77874,6,0,L|272:240,1,89.9999999999999,0|4,0:0|0:0,0:0:0:0:
236,216,78354,2,0,L|136:204,1,89.9999999999999,8|0,0:0|0:0,0:0:0:0:
104,220,78834,1,4,0:0:0:0:
100,132,79154,6,0,B|111:88|111:88|152:52,1,89.9999999999999,8|0,0:0|0:0,0:0:0:0:
184,76,79634,2,0,P|227:83|272:56,1,89.9999999999999,8|0,0:0|0:0,0:0:0:0:
304,36,80114,5,0,0:0:0:0:
392,50,80434,1,0,0:0:0:0:
392,50,81394,5,2,0:0:0:0:
424,80,81554,2,0,P|455:142|438:204,1,135,0|4,0:0|0:0,0:0:0:0:
388,280,82354,1,10,0:0:0:0:
