osu file format v14

[General]
AudioFilename: audio.mp3
AudioLeadIn: 0
PreviewTime: 57394
Countdown: 0
SampleSet: None
StackLeniency: 0.5
Mode: 0
LetterboxInBreaks: 0
WidescreenStoryboard: 0

[Editor]
Bookmarks: 10354,10674,10994,11314,13874,18994,24114,31794,33714,34354,34994,36914,37234,39154,39394,44594,44834,47154,47474,49394,49634,52274,54834,55314,55794,56114,56594,62034,62434,66354,67634,73634,73954,74914,75234,76594,77874,80114,82354
DistanceSpacing: 1
BeatDivisor: 4
GridSize: 4
TimelineZoom: 2.2

[Metadata]
Title:Genkai Toppa x Survivor (TV Size)
TitleUnicode:限界突破×サバイバー
Artist:Kiyoshi Hikawa
ArtistUnicode:氷川きよし
Creator:-NeBu-
Version:Limit Break
Source:Dragon Ball Super
Tags:dragon ball super dbs toei animation anime opening two limit break x survivor dbz db db gt
BeatmapID:1210781
BeatmapSetID:571304

[Difficulty]
HPDrainRate:6
CircleSize:4
OverallDifficulty:8.5
ApproachRate:9.5
SliderMultiplier:2.1
SliderTickRate:1

[Events]
//Background and Video events
Video,0,"Dragon Ball Super - OPENING 2 (1080p FULL HD).mp4"
0,0,"dbswall.jpg",0,0
//Break Periods
//Storyboard Layer 0 (Background)
//Storyboard Layer 1 (Fail)
//Storyboard Layer 2 (Pass)
//Storyboard Layer 3 (Foreground)
//Storyboard Sound Samples

[TimingPoints]
-206,320,4,3,1,45,1,0
5394,-66.6666666666667,4,3,1,45,0,0
5874,-100,4,3,1,45,0,0
6194,-100,4,3,1,60,0,0
11314,-133.333333333333,4,3,1,60,0,0
13874,-100,4,3,1,60,0,0
18914,-100,4,3,1,5,0,0
18994,-100,4,3,1,60,0,0
34354,-66.6666666666667,4,3,1,60,0,0
34994,-100,4,3,1,60,0,0
36914,-66.6666666666667,4,3,1,60,0,0
37234,-100,4,3,1,60,0,0
44834,-100,4,3,1,5,0,0
44914,-66.6666666666667,4,3,1,60,0,0
45234,-100,4,3,1,60,0,0
47154,-66.6666666666667,4,3,1,60,0,0
47474,-100,4,3,1,60,0,0
57394,-80,4,3,1,70,0,1
80434,-100,4,3,1,45,0,0
81554,-66.6666666666667,4,3,1,60,0,0
82354,-100,4,3,1,60,0,0

[Colours]
Combo1 : 207,207,207
Combo2 : 255,198,255
Combo3 : 112,181,218
Combo4 : 255,26,26
SliderTrackOverride : 35,20,80

[HitObjects]
116,88,594,5,0,0:0:0:0:
39,154,754,1,0,0:0:0:0:
131,191,914,1,0,0:0:0:0:
272,140,1074,5,8,0:0:0:0:
248,284,1234,1,8,0:0:0:0:
408,136,1714,5,8,0:0:0:0:
440,334,1874,1,8,0:0:0:0:
160,112,2354,5,8,0:0:0:0:
433,66,2514,1,8,0:0:0:0:
232,360,2834,6,0,B|225:305|225:305|245:217|245:217|237:153,1,210
271,51,3474,1,0,0:0:0:0:
237,153,3634,5,8,0:0:0:0:
381,177,3794,1,8,0:0:0:0:
160,76,4274,5,8,0:0:0:0:
192,274,4434,1,8,0:0:0:0:
342,139,4914,6,8,L|454:123,1,105
452,132,5154,1,0,0:0:0:0:
456,140,5234,1,0,0:0:0:0:
460,148,5314,1,0,0:0:0:0:
464,156,5394,6,0,B|452:222|452:222|471:280|471:280|459:315|471:352|471:352|395:327|395:327|267:353|267:353|310:310,1,472.500018024445
288,135,6194,6,4,P|246:159|186:148,1,105
352,60,6514,2,0,P|394:36|454:52,1,105
192,152,6834,1,0,0:0:0:0:
430,287,6994,1,0,0:0:0:0:
168,352,7154,1,0,0:0:0:0:
430,287,7314,6,4,P|476:192|410:104,1,210
160,208,7794,1,0,0:0:0:0:
363,76,7954,1,0,0:0:0:0:
232,304,8114,1,0,0:0:0:0:
184,64,8274,1,0,0:0:0:0:
120,328,8434,1,0,0:0:0:0:
422,326,8594,6,4,B|371:299|312:327|312:327|281:294|281:294|232:303,1,210
48,216,9074,2,0,L|152:200,1,105
328,168,9394,2,0,L|224:152,1,105
184,120,9634,1,8,0:0:0:0:
168,71,9714,1,4,0:0:0:0:
195,27,9794,1,8,0:0:0:0:
216,72,9874,6,4,B|152:96|152:96|72:80|72:80|8:104,1,210
336,168,10354,5,8,0:0:0:0:
168,80,10514,1,8,0:0:0:0:
392,240,10674,5,8,0:0:0:0:
209,3,10834,1,8,0:0:0:0:
368,323,10994,5,8,0:0:0:0:
296,4,11154,1,8,0:0:0:0:
162,348,11314,6,4,B|148:315|148:315|155:288|155:288|147:272|147:272|154:255|154:255|145:231|145:231|158:198,1,157.500006008148
232,96,11954,1,0,0:0:0:0:
309,82,12274,6,8,L|220:98,1,78.7500030040742
272,272,12754,1,0,0:0:0:0:
231,95,13074,5,8,0:0:0:0:
272,272,13234,1,8,0:0:0:0:
128,40,13554,5,4,0:0:0:0:
360,152,13874,6,8,L|248:168,2,105
179,210,14354,1,0,0:0:0:0:
179,210,14514,6,8,B|150:148|197:100|197:100|191:58|191:58|211:14,1,210
256,168,14994,2,8,B|384:226|334:123|477:187,1,210
335,6,15474,2,0,L|319:111,1,105
200,336,15794,1,0,0:0:0:0:
240,216,15954,5,0,0:0:0:0:
112,256,16114,1,0,0:0:0:0:
216,344,16274,1,0,0:0:0:0:
227,201,16434,2,0,L|243:97,1,105
335,6,16754,5,0,0:0:0:0:
377,193,16914,1,0,0:0:0:0:
480,120,17074,6,8,P|483:62|449:21,1,105
377,193,17394,1,0,0:0:0:0:
304,56,17554,2,8,P|200:32|136:104,1,210
273,240,18034,5,0,0:0:0:0:
377,93,18194,1,0,0:0:0:0:
172,206,18354,1,0,0:0:0:0:
361,326,18514,1,0,0:0:0:0:
230,106,18674,2,0,B|114:126|114:126|95:172,1,157.5
74,199,18994,6,8,L|90:303,1,105
328,224,19314,1,0,0:0:0:0:
112,120,19474,1,0,0:0:0:0:
281,285,19634,6,8,P|329:301|385:277,1,105
184,144,19954,1,0,0:0:0:0:
378,62,20114,1,0,0:0:0:0:
281,285,20274,6,0,P|229:298|175:268,1,105
112,120,20594,1,0,0:0:0:0:
94,321,20754,1,0,0:0:0:0:
378,283,20914,6,0,P|403:241|390:178,1,105
183,277,21234,2,0,P|158:319|171:382,1,105
376,24,21554,6,8,L|272:8,1,105
88,128,21874,1,0,0:0:0:0:
264,224,22034,1,0,0:0:0:0:
103,24,22194,2,8,L|87:128,1,105
152,320,22514,1,0,0:0:0:0:
256,152,22674,1,0,0:0:0:0:
53,319,22834,6,0,P|105:335|157:315,1,105
256,152,23154,2,0,P|204:136|152:156,1,105
53,319,23474,5,0,0:0:0:0:
0,120,23634,1,8,0:0:0:0:
216,356,23794,5,0,0:0:0:0:
157,151,23954,1,0,0:0:0:0:
348,296,24114,6,8,B|332:232|332:232|340:144|340:144|324:90,1,210
324,90,24594,1,0,0:0:0:0:
169,275,24754,2,0,B|162:326|162:326|185:379,1,105
312,384,25074,1,0,0:0:0:0:
236,231,25234,6,8,P|136:203|93:297,1,210,8|8,3:0|3:0,3:0:0:0:
271,341,25714,2,0,P|315:300|315:236,1,105
248,48,26034,1,0,0:0:0:0:
408,256,26194,1,0,0:0:0:0:
256,120,26354,1,0,0:0:0:0:
392,184,26514,1,0,0:0:0:0:
104,208,26674,6,8,L|0:216,1,105
137,331,26994,1,0,0:0:0:0:
192,89,27154,1,0,0:0:0:0:
287,217,27314,6,0,B|325:194|325:194|366:215|366:215|424:176|489:208,1,210
216,156,27794,2,0,B|161:261|256:267|225:371,1,210
366,215,28274,1,0,0:0:0:0:
115,164,28434,1,0,0:0:0:0:
312,344,28594,5,8,0:0:0:0:
178,101,28754,1,0,0:0:0:0:
237,380,28914,5,0,0:0:0:0:
264,76,29074,1,0,0:0:0:0:
64,160,29234,6,8,L|176:184,1,105
328,320,29554,1,0,0:0:0:0:
240,96,29714,1,0,0:0:0:0:
232,335,29874,2,8,P|286:344|331:315,1,105
239,169,30194,1,0,0:0:0:0:
176,384,30354,1,0,0:0:0:0:
368,272,30514,5,8,0:0:0:0:
160,192,30674,1,0,0:0:0:0:
288,352,30834,1,0,0:0:0:0:
376,152,30994,1,0,0:0:0:0:
287,24,31154,6,0,L|183:35,1,105
376,152,31474,1,0,0:0:0:0:
440,0,31634,1,0,0:0:0:0:
246,176,31794,6,8,L|230:280,1,105
392,376,32114,1,0,0:0:0:0:
328,168,32274,1,0,0:0:0:0:
176,328,32434,1,8,0:0:0:0:
439,296,32594,1,0,0:0:0:0:
282,103,32754,1,0,0:0:0:0:
176,328,32914,1,0,0:0:0:0:
384,224,33074,5,8,0:0:0:0:
176,184,33234,1,0,0:0:0:0:
392,376,33394,1,0,0:0:0:0:
176,328,33554,1,0,0:0:0:0:
400,208,33714,5,8,0:0:0:0:
383,159,33794,1,8,0:0:0:0:
340,131,33874,1,8,0:0:0:0:
289,135,33954,1,8,0:0:0:0:
316,178,34034,1,8,0:0:0:0:
340,124,34114,1,8,0:0:0:0:
324,80,34194,1,8,0:0:0:0:
278,65,34274,1,8,0:0:0:0:
232,82,34354,6,8,B|228:130|187:159|187:159|200:210|200:210|144:283|192:370,1,315.000012016297
372,332,34994,5,2,0:0:0:0:
340,124,35314,1,2,0:0:0:0:
191,369,35634,5,2,0:0:0:0:
223,161,35954,1,2,0:0:0:0:
49,344,36274,5,2,0:0:0:0:
81,136,36594,1,2,0:0:0:0:
368,200,36914,6,8,B|393:151|393:151|310:187|310:187|238:163|238:163|150:195,1,315.000012016297
0,180,37554,5,2,0:0:0:0:
24,384,37874,1,2,0:0:0:0:
238,163,38194,5,2,0:0:0:0:
214,367,38514,1,2,0:0:0:0:
74,221,38834,1,0,0:0:0:0:
83,62,39154,5,8,0:0:0:0:
118,45,39234,1,0,0:0:0:0:
157,44,39314,1,0,0:0:0:0:
193,59,39394,1,0,0:0:0:0:
220,87,39474,5,8,0:0:0:0:
345,239,39634,1,0,0:0:0:0:
418,60,39794,1,0,0:0:0:0:
345,239,39954,1,0,0:0:0:0:
144,192,40114,2,8,L|32:208,1,105
128,332,40434,1,0,0:0:0:0:
244,256,40594,1,0,0:0:0:0:
338,174,40754,6,8,P|391:181|437:156,1,105
322,73,41074,2,8,B|274:81|274:81|264:77|264:77|210:89,1,105
102,167,41394,1,0,0:0:0:0:
129,314,41554,2,0,P|173:266|101:166,1,210
0,144,42034,6,8,L|104:168,1,105
368,88,42354,1,0,0:0:0:0:
102,167,42514,6,8,L|206:191,1,105
470,111,42834,1,0,0:0:0:0:
256,56,42994,1,0,0:0:0:0:
480,216,43154,1,0,0:0:0:0:
189,8,43314,6,8,P|174:55|192:108,1,105
290,138,43634,1,0,0:0:0:0:
323,235,43794,2,0,B|188:262|188:262|119:227,1,210
69,52,44274,5,0,0:0:0:0:
0,268,44434,1,0,0:0:0:0:
112,128,44594,6,0,B|222:82|183:173|322:104,1,210
361,17,45234,6,8,P|310:0|260:23,1,105
219,193,45554,1,0,0:0:0:0:
360,96,45714,1,0,0:0:0:0:
182,24,45874,2,0,B|161:68|161:68|174:136,1,105,0|0,0:0|0:0,0:0:0:0:
344,176,46194,1,0,0:0:0:0:
172,124,46354,2,0,P|141:214|221:277,1,210
344,176,46834,1,0,0:0:0:0:
256,0,46994,1,0,0:0:0:0:
400,56,47154,6,8,B|400:96|438:122|438:122|419:165|422:210|422:210|454:250|454:250|424:302|459:350|459:350,1,315.000012016297
192,96,47794,6,8,L|80:112,1,105
272,216,48114,1,0,0:0:0:0:
288,8,48274,1,0,0:0:0:0:
112,184,48434,6,0,L|128:296,1,105
304,334,48754,1,0,0:0:0:0:
320,144,48914,1,0,0:0:0:0:
128,72,49074,5,8,0:0:0:0:
216,288,49234,1,0,0:0:0:0:
320,144,49394,5,0,0:0:0:0:
281,109,49474,1,0,0:0:0:0:
231,112,49554,1,0,0:0:0:0:
198,152,49634,1,0,0:0:0:0:
202,202,49714,2,8,P|246:239|292:237,1,105
128,96,50034,1,0,0:0:0:0:
352,304,50194,6,8,B|368:240|368:240|352:160|352:160|368:88,1,210
281,109,50674,2,0,L|260:214,1,105
163,331,50994,5,8,0:0:0:0:
352,304,51154,2,0,B|293:300|293:300|246:314,1,105
87,381,51474,6,8,B|58:329|87:277|87:277|66:229|95:181,1,210
248,112,51954,2,0,L|264:8,1,105
456,144,52274,5,8,0:0:0:0:
248,112,52434,1,0,0:0:0:0:
416,224,52594,1,0,0:0:0:0:
160,48,52754,5,8,0:0:0:0:
336,144,52914,1,0,0:0:0:0:
72,208,53074,1,0,0:0:0:0:
256,48,53234,5,8,0:0:0:0:
304,296,53394,1,0,0:0:0:0:
184,120,53554,1,0,0:0:0:0:
416,160,53714,5,8,0:0:0:0:
184,256,53874,1,0,0:0:0:0:
420,320,54034,1,0,0:0:0:0:
173,40,54194,5,8,0:0:0:0:
336,344,54354,1,0,0:0:0:0:
336,40,54514,5,8,0:0:0:0:
176,344,54674,1,0,0:0:0:0:
256,16,54834,5,8,0:0:0:0:
176,344,55314,5,4,0:0:0:0:
368,112,55794,5,2,0:0:0:0:
304,344,56114,1,2,0:0:0:0:
384,336,56594,6,8,B|400:272|400:272|392:232,1,105
216,176,56914,1,0,0:0:0:0:
304,344,57074,1,0,0:0:0:0:
384,152,57234,1,0,0:0:0:0:
208,296,57394,6,8,B|146:304|146:304|138:300|138:300|77:307,1,131.25
324,98,57714,2,0,P|392:74|452:106,1,131.25
152,232,58034,5,8,0:0:0:0:
416,200,58194,1,0,0:0:0:0:
128,120,58354,1,0,0:0:0:0:
400,287,58514,6,8,P|481:253|426:113,1,262.5
325,59,58994,2,0,L|185:71,2,131.25
48,160,59474,1,0,0:0:0:0:
131,328,59634,5,8,0:0:0:0:
194,70,59794,1,0,0:0:0:0:
320,248,59954,6,8,L|304:117,1,131.25
48,160,60274,2,8,L|64:296,1,131.25
320,248,60594,5,8,0:0:0:0:
48,160,60754,1,0,0:0:0:0:
246,293,60914,1,0,0:0:0:0:
237,52,61074,2,0,P|305:28|377:172,1,262.5
320,248,61554,2,0,L|344:380,2,131.25
276,36,62034,5,0,0:0:0:0:
120,267,62194,1,0,0:0:0:0:
86,31,62354,1,0,0:0:0:0:
301,278,62514,6,8,B|368:287|368:287|437:270,1,131.25
248,352,62834,1,0,0:0:0:0:
455,10,62994,2,8,L|429:271,1,262.5
248,352,63474,1,2,0:0:0:0:
224,120,63634,1,2,0:0:0:0:
428,271,63794,5,10,0:0:0:0:
127,250,63954,1,0,0:0:0:0:
455,10,64114,1,0,0:0:0:0:
428,271,64274,6,8,B|375:303|316:271|316:271|268:311|268:311|234:281|188:287,1,262.5
190,39,64754,1,2,0:0:0:0:
373,204,64914,1,2,0:0:0:0:
208,363,65074,5,10,0:0:0:0:
0,280,65234,1,0,0:0:0:0:
224,347,65394,5,10,0:0:0:0:
32,124,65554,1,0,0:0:0:0:
244,345,65714,5,10,0:0:0:0:
190,39,65874,1,0,0:0:0:0:
257,354,66034,5,10,0:0:0:0:
360,72,66194,1,0,0:0:0:0:
270,364,66354,6,0,P|333:371|393:335,1,131.25
190,39,66674,2,0,P|126:28|67:68,1,131.25
52,320,66994,1,0,0:0:0:0:
314,212,67154,1,0,0:0:0:0:
141,105,67314,1,0,0:0:0:0:
212,384,67474,1,0,0:0:0:0:
314,212,67634,6,8,P|367:181|437:195,1,131.25
222,302,67954,2,0,L|210:166,1,131.25
76,36,68274,1,0,0:0:0:0:
281,125,68434,1,0,0:0:0:0:
37,256,68594,1,0,0:0:0:0:
245,339,68754,2,0,P|317:359|357:211,1,262.5
304,40,69234,2,0,B|199:55|199:55|220:67,1,131.25
304,276,69554,1,0,0:0:0:0:
120,64,69714,5,8,0:0:0:0:
248,376,69874,1,0,0:0:0:0:
304,40,70034,1,0,0:0:0:0:
71,270,70194,6,8,B|79:223|79:223|78:203|78:203|88:188|88:188|98:144,1,131.25
300,12,70514,1,0,0:0:0:0:
413,233,70674,1,0,0:0:0:0:
98,143,70834,1,8,0:0:0:0:
359,84,70994,1,0,0:0:0:0:
218,301,71154,1,0,0:0:0:0:
415,353,71314,2,0,P|504:278|486:142,1,262.5
294,48,71794,2,0,P|346:12|407:29,2,131.25,0|0|0,3:3|3:3|3:3,3:0:0:0:
152,216,72274,5,0,0:0:0:0:
415,353,72434,1,8,0:0:0:0:
294,48,72594,1,0,0:0:0:0:
152,216,72754,6,8,P|141:281|171:344,1,131.25
136,48,73074,1,0,0:0:0:0:
238,269,73234,2,8,P|369:281|494:246,1,262.5
336,29,73714,1,2,0:0:0:0:
239,270,73874,1,2,0:0:0:0:
494,246,74034,5,10,0:0:0:0:
248,136,74194,1,0,0:0:0:0:
444,348,74354,1,0,0:0:0:0:
458,53,74514,6,8,B|415:60|378:37|378:37|328:41|291:66|291:66|241:41|189:72,1,262.5
6,137,74994,2,0,L|30:273,1,131.25
212,369,75314,5,8,0:0:0:0:
340,98,75474,1,0,0:0:0:0:
133,380,75634,5,8,0:0:0:0:
386,168,75794,1,0,0:0:0:0:
66,342,75954,5,8,0:0:0:0:
416,248,76114,1,0,0:0:0:0:
28,266,76274,5,8,0:0:0:0:
420,334,76434,1,0,0:0:0:0:
168,192,76594,6,0,B|148:116|148:116|168:60,1,131.25
288,19,76914,1,0,0:0:0:0:
396,79,77074,2,0,B|450:226|354:186|421:337,1,262.5
292,332,77554,2,0,P|230:338|188:284,1,131.25
141,97,77874,5,0,0:0:0:0:
416,136,78034,5,4,0:0:0:0:
416,136,78194,1,4,0:0:0:0:
264,328,78354,5,8,0:0:0:0:
192,8,78514,1,0,0:0:0:0:
484,252,78674,1,0,0:0:0:0:
145,101,78834,5,4,0:0:0:0:
145,101,78994,1,4,0:0:0:0:
420,44,79154,5,8,0:0:0:0:
264,328,79314,1,0,0:0:0:0:
115,25,79474,1,0,0:0:0:0:
399,219,79634,5,8,0:0:0:0:
96,184,79794,1,0,0:0:0:0:
420,44,79954,1,0,0:0:0:0:
399,219,80114,5,8,0:0:0:0:
334,268,80194,1,0,0:0:0:0:
252,275,80274,1,0,0:0:0:0:
180,238,80354,1,0,0:0:0:0:
103,185,80434,6,8,B|109:215|96:241|96:241|118:283|120:329|120:329|88:317|64:284,1,210
23,179,81074,2,8,P|86:105|174:149,1,210
384,296,81554,6,4,B|368:224|368:224|384:176|384:176|331:71|401:-9,1,315.000012016297
448,232,82034,1,4,0:0:0:0:
248,80,82194,1,4,0:0:0:0:
312,384,82354,5,10,0:0:0:0:
