osu file format v14

[General]
AudioFilename: audio.mp3
AudioLeadIn: 0
PreviewTime: 57394
Countdown: 0
SampleSet: None
StackLeniency: 0.5
Mode: 0
LetterboxInBreaks: 0
WidescreenStoryboard: 0

[Editor]
Bookmarks: 10354,10674,10994,11314,13874,18994,24114,31794,33714,34354,34994,36914,37234,39154,44594,47154,47474,49394,52274,54834,55314,55794,56114,56594,62034,66354,67634,76594,77874,80114,82354
DistanceSpacing: 1.1
BeatDivisor: 2
GridSize: 4
TimelineZoom: 2.2

[Metadata]
Title:Genkai Toppa x Survivor (TV Size)
TitleUnicode:限界突破×サバイバー
Artist:Kiyoshi Hikawa
ArtistUnicode:氷川きよし
Creator:-NeBu-
Version:Insane
Source:Dragon Ball Super
Tags:dragon ball super dbs toei animation anime opening two limit break x survivor dbz db db gt
BeatmapID:1407658
BeatmapSetID:571304

[Difficulty]
HPDrainRate:5.5
CircleSize:4
OverallDifficulty:7.5
ApproachRate:9
SliderMultiplier:1.7
SliderTickRate:1

[Events]
//Background and Video events
Video,0,"Dragon Ball Super - OPENING 2 (1080p FULL HD).mp4"
0,0,"dbswall.jpg",0,0
//Break Periods
//Storyboard Layer 0 (Background)
//Storyboard Layer 1 (Fail)
//Storyboard Layer 2 (Pass)
//Storyboard Layer 3 (Foreground)
//Storyboard Sound Samples

[TimingPoints]
-206,320,4,3,1,45,1,0
5394,-80,4,3,1,45,0,0
5874,-100,4,3,1,45,0,0
6194,-100,4,3,1,60,0,0
34354,-86.9565217391304,4,3,1,60,0,0
34594,-86.9565217391304,4,3,1,5,0,0
34674,-86.9565217391304,4,3,1,60,0,0
34994,-100,4,3,1,60,0,0
36914,-100,4,3,1,60,0,0
37234,-100,4,3,1,60,0,0
44914,-100,4,3,1,60,0,0
45234,-100,4,3,1,60,0,0
46274,-100,4,3,1,5,0,0
46354,-100,4,3,1,60,0,0
47154,-100,4,3,1,60,0,0
47474,-100,4,3,1,60,0,0
57394,-80,4,3,1,70,0,1
67634,-80,4,3,1,70,0,1
67874,-80,4,3,1,5,0,1
67954,-80,4,3,1,70,0,1
80434,-100,4,3,1,45,0,0
81554,-100,4,3,1,60,0,0
82354,-100,4,3,1,60,0,0

[Colours]
Combo1 : 207,207,207
Combo2 : 255,198,255
Combo3 : 112,181,218
Combo4 : 255,26,26
SliderTrackOverride : 35,20,80

[HitObjects]
136,236,594,6,0,L|220:228,2,85,0|0|0,0:0|0:0|0:0,0:0:0:0:
221,228,1074,5,8,0:0:0:0:
333,268,1234,1,8,0:0:0:0:
298,181,1714,5,8,0:0:0:0:
405,130,1874,1,8,0:0:0:0:
221,134,2354,5,8,0:0:0:0:
260,22,2514,1,8,0:0:0:0:
173,205,2834,2,0,P|287:185|305:119,1,170
221,134,3634,5,8,0:0:0:0:
114,83,3794,1,8,0:0:0:0:
304,145,4274,5,8,0:0:0:0:
411,94,4434,1,8,0:0:0:0:
173,205,4914,5,0,0:0:0:0:
122,312,5074,2,0,L|73:318,3,42.5,0|0|0|0,0:0|0:0|0:0|0:0,0:0:0:0:
153,326,5394,2,0,B|343:240|269:372|473:308|473:308,1,318.75,0|0,0:0|0:0,0:0:0:0:
340,116,6194,5,8,0:0:0:0:
264,228,6354,1,0,0:0:0:0:
392,180,6514,2,0,P|419:136|416:92,1,85,0|0,0:0|0:0,0:0:0:0:
264,228,6834,2,0,P|237:272|240:316,1,85,0|0,0:0|0:0,0:0:0:0:
372,316,7154,1,0,0:0:0:0:
392,180,7314,2,4,P|325:161|263:237,1,170,0|0,0:0|0:0,0:0:0:0:
236,304,7794,6,8,P|193:313|154:293,1,85
144,152,8114,1,0,0:0:0:0:
268,84,8274,1,0,0:0:0:0:
263,228,8434,1,0,0:0:0:0:
408,116,8594,2,4,P|475:160|467:241,1,170,0|0,0:0|0:0,0:0:0:0:
400,292,9074,6,8,L|312:308,1,85
232,192,9394,1,0,0:0:0:0:
164,312,9554,1,0,0:0:0:0:
84,200,9714,1,4,0:0:0:0:
232,192,9874,2,4,P|268:128|224:48,1,170,0|0,0:0|0:0,0:0:0:0:
84,200,10354,5,8,0:0:0:0:
187,345,10514,1,8,0:0:0:0:
85,161,10674,5,8,0:0:0:0:
161,322,10834,1,8,0:0:0:0:
93,122,10994,5,8,0:0:0:0:
141,294,11154,1,8,0:0:0:0:
232,192,11314,6,4,B|320:177|320:177|404:216,1,170,0|0,0:0|0:0,0:0:0:0:
406,289,11954,6,8,P|462:249|438:149,1,170,0|0,0:0|0:0,0:0:0:0:
397,99,12434,2,0,L|213:83,1,170,0|0,0:0|0:0,0:0:0:0:
228,84,13074,1,8,0:0:0:0:
144,106,13234,2,0,B|100:194|164:181|136:271,1,170,8|4,0:0|0:0,0:0:0:0:
289,316,13874,6,8,P|329:323|381:308,1,85
218,267,14194,2,0,P|178:260|126:275,1,85,0|0,0:0|0:0,0:0:0:0:
329,244,14514,2,8,P|341:184|272:108,1,170,0|0,0:0|0:0,0:0:0:0:
208,52,14994,2,8,B|79:30|79:30|107:60,1,170,0|0,0:0|0:0,0:0:0:0:
168,156,15474,1,0,0:0:0:0:
273,108,15634,1,0,0:0:0:0:
372,172,15794,2,6,L|404:348,1,170
402,339,16274,1,0,0:0:0:0:
302,312,16434,6,8,L|218:324,1,85
133,312,16754,2,0,L|217:324,1,85,0|0,0:0|0:0,0:0:0:0:
220,240,17074,2,8,B|242:135|242:135|208:76,1,170,0|0,0:0|0:0,0:0:0:0:
69,146,17554,2,8,L|161:162,1,85,0|0,0:0|0:0,0:0:0:0:
294,66,17874,2,0,L|210:80,1,85,0|0,0:0|0:0,0:0:0:0:
152,160,18194,1,8,0:0:0:0:
220,240,18354,2,2,P|296:244|328:164,1,170,2|10,0:0|0:0,0:0:0:0:
405,80,18834,1,8,0:0:0:0:
446,190,18994,6,0,L|466:278,1,85,8|8,0:0|0:0,0:0:0:0:
308,324,19314,1,0,0:0:0:0:
344,176,19474,1,0,0:0:0:0:
388,329,19634,6,0,P|348:338|304:321,1,85,8|8,0:0|0:0,0:0:0:0:
196,216,19954,1,0,0:0:0:0:
232,364,20114,1,0,0:0:0:0:
100,288,20274,6,0,P|77:249|76:203,1,85,8|0,0:0|0:0,0:0:0:0:
148,76,20594,1,0,0:0:0:0:
296,116,20754,1,0,0:0:0:0:
196,216,20914,5,8,0:0:0:0:
196,216,21074,1,0,0:0:0:0:
340,264,21234,1,0,0:0:0:0:
340,264,21394,1,0,0:0:0:0:
296,116,21554,6,0,L|312:32,1,85,8|8,0:0|0:0,0:0:0:0:
359,181,21874,1,0,0:0:0:0:
340,264,22034,1,0,0:0:0:0:
295,115,22194,2,0,P|253:116|216:135,1,85,8|8,0:0|0:0,0:0:0:0:
340,264,22514,2,0,P|382:263|419:243,1,85
215,135,22834,2,0,P|195:191|265:277,1,170,8|0,0:0|0:0,0:0:0:0:
254,274,23314,1,0,0:0:0:0:
292,144,23474,5,8,0:0:0:0:
340,264,23634,1,0,0:0:0:0:
420,164,23794,1,0,0:0:0:0:
292,144,23954,1,0,0:0:0:0:
191,222,24114,6,0,B|180:266|180:266|189:304,1,85,8|8,0:0|0:0,0:0:0:0:
292,144,24434,2,0,B|303:100|303:100|292:56,1,85,0|0,0:0|0:0,0:0:0:0:
340,264,24754,2,0,B|428:235|411:301|509:260,1,170,0|0,0:0|0:0,0:0:0:0:
455,194,25234,2,8,B|471:94|471:94|443:22,1,170,0|0,0:0|0:0,0:0:0:0:
293,61,25714,1,0,0:0:0:0:
140,40,25874,1,0,0:0:0:0:
196,184,26034,2,10,P|200:246|123:315,1,170
125,314,26674,6,8,L|213:332,1,85,0|0,0:0|0:0,0:0:0:0:
404,256,26994,2,0,L|316:274,1,85,0|0,0:0|0:0,0:0:0:0:
459,315,27314,2,0,P|483:247|419:175,1,170,0|0,0:0|0:0,0:0:0:0:
352,152,27794,2,0,B|321:42|321:42|368:72,1,170,0|0,0:0|0:0,0:0:0:0:
292,216,28274,1,0,0:0:0:0:
200,84,28434,1,0,0:0:0:0:
128,228,28594,2,2,P|118:305|201:338,1,170,10|2,0:0|0:0,0:0:0:0:
260,238,29074,1,0,0:0:0:0:
323,354,29234,6,0,L|415:340,1,85,8|8,0:0|0:0,0:0:0:0:
456,148,29554,1,0,0:0:0:0:
335,250,29714,1,0,0:0:0:0:
480,300,29874,6,0,P|494:261|476:216,1,85,8|8,0:0|0:0,0:0:0:0:
340,128,30194,1,0,0:0:0:0:
220,248,30354,1,0,0:0:0:0:
384,212,30514,6,8,L|368:124,1,85
208,72,30834,1,0,0:0:0:0:
220,248,30994,1,0,0:0:0:0:
68,172,31154,6,8,P|68:130|99:95,1,85
224,160,31474,1,0,0:0:0:0:
308,44,31634,1,0,0:0:0:0:
196,172,31794,6,8,L|188:256,1,85
316,128,32114,2,0,L|308:44,1,85
187,256,32434,2,0,L|179:340,1,85
316,128,32754,2,0,L|308:44,1,85,0|0,0:0|0:0,0:0:0:0:
250,209,33074,2,0,P|199:178|111:234,1,170,0|0,0:0|0:0,0:0:0:0:
272,292,33554,1,0,0:0:0:0:
362,192,33714,2,0,P|393:141|337:53,1,170
341,54,34194,1,0,0:0:0:0:
268,32,34354,6,2,P|197:30|148:136,1,195.500003728867
236,328,34994,5,2,0:0:0:0:
284,344,35314,1,2,0:0:0:0:
332,328,35634,1,2,0:0:0:0:
352,280,35954,1,2,0:0:0:0:
336,232,36274,1,2,0:0:0:0:
292,204,36594,1,2,0:0:0:0:
244,216,36914,2,10,P|180:220|136:132,1,170,2|2,0:0|0:0,0:0:0:0:
247,70,37554,5,2,0:0:0:0:
283,34,37874,1,2,0:0:0:0:
334,30,38194,1,2,0:0:0:0:
375,63,38514,1,2,0:0:0:0:
378,113,38834,1,2,0:0:0:0:
351,155,39154,5,8,0:0:0:0:
348,176,39234,1,0,0:0:0:0:
345,197,39314,1,0,0:0:0:0:
342,218,39394,1,0,0:0:0:0:
339,240,39474,6,0,L|307:318,1,85,8|0,0:0|0:0,0:0:0:0:
231,347,39794,2,0,L|199:268,1,85,0|0,0:0|0:0,0:0:0:0:
244,132,40114,1,0,0:0:0:0:
104,100,40274,2,0,P|76:177|135:239,1,170,0|0,0:0|0:0,0:0:0:0:
244,132,40754,1,8,0:0:0:0:
368,60,40914,1,0,0:0:0:0:
224,44,41074,2,0,L|136:36,1,85,0|0,0:0|0:0,0:0:0:0:
244,132,41394,1,0,0:0:0:0:
368,60,41554,2,0,B|396:140|396:140|368:220,1,170,0|0,0:0|0:0,0:0:0:0:
272,328,42034,6,10,P|188:348|132:296,1,170,2|2,0:0|0:0,0:0:0:0:
76,232,42514,2,10,B|62:122|62:122|100:72,1,170,2|2,0:0|0:0,0:0:0:0:
176,112,42994,2,8,L|260:124,1,85
324,68,43314,6,10,P|408:85|437:156,1,170,2|2,0:0|0:0,0:0:0:0:
459,236,43794,2,2,B|419:350|419:350|396:300,1,170,10|2,0:3|0:0,0:0:0:0:
320,268,44274,2,8,L|224:280,1,85
108,292,44594,6,10,P|57:229|83:144,1,170,2|2,0:0|0:0,0:0:0:0:
188,56,45234,6,0,L|280:48,1,85,8|8,0:0|0:0,0:0:0:0:
340,100,45554,1,0,0:0:0:0:
324,184,45714,1,0,0:0:0:0:
376,252,45874,1,0,0:0:0:0:
324,184,46034,2,0,P|267:183|231:241,1,127.5,0|0,0:0|0:0,0:0:0:0:
200,268,46354,2,0,L|4:288,1,170,0|0,0:0|0:0,0:0:0:0:
72,204,46834,2,0,L|156:196,1,85,0|0,0:0|0:0,0:0:0:0:
216,99,47154,6,10,B|280:91|280:91|309:102|309:102|385:92,1,170
456,184,47794,6,0,P|467:226|456:268,1,85
396,324,48114,2,0,L|312:332,1,85,0|0,0:0|0:0,0:0:0:0:
176,204,48434,1,8,0:0:0:0:
232,348,48594,1,0,0:0:0:0:
340,240,48754,1,8,0:0:0:0:
228,136,48914,2,0,P|142:126|92:192,1,170
122,267,49394,1,0,0:0:0:0:
148,280,49474,1,0,0:0:0:0:
180,284,49554,1,8,0:0:0:0:
212,272,49634,1,0,0:0:0:0:
236,248,49714,5,8,0:0:0:0:
416,358,49874,1,0,0:0:0:0:
316,152,50034,1,0,0:0:0:0:
471,241,50194,2,8,P|423:127|311:157,1,255,0|0,0:0|0:0,0:0:0:0:
108,248,50994,5,8,0:0:0:0:
251,108,51154,1,0,0:0:0:0:
254,338,51314,1,8,0:0:0:0:
120,156,51474,2,0,B|148:103|119:40|119:40|191:64|254:18,1,255,0|0,0:0|0:0,0:0:0:0:
396,48,52274,6,0,L|412:136,1,85,8|0,0:0|0:0,0:0:0:0:
364,276,52594,1,0,0:0:0:0:
212,296,52754,2,0,P|173:283|144:239,1,85,8|0,0:0|0:0,0:0:0:0:
264,152,53074,1,0,0:0:0:0:
396,48,53234,6,0,L|412:136,1,85,8|0,0:0|0:0,0:0:0:0:
364,276,53554,1,0,0:0:0:0:
264,152,53714,2,0,L|248:68,1,85,8|0,0:0|0:0,0:0:0:0:
364,276,54034,1,0,0:0:0:0:
212,296,54194,2,0,B|116:339|135:276|47:321,1,170,8|8,0:0|0:0,0:0:0:0:
136,143,54834,6,0,B|228:118|228:118|263:125|263:125|290:101|290:101|383:76,1,255,8|4,0:0|0:0,0:0:0:0:
136,143,55794,5,2,0:0:0:0:
375,78,56114,1,2,0:0:0:0:
233,259,56594,5,0,0:0:0:0:
268,176,56754,1,0,0:0:0:0:
208,112,56914,2,0,P|126:113|88:192,1,170,0|0,0:0|0:0,0:0:0:0:
233,259,57394,5,8,0:0:0:0:
368,108,57554,1,0,0:0:0:0:
412,304,57714,2,0,P|456:279|474:224,1,106.25,0|0,0:0|0:0,0:0:0:0:
412,36,58034,1,8,0:0:0:0:
336,224,58194,1,0,0:0:0:0:
504,112,58354,1,0,0:0:0:0:
312,44,58514,2,0,P|228:28|168:128,1,212.5
124,190,58994,2,0,L|132:302,2,106.25
328,344,59474,5,8,0:0:0:0:
236,164,59634,1,0,0:0:0:0:
216,364,59794,1,8,0:0:0:0:
364,228,59954,6,8,L|476:212,1,106.25,0|0,0:0|0:0,0:0:0:0:
236,164,60274,2,0,L|130:148,1,106.25,0|0,0:0|0:0,0:0:0:0:
32,328,60594,1,8,0:0:0:0:
12,128,60754,1,0,0:0:0:0:
160,264,60914,1,8,0:0:0:0:
208,68,61074,2,0,B|253:56|253:56|304:72|304:72|360:42|416:69,1,212.5,0|0,0:0|0:0,0:0:0:0:
459,131,61554,2,0,B|471:183|471:183|451:239,2,106.25
316,276,62034,5,0,0:0:0:0:
260,108,62194,1,0,0:0:0:0:
376,204,62354,1,0,0:0:0:0:
178,152,62514,2,8,B|223:266|148:233|203:358,1,212.5,0|0,0:0|0:0,0:0:0:0:
264,284,62994,2,8,L|376:300,1,106.25,0|0,0:0|0:0,0:0:0:0:
428,224,63314,5,0,0:0:0:0:
420,128,63474,1,2,0:0:0:0:
344,72,63634,1,2,0:0:0:0:
248,76,63794,2,0,B|141:100|141:100|36:60,1,212.5,10|0,0:0|0:0,0:0:0:0:
344,72,64274,2,2,P|346:127|315:167,1,106.25
208,208,64594,5,0,0:0:0:0:
148,24,64754,1,2,0:0:0:0:
344,72,64914,1,2,0:0:0:0:
208,208,65074,6,0,P|154:223|104:208,1,106.25,10|0,0:0|0:0,0:0:0:0:
343,71,65394,2,0,P|394:57|445:73,1,106.25,8|0,0:0|0:0,0:0:0:0:
76,138,65714,2,0,L|64:30,1,106.25,8|0,0:0|0:0,0:0:0:0:
295,135,66034,2,0,L|283:240,1,106.25,8|0,0:0|0:0,0:0:0:0:
332,308,66354,2,0,L|440:324,1,106.25
251,319,66674,2,0,L|143:335,1,106.25,4|0,0:0|0:0,0:0:0:0:
69,277,66994,1,0,0:0:0:0:
44,164,67154,1,0,0:0:0:0:
156,204,67314,1,2,0:0:0:0:
136,88,67474,1,2,0:0:0:0:
252,76,67634,6,8,P|319:101|334:186,1,159.375,0|0,0:0|0:0,0:0:0:0:
283,239,67954,2,0,L|299:347,1,106.25,0|0,0:0|0:0,0:0:0:0:
116,288,68274,1,8,0:0:0:0:
256,156,68434,1,0,0:0:0:0:
200,340,68594,1,8,0:0:0:0:
52,220,68754,2,0,P|74:117|177:103,1,212.5,0|0,0:0|0:0,0:0:0:0:
240,75,69234,2,0,L|345:85,2,106.25
396,273,69714,5,8,0:0:0:0:
346,86,69874,1,0,0:0:0:0:
396,273,70034,1,8,0:0:0:0:
346,86,70194,6,8,P|294:71|237:98,1,106.25,0|0,0:0|0:0,0:0:0:0:
396,273,70514,2,0,P|448:288|505:261,1,106.25,0|0,0:0|0:0,0:0:0:0:
320,188,70834,1,8,0:0:0:0:
228,356,70994,1,0,0:0:0:0:
192,168,71154,1,0,0:0:0:0:
76,312,71314,2,0,B|31:193|100:226|64:96,1,212.5,0|0,0:0|0:0,0:0:0:0:
133,49,71794,2,0,B|182:36|182:36|234:54,2,106.25
384,40,72274,5,0,0:0:0:0:
404,156,72434,1,8,0:0:0:0:
424,272,72594,1,0,0:0:0:0:
316,232,72754,2,8,B|174:206|174:206|100:244,1,212.5,0|0,0:0|0:0,0:0:0:0:
44,196,73234,2,10,L|32:84,1,106.25,2|2,0:0|0:0,0:0:0:0:
135,132,73554,5,0,0:0:0:0:
44,196,73714,1,2,0:0:0:0:
32,90,73874,1,2,0:0:0:0:
135,132,74034,2,0,B|276:112|276:112|363:144,1,212.5,10|0,0:0|0:0,0:0:0:0:
396,200,74514,2,10,L|408:312,1,106.25,2|2,0:0|0:0,0:0:0:0:
328,336,74834,1,0,0:0:0:0:
248,312,74994,1,2,0:0:0:0:
224,232,75154,1,2,0:0:0:0:
248,152,75314,6,0,L|364:136,1,106.25,8|0,0:0|0:0,0:0:0:0:
288,72,75634,2,0,L|172:56,1,106.25,8|0,0:0|0:0,0:0:0:0:
353,137,75954,2,0,L|469:121,1,106.25,8|0,0:0|0:0,0:0:0:0:
182,57,76274,2,0,L|66:41,1,106.25,8|0,0:0|0:0,0:0:0:0:
353,137,76594,5,8,0:0:0:0:
384,340,76754,1,8,0:0:0:0:
312,248,76914,1,8,0:0:0:0:
428,228,77074,1,8,0:0:0:0:
268,356,77234,2,0,L|160:348,2,106.25
312,248,77714,1,0,0:0:0:0:
186,108,77874,6,0,L|298:120,1,106.25,0|4,0:0|0:0,0:0:0:0:
436,164,78194,1,4,0:0:0:0:
272,212,78354,2,0,P|255:255|272:316,1,106.25,8|0,0:0|0:0,0:0:0:0:
440,320,78674,1,0,0:0:0:0:
344,136,78834,1,4,0:0:0:0:
344,136,78994,1,4,0:0:0:0:
272,212,79154,6,0,P|215:213|173:176,1,106.25,8|0,0:0|0:0,0:0:0:0:
60,60,79474,1,0,0:0:0:0:
16,224,79634,2,0,B|86:273|68:353|68:353|156:305|229:365,1,318.75,8|8,0:0|0:0,0:0:0:0:
324,308,80434,5,0,0:0:0:0:
339,138,80754,2,8,L|323:314,1,170,0|0,0:0|0:0,0:0:0:0:
339,138,81394,1,0,0:0:0:0:
323,307,81554,6,0,P|403:331|459:271,1,170,4|4,0:0|0:0,0:0:0:0:
420,188,82034,1,4,0:0:0:0:
339,138,82194,1,4,0:0:0:0:
248,164,82354,1,10,0:0:0:0:
