osu file format v14

[General]
AudioFilename: audio.mp3
AudioLeadIn: 0
PreviewTime: 57394
Countdown: 0
SampleSet: None
StackLeniency: 0.6
Mode: 0
LetterboxInBreaks: 0
WidescreenStoryboard: 0

[Editor]
Bookmarks: 10354,10674,10994,11314,13874,18994,24114,31794,34354,34994,36914,37234,39154,44594,47154,47474,49394,52274,54834,55314,55794,56114,56594,58514,59154,61714,62034,66354,67634,76594,77874,80114,82354
DistanceSpacing: 1.1
BeatDivisor: 4
GridSize: 4
TimelineZoom: 2.2

[Metadata]
Title:Genkai Toppa x Survivor (TV Size)
TitleUnicode:限界突破×サバイバー
Artist:Kiyoshi Hikawa
ArtistUnicode:氷川きよし
Creator:-NeBu-
Version:Hard
Source:Dragon Ball Super
Tags:dragon ball super dbs toei animation anime opening two limit break x survivor dbz db db gt
BeatmapID:1407657
BeatmapSetID:571304

[Difficulty]
HPDrainRate:5
CircleSize:3.7
OverallDifficulty:7
ApproachRate:7.5
SliderMultiplier:1.4
SliderTickRate:2

[Events]
//Background and Video events
Video,0,"Dragon Ball Super - OPENING 2 (1080p FULL HD).mp4"
0,0,"dbswall.jpg",0,0
//Break Periods
2,11514,13049
//Storyboard Layer 0 (Background)
//Storyboard Layer 1 (Fail)
//Storyboard Layer 2 (Pass)
//Storyboard Layer 3 (Foreground)
//Storyboard Sound Samples

[TimingPoints]
-206,320,4,3,1,45,1,0
5394,-100,4,3,1,45,0,0
5874,-100,4,3,1,45,0,0
6194,-100,4,3,1,60,0,0
23394,-100,4,3,1,5,0,0
23474,-100,4,3,1,60,0,0
31074,-100,4,3,1,5,0,0
31154,-100,4,3,1,60,0,0
33634,-100,4,3,1,5,0,0
33714,-100,4,3,1,60,0,0
34354,-100,4,3,1,60,0,0
34994,-100,4,3,1,60,0,0
36914,-100,4,3,1,60,0,0
37234,-100,4,3,1,60,0,0
44914,-100,4,3,1,60,0,0
45234,-100,4,3,1,60,0,0
47154,-100,4,3,1,60,0,0
47474,-100,4,3,1,60,0,0
57394,-100,4,3,1,70,0,1
80434,-100,4,3,1,45,0,0
81554,-100,4,3,1,60,0,0
82354,-100,4,3,1,60,0,0

[Colours]
Combo1 : 207,207,207
Combo2 : 255,198,255
Combo3 : 112,181,218
Combo4 : 255,26,26
SliderTrackOverride : 35,20,80

[HitObjects]
156,104,1074,5,8,0:0:0:0:
156,104,1234,1,8,0:0:0:0:
72,320,1714,1,8,0:0:0:0:
72,320,1874,1,8,0:0:0:0:
300,284,2354,1,8,0:0:0:0:
300,284,2514,1,8,0:0:0:0:
332,132,2834,2,0,P|399:124|448:172,1,140
324,368,3634,5,8,0:0:0:0:
324,368,3794,1,8,0:0:0:0:
172,196,4274,1,8,0:0:0:0:
172,196,4434,1,8,0:0:0:0:
392,132,4914,1,8,0:0:0:0:
392,132,5074,1,8,0:0:0:0:
102,111,5394,2,2,L|311:99,1,210
373,49,6194,6,4,P|389:79|386:127,1,70,0|0,0:0|0:0,0:0:0:0:
336,172,6514,2,0,P|320:202|323:250,1,70,0|0,0:0|0:0,0:0:0:0:
352,308,6834,1,8,0:0:0:0:
280,332,6994,1,0,0:0:0:0:
208,300,7154,1,8,0:0:0:0:
84,316,7314,6,4,B|64:228|64:228|88:176,1,140,0|0,0:0|0:0,0:0:0:0:
148,136,7794,2,0,L|160:60,1,70
228,32,8114,1,8,3:0:0:0:
304,32,8274,1,0,3:0:0:0:
372,72,8434,1,8,3:0:0:0:
454,165,8594,6,4,P|475:229|432:287,1,140,0|0,0:0|0:0,0:0:0:0:
364,301,9074,2,0,L|288:297,1,70
220,316,9394,1,8,0:0:0:0:
152,284,9554,1,0,0:0:0:0:
80,312,9714,1,0,0:0:0:0:
84,236,9874,2,4,L|100:96,1,140,0|0,0:0|0:0,0:0:0:0:
166,19,10354,5,8,0:0:0:0:
166,19,10514,1,0,0:0:0:0:
242,85,10674,1,8,0:0:0:0:
242,85,10834,1,0,0:0:0:0:
176,162,10994,1,8,0:0:0:0:
176,162,11154,1,0,0:0:0:0:
99,96,11314,5,0,0:0:0:0:
456,36,13874,6,8,B|473:108|473:108,1,70,0|0,0:0|0:0,0:0:0:0:
408,148,14194,2,8,B|391:220|391:220,1,70,0|0,0:0|0:0,0:0:0:0:
392,292,14514,1,0,0:0:0:0:
320,324,14674,1,0,0:0:0:0:
260,276,14834,1,0,0:0:0:0:
248,200,14994,2,8,P|183:179|125:215,1,140,0|0,0:0|0:0,0:0:0:0:
56,360,15634,1,0,0:0:0:0:
16,284,15794,2,2,B|0:188|0:188|24:148,1,140
100,284,16434,6,0,P|156:308|224:272,1,140,8|0,0:0|0:0,0:0:0:0:
200,200,16914,1,0,0:0:0:0:
244,136,17074,2,8,P|275:122|315:129,1,70,0|0,0:0|0:0,0:0:0:0:
376,164,17394,1,0,0:0:0:0:
416,232,17554,2,0,P|405:298|341:321,1,140
252,196,18194,1,0,0:0:0:0:
252,120,18354,2,2,P|196:80|124:83,1,140,2|10,0:0|0:0,0:0:0:0:
164,186,18994,6,0,P|144:258|192:306,1,140
244,348,19474,1,0,0:0:0:0:
316,316,19634,2,0,B|384:300|384:300|456:320,1,140
476,244,20114,1,0,0:0:0:0:
412,192,20274,6,0,P|399:160|404:121,1,70
392,48,20594,2,0,P|356:33|313:41,1,70
248,32,20914,2,0,B|108:52,1,140,8|0,0:0|0:0,0:0:0:0:
52,196,21554,6,0,P|120:172|181:204,1,140,8|8,0:0|0:0,0:0:0:0:
252,228,22034,1,0,0:0:0:0:
292,160,22194,2,0,P|357:126|421:154,1,140,8|8,0:0|0:0,0:0:0:0:
464,208,22674,1,0,0:0:0:0:
468,284,22834,2,0,P|432:302|400:297,1,70
328,308,23154,2,0,P|306:280|301:247,1,70
332,172,23474,2,0,B|224:137|243:210|126:165,1,210,8|0,0:0|0:0,0:0:0:0:
52,152,24114,6,8,P|53:117|72:81,1,70,0|0,0:0|0:0,0:0:0:0:
136,52,24434,2,0,P|170:41|209:49,1,70
272,84,24754,1,0,0:0:0:0:
348,92,24914,1,0,0:0:0:0:
408,44,25074,1,0,0:0:0:0:
460,100,25234,2,8,P|492:152|472:224,1,140,0|0,0:0|0:0,0:0:0:0:
260,192,25874,1,0,0:0:0:0:
184,60,26034,2,2,B|119:83|119:83|82:150,1,140
96,284,26674,6,8,P|128:296|168:281,1,70,0|0,0:0|0:0,0:0:0:0:
236,296,26994,2,0,L|316:280,1,70
380,280,27314,1,0,0:0:0:0:
452,248,27474,1,0,0:0:0:0:
464,168,27634,1,0,0:0:0:0:
436,96,27794,2,0,L|296:64,1,140
228,92,28274,1,0,0:0:0:0:
172,40,28434,1,0,0:0:0:0:
100,72,28594,2,2,P|76:140|120:200,1,140,10|2,0:0|0:0,0:0:0:0:
240,260,29234,6,0,L|316:248,2,70,8|8|8,0:0|0:0|0:0,0:0:0:0:
188,316,29714,1,0,0:0:0:0:
136,260,29874,2,0,L|60:248,2,70,8|8|8,0:0|0:0|0:0,0:0:0:0:
188,316,30354,1,0,0:0:0:0:
240,260,30514,6,0,P|258:201|377:266,1,245,8|0,0:0|0:0,0:0:0:0:
412,284,31154,2,0,B|448:148|448:148|420:84,1,210,0|8,0:0|0:0,0:0:0:0:
304,44,31794,6,8,L|224:36,2,70
348,108,32274,1,8,0:0:0:0:
304,172,32434,2,8,L|224:180,2,70
348,108,32914,1,0,0:0:0:0:
304,44,33074,6,0,B|133:28|133:28|60:60,1,245
48,92,33714,2,0,B|7:207|82:174|42:299,1,210,8|8,0:0|0:0,0:0:0:0:
112,332,34354,5,0,0:0:0:0:
264,364,34674,1,0,0:0:0:0:
388,280,34994,6,0,P|405:215|384:147,1,140,2|2,0:0|0:0,0:0:0:0:
325,216,35634,2,0,P|291:158|228:124,1,140,2|2,0:0|0:0,0:0:0:0:
233,217,36274,2,0,P|168:200|100:221,1,140,2|2,0:0|0:0,0:0:0:0:
176,356,36914,5,0,0:0:0:0:
233,217,37234,1,0,0:0:0:0:
316,88,37554,6,0,L|456:72,1,140,2|2,0:0|0:0,0:0:0:0:
444,156,38194,2,0,L|304:172,1,140,2|2,0:0|0:0,0:0:0:0:
233,217,38834,1,10,0:0:0:0:
156,184,39154,2,0,L|112:176,2,35,8|0|0,0:0|0:0|0:0,0:0:0:0:
233,217,39474,6,0,B|252:304|252:304|224:360,1,140,8|0,0:0|0:0,0:0:0:0:
80,308,40114,1,0,0:0:0:0:
63,234,40274,2,0,P|47:146|83:106,1,140,0|0,0:0|0:0,0:0:0:0:
136,64,40754,6,0,L|276:48,1,140,8|8,0:0|0:0,0:0:0:0:
416,112,41394,1,0,0:0:0:0:
416,112,41554,2,0,B|436:200|436:200|416:248,1,140,0|0,0:0|0:0,0:0:0:0:
356,292,42034,6,0,P|312:304|252:240,1,140,8|8,0:0|0:0,0:0:0:0:
244,164,42514,2,8,P|206:108|140:114,1,140,0|0,0:0|0:0,0:0:0:0:
92,176,42994,2,0,L|80:248,1,70,0|0,0:0|0:0,0:0:0:0:
140,114,43314,6,0,P|206:108|244:164,1,140,8|8,0:0|0:0,0:0:0:0:
252,242,43794,2,0,P|289:297|356:292,1,140,8|0,0:3|0:0,0:0:0:0:
408,232,44274,2,0,L|420:160,1,70
368,92,44594,1,0,0:0:0:0:
228,24,44914,1,0,0:0:0:0:
88,84,45234,6,8,P|52:141|76:204,1,140,0|0,0:0|0:0,0:0:0:0:
152,228,45714,1,0,0:0:0:0:
200,288,45873,2,0,L|269:284,1,70,0|0,0:0|0:0,0:0:0:0:
412,348,46354,2,0,B|444:260|444:260|430:190|430:190|471:65,1,280
384,40,47154,1,0,0:0:0:0:
236,4,47474,1,0,0:0:0:0:
92,44,47794,6,8,P|62:104|96:168,1,140,0|0,0:0|0:0,0:0:0:0:
48,316,48434,1,8,0:0:0:0:
120,348,48594,1,0,0:0:0:0:
268,308,48914,2,2,B|370:338|370:338|472:304,1,210
512,236,49554,1,0,0:0:0:0:
480,164,49714,6,8,P|472:128|447:106,1,70,0|0,0:0|0:0,0:0:0:0:
316,64,50194,2,0,B|169:36|169:36|84:52,1,210,8|8,0:0|0:0,0:0:0:0:
80,200,50994,2,0,P|112:214|152:196,1,70,8|0,0:0|0:0,0:0:0:0:
212,168,51314,1,0,0:0:0:0:
284,192,51474,2,8,P|304:232|188:248,1,210
140,84,52274,6,0,L|220:80,1,70,8|0,0:0|0:0,0:0:0:0:
280,112,52594,1,0,0:0:0:0:
352,80,52754,2,0,P|410:113|409:182,1,140,8|0,0:0|0:0,0:0:0:0:
416,256,53234,2,0,L|432:332,1,70,8|0,0:0|0:0,0:0:0:0:
356,348,53554,1,0,0:0:0:0:
284,320,53714,2,0,B|206:291|230:339|144:312,1,140,8|0,0:0|0:0,0:0:0:0:
108,248,54194,2,0,L|92:108,1,140,8|8,0:0|0:0,0:0:0:0:
144,52,54674,1,0,0:0:0:0:
220,32,54834,6,0,P|289:18|357:42,1,140,8|4,0:0|0:0,0:0:0:0:
424,68,55314,2,0,P|438:135|416:201,1,140,8|4,0:0|0:0,0:0:0:0:
404,280,55794,1,2,0:0:0:0:
404,280,56114,1,2,0:0:0:0:
286,307,56594,6,8,L|216:295,1,70,0|0,0:0|0:0,0:0:0:0:
139,304,56913,1,8,0:0:0:0:
80,200,57394,6,0,L|68:128,1,70,8|8,0:0|0:0,0:0:0:0:
128,80,57714,1,0,0:0:0:0:
204,96,57874,1,0,0:0:0:0:
272,60,58034,2,0,B|304:40|344:54,1,70,8|0,0:0|0:0,0:0:0:0:
392,108,58354,1,0,0:0:0:0:
388,184,58514,2,0,B|366:256|419:318|419:318|345:307|289:348,1,280,0|0,0:0|0:0,0:0:0:0:
140,308,59474,5,0,0:0:0:0:
84,252,59634,1,8,0:0:0:0:
68,176,59794,1,0,0:0:0:0:
88,100,59954,2,8,P|144:64|212:92,1,140,0|0,0:0|0:0,0:0:0:0:
272,132,60434,1,0,0:0:0:0:
336,88,60594,2,0,L|408:80,2,70,8|0|0,0:0|0:0|0:0,0:0:0:0:
272,132,61074,2,0,P|240:184|384:276,1,280,0|0,0:0|0:0,0:0:0:0:
272,132,62034,2,0,L|196:116,2,70,2|2|2,0:0|0:0|0:0,0:0:0:0:
344,160,62514,6,8,P|416:157|455:100,1,140,0|0,0:0|0:0,0:0:0:0:
377,87,62994,1,0,0:0:0:0:
236,32,63314,5,0,0:0:0:0:
160,52,63474,1,2,0:0:0:0:
112,112,63634,1,2,0:0:0:0:
84,184,63794,2,0,P|67:253|116:316,1,140,10|0,0:0|0:0,0:0:0:0:
148,238,64274,1,0,0:0:0:0:
280,320,64594,5,0,0:0:0:0:
352,340,64754,1,2,0:0:0:0:
416,300,64914,1,2,0:0:0:0:
436,224,65074,6,0,P|450:192|447:156,1,70,10|0,0:0|0:0,0:0:0:0:
408,92,65394,2,0,P|376:78|340:81,1,70,8|0,0:0|0:0,0:0:0:0:
280,128,65714,2,0,P|245:130|213:116,1,70,8|0,0:0|0:0,0:0:0:0:
148,72,66034,2,0,P|113:69|81:83,1,70,8|0,0:0|0:0,0:0:0:0:
44,148,66354,6,0,B|23:214|23:214|52:292,1,140,4|4,0:0|0:0,0:0:0:0:
108,328,66834,2,0,B|174:352|174:352|240:331,1,140,4|2,0:0|0:0,0:0:0:0:
308,300,67314,1,2,0:0:0:0:
380,324,67474,1,2,0:0:0:0:
424,260,67634,6,8,P|438:226|434:187,1,70,0|0,0:0|0:0,0:0:0:0:
404,124,67954,2,0,P|370:110|331:114,1,70,0|0,0:0|0:0,0:0:0:0:
276,160,68274,1,0,0:0:0:0:
204,184,68434,1,8,0:0:0:0:
136,148,68594,1,0,0:0:0:0:
72,192,68754,2,8,P|70:306|210:322,1,280
364,340,69714,5,8,0:0:0:0:
416,284,69874,1,0,0:0:0:0:
400,208,70034,1,0,0:0:0:0:
340,164,70194,2,8,L|256:148,1,70,0|0,0:0|0:0,0:0:0:0:
204,192,70514,2,0,L|124:200,1,70,0|0,0:0|0:0,0:0:0:0:
92,136,70834,1,8,0:0:0:0:
92,136,70994,1,0,0:0:0:0:
212,40,71314,2,0,B|374:4|305:89|505:27,1,280,0|0,0:0|0:0,0:0:0:0:
440,180,72274,5,0,0:0:0:0:
408,252,72434,1,8,0:0:0:0:
332,264,72594,1,0,0:0:0:0:
276,212,72754,2,8,P|205:178|146:205,1,140,0|0,0:0|0:0,0:0:0:0:
208,261,73234,1,0,0:0:0:0:
56,268,73554,5,0,0:0:0:0:
28,196,73714,1,2,0:0:0:0:
40,120,73874,1,2,0:0:0:0:
88,60,74034,2,0,P|157:43|216:80,1,140,10|0,0:0|0:0,0:0:0:0:
268,132,74514,1,0,0:0:0:0:
416,56,74834,5,0,0:0:0:0:
456,124,74994,1,2,0:0:0:0:
420,192,75154,1,2,0:0:0:0:
344,196,75314,2,0,B|251:222|251:222|209:210,3,140,8|8|8|8,0:0|0:0|0:0|0:0,0:0:0:0:
64,112,76594,6,0,P|45:178|79:237,1,140,8|8,0:0|0:0,0:0:0:0:
140,284,77074,2,0,L|280:300,1,140,8|4,0:0|0:0,0:0:0:0:
348,336,77554,1,4,0:0:0:0:
420,304,77714,1,4,0:0:0:0:
408,228,77874,6,0,L|396:152,1,70,0|4,0:0|0:0,0:0:0:0:
420,84,78194,1,4,0:0:0:0:
360,36,78354,2,0,L|216:28,1,140,8|0,0:0|0:0,0:0:0:0:
148,60,78834,2,0,L|64:64,1,70,4|4,0:0|0:0,0:0:0:0:
44,132,79154,2,0,P|32:193|92:244,1,140,8|0,0:0|0:0,0:0:0:0:
136,300,79634,2,0,B|201:323|201:323|272:312,1,140,8|0,0:0|0:0,0:0:0:0:
328,260,80114,2,8,P|372:244|451:295,1,140,8|0,0:0|0:0,0:0:0:0:
376,327,80754,6,8,L|360:183,1,140,0|0,0:0|0:0,0:0:0:0:
440,56,81394,1,0,0:0:0:0:
368,28,81554,2,12,L|220:36,1,140,8|8,0:0|0:0,0:0:0:0:
156,68,82034,2,0,L|76:56,1,70
16,88,82354,1,8,0:0:0:0:
