osu file format v14

[General]
AudioFilename: audio.mp3
AudioLeadIn: 0
PreviewTime: 57394
Countdown: 0
SampleSet: None
StackLeniency: 0.5
Mode: 0
LetterboxInBreaks: 0
WidescreenStoryboard: 0

[Editor]
Bookmarks: 10354,10674,10994,11314,13874,18994,24114,31794,33714,34354,34994,36914,37234,39154,39394,44594,44834,47154,47474,49394,49634,52274,54834,55314,55794,56114,56594,62034,62434,66354,67634,73634,73954,74914,75234,76594,77874,80114,82354
DistanceSpacing: 1.9
BeatDivisor: 4
GridSize: 4
TimelineZoom: 2.2

[Metadata]
Title:Genkai Toppa x Survivor (TV Size)
TitleUnicode:限界突破×サバイバー
Artist:Kiyoshi Hikawa
ArtistUnicode:氷川きよし
Creator:-NeBu-
Version:Extra
Source:Dragon Ball Super
Tags:dragon ball super dbs toei animation anime opening two limit break x survivor dbz db db gt
BeatmapID:1407656
BeatmapSetID:571304

[Difficulty]
HPDrainRate:6
CircleSize:4
OverallDifficulty:8
ApproachRate:9.2
SliderMultiplier:1.9
SliderTickRate:1

[Events]
//Background and Video events
Video,0,"Dragon Ball Super - OPENING 2 (1080p FULL HD).mp4"
0,0,"dbswall.jpg",0,0
//Break Periods
//Storyboard Layer 0 (Background)
//Storyboard Layer 1 (Fail)
//Storyboard Layer 2 (Pass)
//Storyboard Layer 3 (Foreground)
//Storyboard Sound Samples

[TimingPoints]
-206,320,4,3,1,45,1,0
5394,-76.9230769230769,4,3,1,45,0,0
5874,-100,4,3,1,45,0,0
6194,-100,4,3,1,60,0,0
11314,-200,4,3,1,60,0,0
13874,-100,4,3,1,60,0,0
18914,-100,4,3,1,5,0,0
18994,-100,4,3,1,60,0,0
34354,-66.6666666666667,4,3,1,60,0,0
34994,-100,4,3,1,60,0,0
36914,-66.6666666666667,4,3,1,60,0,0
37234,-100,4,3,1,60,0,0
44834,-100,4,3,1,5,0,0
44914,-66.6666666666667,4,3,1,60,0,0
45234,-100,4,3,1,60,0,0
47154,-66.6666666666667,4,3,1,60,0,0
47474,-100,4,3,1,60,0,0
57394,-80,4,3,1,70,0,1
80434,-100,4,3,1,45,0,0
81554,-66.6666666666667,4,3,1,60,0,0
82354,-100,4,3,1,60,0,0

[Colours]
Combo1 : 207,207,207
Combo2 : 255,198,255
Combo3 : 112,181,218
Combo4 : 255,26,26
SliderTrackOverride : 35,20,80

[HitObjects]
116,88,594,5,0,0:0:0:0:
124,116,754,1,0,0:0:0:0:
132,144,914,1,0,0:0:0:0:
232,176,1074,5,8,0:0:0:0:
184,300,1234,1,8,0:0:0:0:
232,176,1714,5,8,0:0:0:0:
324,332,1874,1,8,0:0:0:0:
232,176,2354,5,8,0:0:0:0:
448,248,2514,1,8,0:0:0:0:
232,176,2834,6,0,B|270:167|306:196|306:196|357:166|412:173,1,190,0|0,0:0|0:0,0:0:0:0:
312,56,3474,1,0,0:0:0:0:
232,176,3634,5,8,0:0:0:0:
204,304,3794,1,8,0:0:0:0:
232,176,4274,5,8,0:0:0:0:
72,256,4434,1,8,0:0:0:0:
232,176,4914,6,0,P|271:152|323:157,1,95,8|8,0:0|0:0,0:0:0:0:
318,155,5154,1,0,0:0:0:0:
318,155,5234,1,0,0:0:0:0:
318,155,5314,1,0,0:0:0:0:
332,168,5394,2,0,B|340:228|390:277|460:288|460:288|401:305|369:342|369:342|331:319|284:333,1,370.499983039857,0|0,0:0|0:0,0:0:0:0:
168,248,6194,6,0,L|152:150,1,95,4|4,0:0|0:0,0:0:0:0:
315,74,6514,2,0,L|334:184,1,95,0|0,0:0|0:0,0:0:0:0:
232,320,6834,1,0,0:0:0:0:
152,154,6994,1,0,0:0:0:0:
312,240,7154,1,0,0:0:0:0:
111,236,7314,6,0,P|63:144|103:75,1,190,4|4,0:0|0:0,0:0:0:0:
188,44,7794,2,0,L|284:36,1,95,0|0,0:0|0:0,0:0:0:0:
340,208,8114,1,0,0:0:0:0:
176,136,8274,1,0,0:0:0:0:
231,303,8434,1,0,0:0:0:0:
407,327,8594,6,0,B|356:300|316:329|316:329|282:293|217:304,1,190,4|4,0:0|0:0,0:0:0:0:
103,271,9074,2,0,L|88:177,1,95,0|0,0:0|0:0,0:0:0:0:
252,104,9394,2,0,L|237:201,1,95,0|0,0:0|0:0,0:0:0:0:
258,225,9634,2,0,L|234:265,2,47.5,8|4|8,0:0|0:0|0:0,0:0:0:0:
290,206,9874,2,0,P|345:266|297:351,1,190,4|4,0:0|0:0,0:0:0:0:
159,219,10354,5,8,0:0:0:0:
206,46,10514,1,8,0:0:0:0:
67,176,10674,5,8,0:0:0:0:
277,96,10834,1,8,0:0:0:0:
62,62,10994,5,8,0:0:0:0:
290,206,11154,1,8,0:0:0:0:
176,18,11314,6,0,L|276:10,1,95,4|4,0:0|0:0,0:0:0:0:
142,92,11954,1,0,0:0:0:0:
269,82,12274,2,0,L|218:86,1,47.5,8|8,0:0|0:0,0:0:0:0:
142,92,12754,1,0,0:0:0:0:
269,82,13074,5,8,0:0:0:0:
221,205,13234,1,8,0:0:0:0:
72,40,13554,5,4,0:0:0:0:
221,205,13874,6,0,L|315:194,2,95,8|8|8,0:0|0:0|0:0,0:0:0:0:
144,264,14354,1,0,0:0:0:0:
56,220,14514,6,0,B|45:166|77:129|77:129|66:82|100:42,1,190,8|8,0:0|0:0,0:0:0:0:
180,12,14994,2,0,L|284:0,1,95,8|0,0:0|0:0,0:0:0:0:
247,116,15314,2,0,L|143:104,1,95,8|0,0:0|0:0,0:0:0:0:
274,1,15634,1,0,0:0:0:0:
336,176,15794,1,0,0:0:0:0:
152,105,15954,5,0,0:0:0:0:
324,100,16114,1,0,0:0:0:0:
244,260,16274,1,0,0:0:0:0:
137,198,16434,6,0,L|152:103,1,95
304,48,16754,1,0,0:0:0:0:
340,224,16914,1,0,0:0:0:0:
376,95,17074,6,0,P|347:56|289:50,1,95,8|8,0:0|0:0,0:0:0:0:
460,196,17394,1,0,0:0:0:0:
303,47,17554,2,0,B|201:36|201:36|127:86,1,190,8|8,0:0|0:0,0:0:0:0:
240,228,18034,5,0,0:0:0:0:
364,96,18194,1,0,0:0:0:0:
192,152,18354,1,0,0:0:0:0:
356,232,18514,1,0,0:0:0:0:
218,77,18674,2,0,P|145:87|113:159,1,142.5,0|0,0:0|0:0,0:0:0:0:
92,176,18994,6,0,P|84:224|109:265,1,95,8|8,0:0|0:0,0:0:0:0:
272,188,19314,1,0,0:0:0:0:
136,68,19474,1,0,0:0:0:0:
232,220,19634,6,0,L|336:212,1,95,8|8,0:0|0:0,0:0:0:0:
256,48,19954,1,0,0:0:0:0:
159,210,20114,1,0,0:0:0:0:
382,259,20274,6,0,P|399:215|384:168,1,95
228,136,20594,1,0,0:0:0:0:
296,304,20754,1,0,0:0:0:0:
277,85,20914,6,0,P|235:60|174:78,1,95
208,291,21234,2,0,P|247:311|306:297,1,95
192,67,21554,6,0,L|177:168,1,95,8|8,0:0|0:0,0:0:0:0:
259,239,21874,1,0,0:0:0:0:
300,64,22034,1,0,0:0:0:0:
122,25,22194,2,0,L|106:121,1,95,8|8,0:0|0:0,0:0:0:0:
184,280,22514,1,0,0:0:0:0:
308,148,22674,1,0,0:0:0:0:
106,118,22834,6,0,P|56:120|24:151,1,95
184,280,23154,2,0,P|229:277|266:246,1,95
184,104,23474,5,0,0:0:0:0:
108,268,23634,1,8,0:0:0:0:
256,164,23794,5,0,0:0:0:0:
256,344,23954,1,0,0:0:0:0:
336,120,24114,6,0,B|356:258|356:258|392:298,1,190,8|8,0:0|0:0,0:0:0:0:
456,124,24594,1,0,0:0:0:0:
290,52,24754,2,0,P|243:40|194:60,1,95,0|0,0:0|0:0,0:0:0:0:
228,232,25074,1,0,0:0:0:0:
84,182,25234,6,0,P|156:256|229:230,1,190,8|8,3:0|3:0,0:0:0:0:
396,164,25714,2,0,P|399:116|372:80,1,95
228,144,26034,1,0,0:0:0:0:
380,244,26194,1,0,0:0:0:0:
292,88,26354,1,0,0:0:0:0:
240,260,26514,1,0,0:0:0:0:
84,182,26674,6,0,L|68:82,1,95,8|8,0:0|0:0,0:0:0:0:
148,252,26994,1,0,0:0:0:0:
208,80,27154,1,0,0:0:0:0:
308,228,27314,6,0,B|351:199|398:222|398:222|445:187|510:219,1,190,0|0,0:0|0:0,0:0:0:0:
256,104,27794,2,0,B|225:233|225:233|252:296,1,190,0|0,0:0|0:0,0:0:0:0:
340,132,28274,1,0,0:0:0:0:
188,36,28434,1,0,0:0:0:0:
247,285,28594,6,0,P|295:293|339:265,1,95,8|0,0:0|0:0,0:0:0:0:
168,224,28914,1,0,0:0:0:0:
393,204,29074,1,0,0:0:0:0:
75,203,29234,6,0,L|171:224,1,95,8|8,0:0|0:0,0:0:0:0:
333,271,29554,1,0,0:0:0:0:
212,144,29714,1,0,0:0:0:0:
232,324,29874,2,0,L|328:308,1,95,8|8,0:0|0:0,0:0:0:0:
196,184,30194,1,0,0:0:0:0:
164,360,30354,1,0,0:0:0:0:
386,266,30514,6,0,P|347:236|296:240,1,95,8|0,0:0|0:0,0:0:0:0:
156,132,30834,1,0,0:0:0:0:
264,276,30994,1,0,0:0:0:0:
344,112,31154,6,0,L|360:212,1,95,0|0,0:0|0:0,0:0:0:0:
452,360,31474,1,0,0:0:0:0:
304,256,31634,1,0,0:0:0:0:
132,304,31794,6,0,L|147:210,1,95,8|8,0:0|0:0,0:0:0:0:
232,364,32114,1,0,0:0:0:0:
324,208,32274,1,0,0:0:0:0:
164,128,32434,6,0,P|110:134|76:164,1,95,8|0,0:0|0:0,0:0:0:0:
148,328,32754,1,0,0:0:0:0:
232,168,32914,1,0,0:0:0:0:
108,300,33074,6,0,L|208:312,1,95,8|0,0:0|0:0,0:0:0:0:
380,332,33394,1,0,0:0:0:0:
202,311,33554,1,0,0:0:0:0:
164,136,33714,1,8,0:0:0:0:
164,121,33794,1,8,0:0:0:0:
165,108,33874,1,8,0:0:0:0:
166,93,33954,1,8,0:0:0:0:
168,81,34034,1,8,0:0:0:0:
170,66,34114,1,8,0:0:0:0:
171,54,34194,1,8,0:0:0:0:
173,40,34274,1,8,0:0:0:0:
175,28,34354,6,0,B|253:20|283:85|283:85|339:64|339:64|392:72|407:133,1,285.000010871888,8|8,0:0|0:0,0:0:0:0:
416,256,34994,5,2,0:0:0:0:
232,300,35314,1,2,0:0:0:0:
348,216,35634,5,2,0:0:0:0:
164,172,35954,1,2,0:0:0:0:
308,152,36274,5,2,0:0:0:0:
152,40,36594,1,2,0:0:0:0:
131,279,36914,2,0,L|419:255,1,285.000010871888,8|8,0:0|0:0,0:0:0:0:
312,96,37554,5,2,0:0:0:0:
140,172,37874,1,2,0:0:0:0:
264,28,38194,5,2,0:0:0:0:
212,212,38514,1,2,0:0:0:0:
184,24,38834,1,0,0:0:0:0:
292,180,39154,1,8,0:0:0:0:
315,182,39234,1,0,0:0:0:0:
339,185,39314,1,0,0:0:0:0:
362,188,39394,1,0,0:0:0:0:
386,191,39474,5,8,0:0:0:0:
480,36,39634,1,0,0:0:0:0:
308,96,39794,1,0,0:0:0:0:
468,184,39954,1,0,0:0:0:0:
316,280,40114,2,0,L|220:292,1,95,8|8,0:0|0:0,0:0:0:0:
104,156,40434,1,0,0:0:0:0:
148,332,40594,1,0,0:0:0:0:
192,156,40754,6,0,P|238:149|280:173,1,95,8|8,0:0|0:0,0:0:0:0:
234,347,41074,2,0,P|188:354|146:330,1,95,8|8,0:0|0:0,0:0:0:0:
104,156,41394,1,0,0:0:0:0:
278,171,41554,2,0,B|398:155|398:155|462:186,1,190,0|0,0:0|0:0,0:0:0:0:
199,151,42034,2,0,L|187:51,1,95,8|8,0:0|0:0,0:0:0:0:
276,212,42354,1,0,0:0:0:0:
187,245,42514,2,0,L|199:145,1,95,8|8,0:0|0:0,0:0:0:0:
356,60,42834,1,0,0:0:0:0:
384,240,42994,1,0,0:0:0:0:
272,96,43154,1,0,0:0:0:0:
187,245,43314,6,0,P|233:260|278:244,1,95,8|8,0:0|0:0,0:0:0:0:
412,124,43634,1,0,0:0:0:0:
190,61,43794,2,0,B|165:199|165:199|194:261,1,190,0|0,0:0|0:0,0:0:0:0:
356,308,44274,5,0,0:0:0:0:
260,156,44434,1,0,0:0:0:0:
80,172,44594,2,0,B|54:314|54:314|92:280,1,190,0|0,0:0|0:0,0:0:0:0:
356,40,45234,6,0,L|261:49,1,95,8|8,0:0|0:0,0:0:0:0:
204,220,45554,1,0,0:0:0:0:
372,156,45714,1,0,0:0:0:0:
192,176,45874,2,0,P|176:220|200:276,1,95,0|0,0:0|0:0,0:0:0:0:
368,240,46194,1,0,0:0:0:0:
258,131,46354,2,0,P|168:100|114:165,1,190,0|0,0:0|0:0,0:0:0:0:
276,240,46834,1,0,0:0:0:0:
344,72,46994,1,0,0:0:0:0:
420,332,47154,2,0,L|444:48,1,285.000010871888,8|8,0:0|0:0,0:0:0:0:
236,84,47794,6,0,P|189:69|149:97,1,95,8|8,0:0|0:0,0:0:0:0:
124,268,48114,1,0,0:0:0:0:
264,156,48274,1,0,0:0:0:0:
100,228,48434,6,0,L|114:324,1,95,0|0,0:0|0:0,0:0:0:0:
296,316,48754,1,0,0:0:0:0:
180,176,48914,1,0,0:0:0:0:
204,360,49074,5,8,0:0:0:0:
344,248,49234,1,0,0:0:0:0:
180,176,49394,1,0,0:0:0:0:
168,160,49474,1,0,0:0:0:0:
168,140,49554,1,0,0:0:0:0:
176,124,49634,1,0,0:0:0:0:
188,115,49714,6,0,L|288:104,1,95,8|8,0:0|0:0,0:0:0:0:
108,60,50034,1,0,0:0:0:0:
320,248,50194,2,0,P|352:180|280:104,1,190,8|8,0:0|0:0,0:0:0:0:
108,60,50674,2,0,L|89:153,1,95,0|0,0:0|0:0,0:0:0:0:
156,320,50994,5,8,0:0:0:0:
276,183,51154,2,0,P|322:178|361:208,1,95,0|0,0:0|0:0,0:0:0:0:
156,320,51474,2,0,B|170:264|138:207|138:207|166:180|160:135,1,190,8|8,0:0|0:0,0:0:0:0:
256,56,51954,2,0,L|350:71,1,95
456,144,52274,5,8,0:0:0:0:
396,312,52434,1,0,0:0:0:0:
396,312,52594,1,0,0:0:0:0:
301,96,52754,5,8,0:0:0:0:
328,353,52914,1,0,0:0:0:0:
328,353,53074,1,0,0:0:0:0:
175,198,53234,5,8,0:0:0:0:
447,248,53394,1,0,0:0:0:0:
447,248,53554,1,0,0:0:0:0:
301,96,53714,5,8,0:0:0:0:
241,341,53874,1,0,0:0:0:0:
241,341,54034,1,0,0:0:0:0:
212,112,54194,5,8,0:0:0:0:
410,325,54354,1,0,0:0:0:0:
175,198,54514,5,8,0:0:0:0:
447,248,54674,1,0,0:0:0:0:
218,309,54834,5,8,0:0:0:0:
188,64,55314,5,4,0:0:0:0:
218,309,55794,5,2,0:0:0:0:
188,64,56114,1,2,0:0:0:0:
256,362,56594,6,0,B|268:268,1,95,8|8,0:0|0:0,0:0:0:0:
144,136,56914,1,0,0:0:0:0:
312,200,57074,1,0,0:0:0:0:
164,304,57234,1,0,0:0:0:0:
271,131,57394,6,0,P|329:122|378:153,1,118.75,8|8,0:0|0:0,0:0:0:0:
164,304,57714,2,0,P|107:317|59:286,1,118.75,0|0,0:0|0:0,0:0:0:0:
196,108,58034,5,8,0:0:0:0:
304,308,58194,1,0,0:0:0:0:
116,184,58354,1,0,0:0:0:0:
329,85,58514,6,0,P|439:101|453:219,1,237.5,8|8,0:0|0:0,0:0:0:0:
411,299,58994,2,0,P|358:325|299:304,2,118.75,0|0|0,0:0|0:0|0:0,0:0:0:0:
329,85,59474,1,0,0:0:0:0:
228,284,59634,1,8,0:0:0:0:
416,160,59794,1,0,0:0:0:0:
216,60,59954,6,0,L|230:177,1,118.75,8|8,0:0|0:0,0:0:0:0:
116,372,60274,2,0,L|102:255,1,118.75,8|8,0:0|0:0,0:0:0:0:
312,168,60594,5,8,0:0:0:0:
88,144,60754,1,0,0:0:0:0:
220,328,60914,1,0,0:0:0:0:
243,117,61074,2,0,P|310:85|384:215,1,237.5,0|0,0:0|0:0,0:0:0:0:
352,268,61554,2,0,L|375:387,2,118.75,0|0|0,0:0|0:0|0:0,0:0:0:0:
243,117,62034,5,0,0:0:0:0:
88,284,62194,1,0,0:0:0:0:
296,196,62354,1,0,0:0:0:0:
72,192,62514,6,0,B|57:69,1,118.75,8|8,0:0|0:0,0:0:0:0:
180,264,62834,1,0,0:0:0:0:
204,40,62994,2,0,P|280:24|356:148,1,237.5,8|8,0:0|0:0,0:0:0:0:
232,328,63474,1,2,0:0:0:0:
424,212,63634,1,2,0:0:0:0:
204,168,63794,5,10,0:0:0:0:
304,372,63954,1,0,0:0:0:0:
420,176,64114,1,0,0:0:0:0:
236,300,64274,2,0,P|164:288|220:168,1,237.5,8|8,0:0|0:0,0:0:0:0:
420,96,64754,1,2,0:0:0:0:
328,296,64914,1,2,0:0:0:0:
344,132,65074,5,10,0:0:0:0:
328,296,65234,1,0,0:0:0:0:
358,134,65394,5,10,0:0:0:0:
324,312,65554,1,0,0:0:0:0:
373,138,65714,5,10,0:0:0:0:
319,331,65874,1,0,0:0:0:0:
389,145,66034,5,10,0:0:0:0:
312,350,66194,1,0,0:0:0:0:
248,84,66354,2,0,L|128:76,1,118.75,0|0,0:0|0:0,0:0:0:0:
327,295,66674,2,0,L|446:288,1,118.75,0|0,0:0|0:0,0:0:0:0:
244,184,66994,1,0,0:0:0:0:
390,347,67154,1,0,0:0:0:0:
404,120,67314,1,0,0:0:0:0:
240,276,67474,1,0,0:0:0:0:
72,128,67634,6,0,P|60:69|96:20,1,118.75,8|8,0:0|0:0,0:0:0:0:
281,125,67954,2,0,P|312:173|300:229,1,118.75,0|0,0:0|0:0,0:0:0:0:
92,320,68274,1,0,0:0:0:0:
200,120,68434,1,0,0:0:0:0:
228,344,68594,1,0,0:0:0:0:
123,155,68754,2,0,P|162:47|268:67,1,237.5,0|0,0:0|0:0,0:0:0:0:
317,126,69234,2,0,B|441:142|441:142,1,118.75,0|0,0:0|0:0,0:0:0:0:
272,296,69554,1,0,0:0:0:0:
204,80,69714,5,8,0:0:0:0:
148,300,69874,1,0,0:0:0:0:
204,80,70034,1,0,0:0:0:0:
144,192,70194,6,0,B|146:224|123:247|123:247|132:284|117:318,1,118.75,8|8,0:0|0:0,0:0:0:0:
284,148,70514,1,0,0:0:0:0:
352,364,70674,1,0,0:0:0:0:
284,148,70834,2,0,P|314:206|298:257,1,118.75,8|0,0:0|0:0,0:0:0:0:
152,384,71154,1,0,0:0:0:0:
92,200,71314,2,0,B|72:36|72:36|128:96,1,237.5,0|0,0:0|0:0,0:0:0:0:
186,148,71794,2,0,B|242:168|242:168|299:129,2,118.75,0|0|0,3:3|3:3|3:3,0:0:0:0:
8,8,72274,5,0,0:0:0:0:
92,216,72434,1,8,0:0:0:0:
236,44,72594,1,0,0:0:0:0:
288,264,72754,2,0,P|342:278|400:252,1,118.75,8|8,0:0|0:0,0:0:0:0:
216,120,73074,1,0,0:0:0:0:
398,254,73234,2,0,B|420:76|420:76|376:128,1,237.5,8|8,0:0|0:0,0:0:0:0:
244,300,73714,1,2,0:0:0:0:
304,84,73874,1,2,0:0:0:0:
332,308,74034,5,10,0:0:0:0:
164,156,74194,1,0,0:0:0:0:
388,188,74354,1,0,0:0:0:0:
208,324,74514,2,0,P|112:344|68:232,1,237.5,8|8,0:0|0:0,0:0:0:0:
48,152,74994,2,0,L|88:32,1,118.75,0|0,0:0|0:0,0:0:0:0:
312,32,75314,5,8,0:0:0:0:
360,180,75474,1,0,0:0:0:0:
396,28,75634,5,8,0:0:0:0:
280,164,75794,1,0,0:0:0:0:
444,96,75954,5,8,0:0:0:0:
244,92,76114,1,0,0:0:0:0:
432,168,76274,5,8,0:0:0:0:
264,16,76434,1,0,0:0:0:0:
364,220,76594,2,0,L|238:238,1,118.75,0|0,0:0|0:0,0:0:0:0:
64,100,76914,1,0,0:0:0:0:
246,236,77074,2,0,B|210:166|238:72|238:72|179:132,1,237.5,0|0,0:0|0:0,0:0:0:0:
193,292,77554,2,0,P|241:313|304:285,1,118.75,0|0,0:0|0:0,0:0:0:0:
416,136,77874,5,0,0:0:0:0:
220,28,78034,5,4,0:0:0:0:
220,28,78194,1,4,0:0:0:0:
324,228,78354,5,8,0:0:0:0:
424,24,78514,1,0,0:0:0:0:
216,112,78674,1,0,0:0:0:0:
412,224,78834,5,4,0:0:0:0:
412,224,78994,1,4,0:0:0:0:
188,252,79154,5,8,0:0:0:0:
380,136,79314,1,0,0:0:0:0:
276,336,79474,1,0,0:0:0:0:
200,124,79634,5,8,0:0:0:0:
128,336,79794,1,0,0:0:0:0:
290,171,79954,1,0,0:0:0:0:
128,336,80114,1,8,0:0:0:0:
123,296,80194,1,0,0:0:0:0:
118,257,80274,1,0,0:0:0:0:
113,218,80354,1,0,0:0:0:0:
108,176,80434,6,0,B|220:142|162:222|298:169,1,190,8|8,0:0|0:0,0:0:0:0:
348,104,81074,2,0,B|376:195|376:195|344:284,1,190,8|8,0:0|0:0,0:0:0:0:
107,333,81554,6,0,P|31:237|127:137,1,285.000010871888,4|4,0:0|0:0,0:0:0:0:
277,253,82034,1,4,0:0:0:0:
107,333,82194,1,4,0:0:0:0:
126,137,82354,5,10,0:0:0:0:
