osu file format v14

[General]
AudioFilename: audio.mp3
AudioLeadIn: 0
PreviewTime: 57394
Countdown: 0
SampleSet: None
StackLeniency: 0.5
Mode: 0
LetterboxInBreaks: 0
WidescreenStoryboard: 0

[Editor]
Bookmarks: 10354,10674,10994,11314,13874,15794,16434,18354,18994,19634,20274,20914,21554,22194,22834,23474,24114,26034,26674,28594,31794,33714,34354,34994,36914,37234,39474,44594,47154,47474,49714,52274,54834,59314,59954,61874,62514,62994,63794,64274,66354,67634,69554,70194,72114,72754,73234,74034,74514,75314,76594,77874,78354,78834,79154,79634,79954,82354
DistanceSpacing: 0.8
BeatDivisor: 2
GridSize: 4
TimelineZoom: 1.5

[Metadata]
Title:Genkai Toppa x Survivor (TV Size)
TitleUnicode:限界突破×サバイバー
Artist:Kiyoshi Hikawa
ArtistUnicode:氷川きよし
Creator:-NeBu-
Version:Easy
Source:Dragon Ball Super
Tags:dragon ball super dbs toei animation anime opening two limit break x survivor dbz db db gt
BeatmapID:1407655
BeatmapSetID:571304

[Difficulty]
HPDrainRate:2
CircleSize:3
OverallDifficulty:2
ApproachRate:3.5
SliderMultiplier:0.699999999999999
SliderTickRate:2

[Events]
//Background and Video events
Video,0,"Dragon Ball Super - OPENING 2 (1080p FULL HD).mp4"
0,0,"dbswall.jpg",0,0
//Break Periods
2,11514,12494
2,34874,35534
2,37434,38094
2,45114,45774
2,47674,48334
//Storyboard Layer 0 (Background)
//Storyboard Layer 1 (Fail)
//Storyboard Layer 2 (Pass)
//Storyboard Layer 3 (Foreground)
//Storyboard Sound Samples

[TimingPoints]
-206,320,4,3,1,45,1,0
5394,-100,4,3,1,45,0,0
5874,-100,4,3,1,45,0,0
6194,-100,4,3,1,60,0,0
34354,-100,4,3,1,60,0,0
34994,-100,4,3,1,60,0,0
36914,-100,4,3,1,60,0,0
37234,-100,4,3,1,60,0,0
47154,-100,4,3,1,60,0,0
47474,-100,4,3,1,60,0,0
56594,-100,4,3,1,30,0,0
57394,-100,4,3,1,70,0,1
80434,-100,4,3,1,45,0,0
81554,-100,4,3,1,60,0,0
82354,-100,4,3,1,60,0,0

[Colours]
Combo1 : 207,207,207
Combo2 : 255,198,255
Combo3 : 112,181,218
Combo4 : 255,26,26
SliderTrackOverride : 35,20,80

[HitObjects]
200,136,1074,5,8,0:0:0:0:
136,224,1714,1,0,0:0:0:0:
208,312,2354,2,0,P|257:337|313:318,1,105
348,292,3154,1,0,0:0:0:0:
300,220,3634,5,8,0:0:0:0:
188,228,4274,1,0,0:0:0:0:
160,336,4914,2,0,P|200:366|253:375,2,105
120,296,6194,6,4,B|106:218,1,69.9999999999999,0|0,0:0|0:0,0:0:0:0:
76,180,6834,1,0,0:0:0:0:
108,132,7154,2,0,L|148:140,1,35
208,84,7794,6,4,B|279:96,1,69.9999999999999,0|0,0:0|0:0,0:0:0:0:
324,64,8434,2,0,L|372:56,1,35
412,124,9074,6,4,P|427:155|422:192,1,69.9999999999999,0|0,0:0|0:0,0:0:0:0:
400,240,9714,2,0,L|392:280,1,35
332,332,10354,2,4,L|260:340,1,69.9999999999999,8|8,0:0|0:0,0:0:0:0:
208,340,10994,1,0,0:0:0:0:
164,308,11314,1,0,0:0:0:0:
80,304,13874,6,8,B|136:225|131:152|72:72|72:72|170:52|201:158,1,419.999999999999,0|0,0:0|0:0,0:0:0:0:
296,208,16434,2,0,P|376:240|296:104,1,419.999999999999,8|0,0:0|0:0,0:0:0:0:
200,156,18994,6,8,P|131:164|68:133,1,140,0|0,0:0|0:0,0:0:0:0:
148,52,20274,2,0,P|221:43|278:72,1,140,8|8,0:0|0:0,0:0:0:0:
380,124,21554,2,8,L|364:276,1,140,0|0,0:0|0:0,0:0:0:0:
292,348,22834,2,0,B|132:340,1,140,8|8,0:0|0:0,0:0:0:0:
44,312,24114,6,8,B|69:250|127:217|192:240|192:240|185:150|212:111|212:111|252:140|272:200,1,419.999999999999,0|0,0:0|0:0,0:0:0:0:
348,276,26674,2,0,B|425:271|485:313|485:313|469:282|469:282|468:240|468:240|453:206|413:196|413:196|421:169|404:137|404:137|373:127|346:88,1,419.999999999999
248,60,29234,6,8,P|184:44|120:84,1,140,0|0,0:0|0:0,0:0:0:0:
64,176,30514,2,0,P|48:240|88:304,1,140,8|0,0:0|0:0,0:0:0:0:
188,348,31794,2,8,L|332:340,1,140,0|0,0:0|0:0,0:0:0:0:
384,244,33074,2,8,L|240:236,1,140
152,168,34354,6,8,B|137:134|137:134|144:96,1,69.9999999999999
248,56,36914,6,8,B|253:88|253:88|238:122,1,69.9999999999999,0|0,0:0|0:0,0:0:0:0:
152,200,39474,6,8,P|136:256|176:328,1,140,8|0,0:0|0:0,0:0:0:0:
284,340,40754,2,8,L|428:348,1,140,0|0,0:0|0:0,0:0:0:0:
472,248,42034,6,0,L|456:136,2,105,8|8|8,0:0|0:0|0:0,0:0:0:0:
424,276,43314,2,8,L|313:269,2,105,8|8|8,0:0|0:3|0:0,0:0:0:0:
472,248,44594,1,8,0:0:0:0:
464,192,44914,1,8,0:0:0:0:
272,152,47154,5,8,0:0:0:0:
280,208,47474,1,8,0:0:0:0:
280,208,49714,6,0,P|233:231|176:216,1,105,8|8,0:0|0:0,0:0:0:0:
160,84,50994,2,8,P|207:61|264:76,1,105,8|0,0:0|0:0,0:0:0:0:
320,128,51954,1,2,0:0:0:0:
256,192,52274,12,0,54834,0:0:0:0:
113,43,57394,6,8,B|91:92|116:149|116:149|73:185|60:269|97:339|97:339|150:322|165:263,1,419.999999999999,0|0,0:0|0:0,0:0:0:0:
252,172,59954,2,0,B|296:184|333:161|333:161|365:185|428:183|482:140|482:140|519:239|435:309,1,419.999999999999
324,328,62514,6,0,B|274:344|274:344|224:331,1,105,8|8,0:0|0:0,0:0:0:0:
100,264,63794,2,8,B|84:214|84:214|97:164,1,105,10|0,0:0|0:0,0:0:0:0:
208,80,65074,2,0,B|352:64,2,140,10|8|8,0:0|0:0|0:0,0:0:0:0:
105,34,67634,6,8,B|77:103|119:153|119:153|86:205|86:205|129:253|109:316|109:316|174:322|206:259,1,419.999999999999,0|0,0:0|0:0,0:0:0:0:
292,332,70194,2,8,B|337:235|462:247|462:247|395:125|473:40,1,419.999999999999,0|0,0:0|0:0,0:0:0:0:
356,48,72754,6,0,L|252:40,1,105,8|8,0:0|0:0,0:0:0:0:
144,132,74034,2,0,L|248:141,1,105,2|8,0:0|0:0,0:0:0:0:
132,220,75314,1,0,0:0:0:0:
60,140,75954,1,0,0:0:0:0:
116,52,76594,1,0,0:0:0:0:
265,271,77874,6,0,P|291:219|281:169,2,105,0|8|0,0:0|0:0|0:0,0:0:0:0:
216,296,79154,2,0,P|165:302|120:277,2,105,8|8|0,0:0|0:0|0:0,0:0:0:0:
263,327,80434,1,0,0:0:0:0:
360,156,81554,6,4,B|298:172|298:172|263:165|263:165|185:186,1,175,0|8,0:0|0:0,0:0:0:0:
