osu file format v14

[General]
AudioFilename: audio.mp3
AudioLeadIn: 0
PreviewTime: 56619
Countdown: 0
SampleSet: Normal
StackLeniency: 0.4
Mode: 0
LetterboxInBreaks: 0
WidescreenStoryboard: 1

[Editor]
Bookmarks: 379,5579,5979,11099,13659,18779,23899,25819,26459,28379,29019,34139,34779,36699,37339,39259,44379,45019,46939,47579,49499,52059,54619,57179,67419,80219,81339,82779,84059
DistanceSpacing: 1.5
BeatDivisor: 4
GridSize: 4
TimelineZoom: 1

[Metadata]
Title:Genkai Toppa x Survivor
TitleUnicode:限界突破×サバイバー
Artist:Kiyoshi Hikawa
ArtistUnicode:氷川きよし
Creator:Natsu
Version:Insane
Source:ドラゴンボール超
Tags:opening two limit break x survivor dbz goku Dragon Ball Super tv size
BeatmapID:1427327
BeatmapSetID:673464

[Difficulty]
HPDrainRate:4.5
CircleSize:4
OverallDifficulty:7
ApproachRate:8.5
SliderMultiplier:1.5
SliderTickRate:1

[Events]
//Background and Video events
Video,-219,"Dragon Ball Super - OPENING 2 (1080p FULL HD).avi"
0,0,"591a5b1ab4204.jpg",0,0
//Break Periods
//Storyboard Layer 0 (Background)
//Storyboard Layer 1 (Fail)
//Storyboard Layer 2 (Pass)
//Storyboard Layer 3 (Foreground)
//Storyboard Sound Samples

[TimingPoints]
-421,320,4,1,1,60,1,0
699,-100,4,1,1,5,0,0
859,-100,4,1,1,60,0,0
3099,-100,4,1,1,30,0,0
3419,-100,4,1,1,60,0,0
5899,-100,4,1,1,5,0,0
5979,-100,4,1,1,60,0,0
10139,-100,4,1,1,70,0,0
10299,-100,4,1,1,50,0,0
10459,-83.3333333333333,4,1,1,70,0,0
10619,-83.3333333333333,4,1,1,50,0,0
10779,-71.4285714285714,4,1,1,70,0,0
10939,-71.4285714285714,4,1,1,50,0,0
11099,-166.666666666667,4,1,1,30,0,0
13339,-100,4,1,1,50,0,0
13579,-100,4,1,1,5,0,0
13659,-111.111111111111,4,1,1,50,0,0
13739,-111.111111111111,4,1,1,30,0,0
13979,-111.111111111111,4,1,1,50,0,0
15579,-83.3333333333333,4,1,1,60,0,0
15979,-83.3333333333333,4,1,1,30,0,0
16219,-111.111111111111,4,1,1,50,0,0
18139,-83.3333333333333,4,1,1,60,0,0
18539,-83.3333333333333,4,1,1,30,0,0
18779,-111.111111111111,4,1,1,50,0,0
22619,-111.111111111111,4,1,1,60,0,0
23259,-111.111111111111,4,1,1,65,0,0
23899,-111.111111111111,4,1,1,50,0,0
25819,-83.3333333333333,4,1,1,60,0,0
26219,-83.3333333333333,4,1,1,30,0,0
26459,-111.111111111111,4,1,1,50,0,0
28379,-83.3333333333333,4,1,1,60,0,0
28779,-83.3333333333333,4,1,1,30,0,0
29019,-111.111111111111,4,1,1,50,0,0
32859,-111.111111111111,4,1,1,60,0,0
33499,-111.111111111111,4,1,1,65,0,0
34139,-83.3333333333333,4,1,1,70,0,0
34299,-83.3333333333333,4,1,1,50,0,0
34459,-83.3333333333333,4,1,1,70,0,0
34699,-83.3333333333333,4,1,1,5,0,0
34779,-111.111111111111,4,1,1,50,0,0
36699,-83.3333333333333,4,1,1,70,0,0
36859,-83.3333333333333,4,1,1,50,0,0
37019,-83.3333333333333,4,1,1,70,0,0
37259,-83.3333333333333,4,1,1,5,0,0
37339,-111.111111111111,4,1,1,50,0,0
39259,-111.111111111111,4,1,1,60,0,0
44379,-83.3333333333333,4,1,1,70,0,0
44539,-83.3333333333333,4,1,1,50,0,0
44699,-83.3333333333333,4,1,1,70,0,0
44939,-83.3333333333333,4,1,1,5,0,0
45019,-111.111111111111,4,1,1,50,0,0
46939,-83.3333333333333,4,1,1,70,0,0
47099,-83.3333333333333,4,1,1,50,0,0
47259,-83.3333333333333,4,1,1,70,0,0
47499,-83.3333333333333,4,1,1,5,0,0
47579,-111.111111111111,4,1,1,50,0,0
49499,-100,4,1,1,60,0,0
50059,-100,4,1,1,50,0,0
50779,-100,4,1,1,60,0,0
51339,-100,4,1,1,50,0,0
51739,-100,4,1,1,60,0,0
52059,-100,4,1,1,70,0,1
54619,-90.9090909090909,4,1,1,70,0,0
54779,-90.9090909090909,4,1,1,40,0,0
55099,-83.3333333333333,4,1,1,70,0,0
55259,-83.3333333333333,4,1,1,40,0,0
55579,-76.9230769230769,4,1,1,70,0,0
55739,-76.9230769230769,4,1,1,40,0,0
55899,-71.4285714285714,4,1,1,70,0,0
56059,-71.4285714285714,4,1,1,40,0,0
56219,-100,4,1,1,20,0,0
56299,-100,4,1,1,25,0,0
56379,-100,4,1,1,30,0,0
56459,-100,4,1,1,35,0,0
56539,-100,4,1,1,40,0,0
56619,-100,4,1,1,45,0,0
56699,-100,4,1,1,60,0,0
56779,-100,4,1,1,50,0,0
57179,-100,4,1,1,60,0,1
67339,-100,4,1,1,60,0,0
67419,-100,4,1,1,60,0,1
76699,-100,4,1,1,50,0,1
77659,-100,4,1,1,60,0,1
79899,-100,4,1,1,50,0,1
80219,-125,4,1,1,50,0,0
80379,-125,4,1,1,10,0,0
80539,-142.857142857143,4,1,1,30,0,0
80699,-142.857142857143,4,1,1,5,0,0
80859,-125,4,1,1,30,0,0
81019,-166.666666666667,4,1,1,5,0,0
81179,-100,4,1,1,30,0,0
81339,-100,4,1,1,70,0,1
82139,-52.6315789473684,4,1,1,70,0,1
82459,-58.8235294117647,4,1,1,10,0,1
82779,-100,4,1,1,5,0,0
82859,-100,4,1,1,5,0,0

[Colours]
Combo1 : 191,0,0
Combo2 : 233,227,3
SliderBorder : 248,241,3
SliderTrackOverride : 0,0,0

[HitObjects]
33,131,379,5,8,0:3:0:0:
33,131,539,2,0,L|46:208,1,75,4|0,0:0|0:0,0:0:0:0:
75,336,859,5,4,0:0:0:0:
195,278,1019,1,4,0:0:0:0:
195,278,1499,5,4,0:0:0:0:
75,220,1659,1,4,0:0:0:0:
75,220,2139,5,4,0:0:0:0:
195,162,2299,1,4,0:0:0:0:
219,155,2619,5,4,0:0:0:0:
242,148,2939,2,0,P|250:111|235:68,2,75,4|4|4,0:0|2:3|2:3,0:0:0:0:
169,230,3419,5,4,0:0:0:0:
49,172,3579,1,4,0:0:0:0:
49,172,4059,5,4,0:0:0:0:
169,114,4219,1,4,0:0:0:0:
169,114,4699,5,4,0:0:0:0:
49,56,4859,1,4,0:0:0:0:
30,49,5179,6,0,P|19:87|28:126,1,75,4|0,0:0|0:0,0:0:0:0:
25,121,5659,6,0,L|141:121,1,112.5,12|0,0:2|2:0,0:0:0:0:
201,84,5979,6,0,P|212:119|202:155,1,75,4|0,0:0|0:0,0:0:0:0:
143,232,6299,1,8,0:0:0:0:
143,232,6459,1,0,0:0:0:0:
242,256,6619,1,2,0:0:0:0:
242,256,6779,1,0,0:0:0:0:
342,279,6939,1,8,0:0:0:0:
342,279,7099,2,0,B|353:229|353:229|336:174|336:174|351:115,1,150,6|0,0:0|0:0,0:0:0:0:
217,91,7579,5,8,0:0:0:0:
217,91,7739,1,0,0:0:0:0:
118,67,7899,1,2,0:0:0:0:
118,67,8059,1,0,0:0:0:0:
18,44,8219,1,8,0:0:0:0:
18,44,8379,2,0,B|7:94|7:94|24:149|24:149|9:208,1,150,6|0,0:0|0:0,0:0:0:0:
153,234,8859,5,8,0:0:0:0:
153,234,9019,1,0,0:0:0:0:
252,258,9179,1,2,0:0:0:0:
252,258,9339,1,0,0:0:0:0:
352,281,9499,1,8,0:0:0:0:
352,281,9659,2,0,B|363:231|363:231|346:176|346:176|361:117,1,150,6|0,0:0|0:0,0:0:0:0:
182,90,10139,6,0,L|165:189,1,75,4|0,0:0|0:0,0:0:0:0:
104,54,10459,6,0,L|86:161,1,89.9999972534181,4|0,0:0|0:0,0:0:0:0:
24,24,10779,6,0,L|3:142,1,104.999996795654,4|0,0:0|0:0,0:0:0:0:
22,269,11099,6,0,L|16:320,2,44.999998626709,14|2|14,2:3|2:3|2:3,0:0:0:0:
137,247,11739,1,10,2:3:0:0:
252,226,12059,2,0,L|246:277,1,44.999998626709,14|2,2:3|2:3,0:0:0:0:
367,205,12539,1,2,2:3:0:0:
482,184,12859,2,0,L|476:235,1,44.999998626709,2|10,2:3|2:3,0:0:0:0:
320,346,13339,6,0,P|267:363|213:350,1,112.5,8|0,3:0|2:0,0:0:0:0:
157,303,13659,6,0,P|134:240|153:177,1,134.999995880127,12|8,0:0|0:0,0:0:0:0:
336,89,14299,2,0,P|358:151|339:214,1,134.999995880127,2|8,0:0|0:0,0:0:0:0:
288,302,14779,2,0,P|280:334|286:367,1,67.4999979400635,2|0,0:0|0:0,0:0:0:0:
388,367,15099,2,0,P|395:334|389:301,1,67.4999979400635,2|8,0:0|0:0,0:0:0:0:
339,214,15419,1,0,0:0:0:0:
193,322,15579,6,0,P|151:334|107:323,1,89.9999972534181,8|8,0:0|0:0,0:0:0:0:
14,196,15899,2,0,P|8:176|15:150,3,44.999998626709,12|8|8|8,0:0|0:0|0:0|0:0,0:0:0:0:
53,90,16219,6,0,P|116:66|180:83,1,134.999995880127,12|8,0:0|0:0,0:0:0:0:
303,245,16859,2,0,P|240:268|176:251,1,134.999995880127,2|8,0:0|0:0,0:0:0:0:
81,212,17339,2,0,P|72:243|77:276,1,67.4999979400635,2|0,0:0|0:0,0:0:0:0:
176,251,17659,2,0,P|185:219|180:186,1,67.4999979400635,2|8,0:0|0:0,0:0:0:0:
111,111,17979,1,0,0:0:0:0:
267,203,18139,6,0,P|310:216|353:204,1,89.9999972534181,8|8,0:0|0:0,0:0:0:0:
460,120,18459,2,0,P|457:93|446:75,3,44.999998626709,12|8|8|8,0:0|0:0|0:0|0:0,0:0:0:0:
382,41,18779,6,0,P|319:21|256:42,1,134.999995880127,6|8,1:3|0:0,0:0:0:0:
129,71,19259,1,2,0:0:0:0:
129,71,19419,6,0,P|192:51|256:72,1,134.999995880127,6|8,1:3|0:0,0:0:0:0:
382,101,19899,1,2,0:0:0:0:
382,101,20059,6,0,P|319:81|256:102,1,134.999995880127,6|8,1:3|0:0,0:0:0:0:
129,131,20539,1,2,0:0:0:0:
129,131,20699,6,0,P|192:111|256:132,1,134.999995880127,6|12,1:3|0:0,0:0:0:0:
382,161,21179,1,2,0:0:0:0:
382,161,21339,6,0,P|319:141|256:162,1,134.999995880127,6|8,1:3|0:0,0:0:0:0:
129,191,21819,1,2,0:0:0:0:
129,191,21979,6,0,P|192:171|256:192,1,134.999995880127,6|8,1:3|0:0,0:0:0:0:
382,221,22459,1,2,0:0:0:0:
382,221,22619,6,0,P|319:201|256:222,1,134.999995880127,6|8,1:3|0:0,0:0:0:0:
129,251,23099,1,8,0:0:0:0:
129,251,23259,6,0,P|192:231|256:252,1,134.999995880127,6|8,1:3|0:0,0:0:0:0:
382,296,23739,1,8,0:0:0:0:
278,150,23899,6,0,P|258:86|278:23,1,134.999995880127,4|8,0:0|0:0,0:0:0:0:
482,24,24539,2,0,P|501:87|481:150,1,134.999995880127,2|8,0:0|0:0,0:0:0:0:
391,201,25019,2,0,P|360:211|327:205,1,67.4999979400635,2|0,0:0|0:0,0:0:0:0:
237,159,25339,2,0,P|204:152|172:163,1,67.4999979400635,2|8,0:0|0:0,0:0:0:0:
77,198,25659,1,0,0:0:0:0:
206,326,25819,6,0,P|251:339|298:321,1,89.9999972534181,8|8,0:0|0:0,0:0:0:0:
397,242,26139,2,0,P|402:219|398:197,3,44.999998626709,12|8|8|8,0:0|0:0|0:0|0:0,0:0:0:0:
359,134,26459,6,0,P|295:113|232:133,1,134.999995880127,4|8,0:0|0:0,0:0:0:0:
136,312,27099,2,0,P|199:332|262:312,1,134.999995880127,2|8,0:0|0:0,0:0:0:0:
355,271,27579,2,0,P|365:302|360:335,1,67.4999979400635,2|0,0:0|0:0,0:0:0:0:
262,312,27899,2,0,P|251:280|256:247,1,67.4999979400635,2|8,0:0|0:0,0:0:0:0:
304,157,28219,1,0,0:0:0:0:
169,282,28379,6,0,P|126:293|82:284,1,89.9999972534181,8|8,0:0|0:0,0:0:0:0:
59,151,28699,2,0,P|53:129|60:107,3,44.999998626709,12|8|8|8,0:0|0:0|0:0|0:0,0:0:0:0:
122,66,29019,6,0,L|256:87,1,134.999995880127,6|8,1:3|0:0,0:0:0:0:
390,106,29499,1,2,0:0:0:0:
390,106,29659,6,0,L|256:127,1,134.999995880127,6|8,1:3|0:0,0:0:0:0:
122,146,30139,1,2,0:0:0:0:
122,146,30299,6,0,L|256:167,1,134.999995880127,6|8,1:3|0:0,0:0:0:0:
390,186,30779,1,2,0:0:0:0:
390,186,30939,6,0,L|256:207,1,134.999995880127,6|12,1:3|0:0,0:0:0:0:
122,226,31419,1,2,0:0:0:0:
122,226,31579,6,0,L|256:247,1,134.999995880127,6|8,1:3|0:0,0:0:0:0:
390,266,32059,1,2,0:0:0:0:
390,266,32219,6,0,L|256:287,1,134.999995880127,6|8,1:3|0:0,0:0:0:0:
122,306,32699,1,2,0:0:0:0:
122,306,32859,6,0,L|256:327,1,134.999995880127,6|8,1:3|0:0,0:0:0:0:
390,346,33339,1,8,0:0:0:0:
390,346,33499,6,0,L|256:367,1,134.999995880127,6|12,1:3|0:0,0:0:0:0:
122,384,33979,1,8,0:0:0:0:
231,240,34139,6,0,P|241:197|227:155,1,89.9999972534181,6|2,1:3|2:1,0:0:0:0:
166,291,34459,2,0,P|227:323|289:296,1,134.999995880127,6|0,1:3|2:0,0:0:0:0:
336,248,34779,6,0,P|399:226|463:247,1,134.999995880127,4|8,0:0|0:0,0:0:0:0:
268,370,35419,1,2,0:0:0:0:
189,305,35579,2,0,P|182:272|189:239,1,67.4999979400635,0|8,0:0|0:0,0:0:0:0:
256,162,35899,2,0,P|319:141|383:160,1,134.999995880127,0|0,0:0|0:0,0:0:0:0:
454,233,36379,2,0,P|461:265|454:298,1,67.4999979400635,8|0,0:0|0:0,0:0:0:0:
252,247,36699,6,0,P|241:203|255:161,1,89.9999972534181,6|2,1:3|2:1,0:0:0:0:
316,298,37019,2,0,P|255:329|193:302,1,134.999995880127,6|0,1:3|2:0,0:0:0:0:
138,261,37339,6,0,P|75:239|11:260,1,134.999995880127,4|8,0:0|0:0,0:0:0:0:
209,374,37979,1,2,0:0:0:0:
289,312,38139,2,0,P|295:279|288:246,1,67.4999979400635,0|8,0:0|0:0,0:0:0:0:
220,171,38459,2,0,P|156:150|92:169,1,134.999995880127,0|0,0:0|0:0,0:0:0:0:
29,249,38939,2,0,P|23:273|32:298,3,33.7499989700318,8|8|8|8,0:0|0:0|0:0|0:0,0:0:0:0:
45,351,39259,6,0,P|77:359|109:353,1,67.4999979400635,4|0,0:0|0:0,0:0:0:0:
199,305,39579,2,0,P|231:298|263:307,1,67.4999979400635,8|0,0:0|0:0,0:0:0:0:
356,349,39899,1,2,0:0:0:0:
439,293,40059,2,0,P|459:229|439:165,1,134.999995880127,8|0,1:3|0:0,0:0:0:0:
318,66,40539,6,0,P|285:57|253:63,1,67.4999979400635,4|8,0:0|0:0,0:0:0:0:
164,112,40859,2,0,P|131:118|99:109,1,67.4999979400635,8|0,0:0|0:0,0:0:0:0:
7,68,41179,1,2,0:0:0:0:
25,176,41339,1,8,0:0:0:0:
25,176,41419,1,8,0:0:0:0:
25,176,41499,2,0,L|28:210,3,33.7499989700318,8|8|8|8,0:0|0:0|0:0|0:0,0:0:0:0:
41,288,41819,6,0,P|103:263|167:282,1,134.999995880127,6|8,0:0|0:0,0:0:0:0:
368,301,42299,2,0,P|306:325|242:306,1,134.999995880127,2|2,0:0|0:0,0:0:0:0:
269,160,42779,2,0,P|301:151|334:157,1,67.4999979400635,8|0,0:0|0:0,0:0:0:0:
471,215,43099,6,0,L|480:260,4,33.7499989700318,12|8|8|8|8,0:0|0:0|0:0|0:0|0:0,0:0:0:0:
334,157,43579,2,0,L|327:123,4,33.7499989700318,8|8|8|8|8,0:0|0:0|0:0|0:0|0:0,0:0:0:0:
264,276,44059,1,12,0:0:0:0:
235,293,44139,1,8,0:0:0:0:
202,299,44219,1,8,0:0:0:0:
169,294,44299,1,8,0:0:0:0:
139,277,44379,6,0,P|128:233|142:191,1,89.9999972534181,6|2,1:3|2:1,0:0:0:0:
203,328,44699,2,0,P|142:359|80:332,1,134.999995880127,6|0,1:3|2:0,0:0:0:0:
37,280,45019,6,0,P|15:217|36:153,1,134.999995880127,4|8,0:0|0:0,0:0:0:0:
260,57,45659,1,2,0:0:0:0:
260,57,45819,2,0,P|292:49|325:57,1,67.4999979400635,0|8,0:0|0:0,0:0:0:0:
403,122,46139,2,0,P|424:184|403:248,1,134.999995880127,0|0,0:0|0:0,0:0:0:0:
317,300,46619,2,0,P|284:309|251:304,1,67.4999979400635,12|0,0:0|0:0,0:0:0:0:
89,207,46939,6,0,P|132:196|174:210,1,89.9999972534181,6|2,1:3|2:1,0:0:0:0:
38,271,47259,2,0,P|6:210|33:148,1,134.999995880127,6|0,1:3|2:0,0:0:0:0:
92,110,47579,6,0,P|154:88|218:109,1,134.999995880127,4|8,0:0|0:0,0:0:0:0:
451,195,48219,1,2,0:0:0:0:
451,195,48379,2,0,P|458:227|450:260,1,67.4999979400635,0|8,0:0|0:0,0:0:0:0:
386,338,48699,2,0,P|323:359|259:338,1,134.999995880127,0|0,0:0|0:0,0:0:0:0:
207,252,49179,2,0,P|204:234|210:212,3,33.7499989700318,8|8|8|8,0:0|0:0|0:0|0:0,0:0:0:0:
243,156,49499,5,4,0:0:0:0:
332,87,49659,2,0,P|367:77|403:87,1,75,4|0,0:0|0:0,0:0:0:0:
508,155,49979,1,4,0:0:0:0:
508,155,50059,1,8,0:0:0:0:
508,155,50139,2,0,L|514:209,4,37.5,8|8|8|8|8,0:0|0:0|0:0|0:0|0:0,0:0:0:0:
256,54,50779,5,4,0:0:0:0:
161,114,50939,2,0,P|150:149|158:186,1,75,4|0,0:0|0:0,0:0:0:0:
249,253,51259,1,12,0:0:0:0:
279,268,51339,1,8,0:0:0:0:
312,274,51419,1,8,0:0:0:0:
345,266,51499,1,8,0:0:0:0:
373,249,51579,1,8,0:0:0:0:
444,161,51739,2,0,P|454:125|446:88,1,75,4|0,0:0|0:0,0:0:0:0:
339,124,52059,5,12,1:3:0:0:
361,13,52219,1,8,1:3:0:0:
446,88,52379,1,8,1:3:0:0:
309,60,52539,2,0,P|269:50|233:61,2,75,12|8|8,1:3|1:3|1:3,0:0:0:0:
405,156,53019,5,12,1:3:0:0:
427,267,53179,1,8,1:3:0:0:
512,192,53339,1,8,1:3:0:0:
375,220,53499,2,0,P|335:230|299:219,2,75,12|8|8,1:3|1:3|1:3,0:0:0:0:
473,131,53979,5,12,1:3:0:0:
356,102,54139,1,8,1:3:0:0:
502,28,54299,1,8,1:3:0:0:
386,0,54459,1,8,1:3:0:0:
402,194,54619,6,0,P|414:232|403:271,1,82.5000025177003,6|0,1:3|2:0,0:0:0:0:
105,341,55099,6,0,P|93:303|106:256,1,89.9999972534181,6|0,1:3|2:0,0:0:0:0:
282,121,55579,6,0,P|235:107|189:120,1,97.4999955368044,6|0,1:3|2:0,0:0:0:0:
107,256,55899,6,0,P|153:269|207:252,1,104.999996795654,6|0,1:3|2:0,0:0:0:0:
351,215,56219,6,0,L|356:252,4,37.5,8|8|8|8|8,0:0|0:0|0:0|0:0|0:0,0:0:0:0:
334,103,56699,5,12,0:0:0:0:
334,103,56859,1,8,0:0:0:0:
334,103,57019,1,8,0:0:0:0:
204,192,57179,6,0,P|167:200|131:190,1,75,6|0,0:0|0:0,0:0:0:0:
99,81,57499,2,0,P|136:73|172:83,1,75,8|0,0:0|0:0,0:0:0:0:
269,136,57819,1,2,0:0:0:0:
372,92,57979,2,0,P|380:51|372:20,1,75,2|8,0:0|0:0,0:0:0:0:
269,136,58299,6,0,P|245:205|273:273,1,150,6|2,0:0|0:0,0:0:0:0:
359,346,58779,2,0,P|382:276|354:208,1,150,8|0,0:0|0:0,0:0:0:0:
166,88,59259,5,2,0:0:0:0:
176,200,59419,1,8,0:0:0:0:
269,136,59579,1,8,0:0:0:0:
110,152,59739,6,0,P|73:161|36:154,1,75,12|0,0:0|0:0,0:0:0:0:
126,44,60059,2,0,P|163:35|200:42,1,75,8|0,0:0|0:0,0:0:0:0:
269,136,60379,1,2,0:0:0:0:
169,188,60539,2,0,P|160:151|167:114,1,75,2|8,0:0|0:0,0:0:0:0:
240,272,60859,6,0,P|174:303|106:275,1,150,12|2,0:0|0:0,0:0:0:0:
36,192,61339,2,0,P|101:160|169:188,1,150,8|2,0:0|0:0,0:0:0:0:
325,296,61819,5,8,0:0:0:0:
430,256,61979,1,8,0:0:0:0:
326,211,62139,1,2,0:0:0:0:
431,171,62299,2,0,P|456:99|423:32,1,150,6|8,0:0|0:0,0:0:0:0:
340,108,62779,2,0,P|303:117|267:110,1,75,6|0,0:0|0:0,0:0:0:0:
115,44,63099,5,8,0:0:0:0:
10,84,63259,1,8,0:0:0:0:
114,129,63419,1,2,0:0:0:0:
9,169,63579,2,0,P|-16:241|17:308,1,150,6|8,0:0|0:0,0:0:0:0:
100,232,64059,2,0,P|136:222|172:229,1,75,6|0,0:0|0:0,0:0:0:0:
338,305,64379,5,8,0:0:0:0:
360,194,64539,1,8,0:0:0:0:
253,231,64699,1,2,0:0:0:0:
394,260,64859,6,0,P|429:269|465:259,1,75,6|0,0:0|0:0,0:0:0:0:
508,154,65179,2,0,P|472:144|436:154,1,75,8|0,0:0|0:0,0:0:0:0:
329,190,65499,2,0,P|293:199|257:189,1,75,2|0,0:0|0:0,0:0:0:0:
215,84,65819,2,0,P|250:74|286:84,1,75,8|0,0:0|0:0,0:0:0:0:
400,217,66139,6,0,L|382:365,1,150,6|8,0:0|0:0,0:0:0:0:
282,312,66619,2,0,L|294:221,1,75,6|2,0:0|0:0,0:0:0:0:
312,85,66939,5,8,0:0:0:0:
220,149,67099,1,8,0:0:0:0:
213,46,67259,1,8,0:0:0:0:
213,46,67339,1,8,0:0:0:0:
213,46,67419,6,0,P|170:39|126:53,1,75,12|0,0:0|0:0,0:0:0:0:
73,137,67739,2,0,P|116:144|160:130,1,75,8|0,0:0|0:0,0:0:0:0:
256,113,68059,1,2,0:0:0:0:
361,74,68219,2,0,P|370:109|362:145,1,75,2|8,0:0|0:0,0:0:0:0:
249,252,68539,6,0,P|319:226|388:250,1,150,6|2,0:0|0:0,0:0:0:0:
459,339,69019,2,0,P|389:364|320:340,1,150,8|0,0:0|0:0,0:0:0:0:
146,204,69499,5,2,0:0:0:0:
156,316,69659,1,8,0:0:0:0:
249,252,69819,1,2,0:0:0:0:
90,268,69979,6,0,P|53:277|16:270,1,75,6|0,0:0|0:0,0:0:0:0:
11,158,70299,2,0,P|48:149|85:156,1,75,8|0,0:0|0:0,0:0:0:0:
180,214,70619,1,2,0:0:0:0:
251,129,70779,2,0,P|259:91|247:51,1,75,2|8,0:0|0:0,0:0:0:0:
180,214,71099,6,0,P|246:245|314:217,1,150,12|2,0:0|0:0,0:0:0:0:
384,134,71579,2,0,P|319:102|251:130,1,150,2|8,0:0|0:0,0:0:0:0:
119,325,72059,5,8,0:0:0:0:
224,285,72219,1,8,0:0:0:0:
120,240,72379,1,2,0:0:0:0:
225,200,72539,2,0,P|250:128|217:61,1,150,6|8,0:0|0:0,0:0:0:0:
61,139,73019,2,0,P|97:145|134:137,1,75,6|0,0:0|0:0,0:0:0:0:
325,24,73339,5,8,0:0:0:0:
220,64,73499,1,8,0:0:0:0:
324,109,73659,1,2,0:0:0:0:
219,149,73819,2,0,P|194:221|227:288,1,150,6|8,0:0|0:0,0:0:0:0:
382,209,74299,2,0,P|345:202|309:211,1,75,6|0,0:0|0:0,0:0:0:0:
120,332,74619,5,8,0:0:0:0:
130,220,74779,1,8,0:0:0:0:
223,284,74939,1,2,0:0:0:0:
72,272,75099,6,0,P|35:281|-2:274,1,75,6|0,0:0|0:0,0:0:0:0:
0,159,75419,2,0,P|39:150|75:161,1,75,8|0,0:0|0:0,0:0:0:0:
163,220,75739,2,0,P|200:229|237:222,1,75,2|0,0:0|0:0,0:0:0:0:
334,167,76059,2,0,P|371:158|408:165,1,75,8|0,0:0|0:0,0:0:0:0:
406,280,76379,2,0,P|367:289|328:276,1,75,6|0,0:0|0:0,0:0:0:0:
202,155,76699,5,8,0:0:0:0:
202,155,76779,1,8,0:0:0:0:
202,155,76859,2,0,L|190:100,3,37.5,12|8|8|8,0:0|0:0|0:0|0:0,0:0:0:0:
181,47,77179,5,8,0:0:0:0:
102,128,77339,1,12,0:0:0:0:
71,20,77499,1,8,0:0:0:0:
186,128,77659,6,0,P|206:132|235:127,4,37.5,12|8|8|8|8,0:3|0:3|0:3|0:3|0:3,0:0:0:0:
73,124,78139,2,0,P|53:120|24:125,4,37.5,12|8|8|8|8,0:3|0:3|0:3|0:3|0:3,0:0:0:0:
139,214,78619,1,12,0:3:0:0:
156,246,78699,1,8,0:3:0:0:
161,283,78779,1,8,0:3:0:0:
151,319,78859,1,8,0:3:0:0:
130,350,78939,6,0,P|197:328|278:356,1,150,12|8,1:3|0:3,0:0:0:0:
349,269,79419,2,0,P|369:264|396:273,4,37.5,12|8|8|8|8,0:3|0:3|0:3|0:3|0:3,0:0:0:0:
242,233,79899,1,12,0:0:0:0:
223,201,79979,1,8,0:0:0:0:
216,164,80059,1,8,0:0:0:0:
223,127,80139,1,8,0:0:0:0:
241,95,80219,6,0,P|294:78|363:104,1,120,4|8,2:1|2:3,0:0:0:0:
435,260,80859,2,0,P|381:276|312:250,1,120,0|8,2:1|0:0,0:0:0:0:
165,185,81339,6,0,P|125:179|84:191,1,75,12|0,0:0|0:0,0:0:0:0:
217,276,81659,1,12,0:0:0:0:
240,106,81819,1,12,0:0:0:0:
322,258,81979,1,12,0:0:0:0:
165,185,82139,6,0,B|222:161|222:161|240:106|240:106|276:152|276:152|338:154|338:154|301:198|301:198|321:258|321:258|263:233|263:233|216:276|216:276|216:212|216:212|184:197,1,569.999984779358,14|0,0:0|2:0,0:0:0:0:
256,192,82859,12,0,84059,2:0:0:0:
