osu file format v14

[General]
AudioFilename: audio.mp3
AudioLeadIn: 0
PreviewTime: 56619
Countdown: 0
SampleSet: Normal
StackLeniency: 0.4
Mode: 0
LetterboxInBreaks: 0
WidescreenStoryboard: 1

[Editor]
Bookmarks: 379,5579,5979,11099,13659,18779,23899,25819,26459,28379,29019,34139,34779,36699,37339,39259,44379,45019,46939,47579,49499,52059,54619,57179,67419,80219,81339,82779,84059
DistanceSpacing: 1.2
BeatDivisor: 4
GridSize: 4
TimelineZoom: 1.3

[Metadata]
Title:Genkai Toppa x Survivor
TitleUnicode:限界突破×サバイバー
Artist:Kiyoshi Hikawa
ArtistUnicode:氷川きよし
Creator:Natsu
Version:Hard
Source:ドラゴンボール超
Tags:opening two limit break x survivor dbz goku Dragon Ball Super tv size
BeatmapID:1427517
BeatmapSetID:673464

[Difficulty]
HPDrainRate:4
CircleSize:4
OverallDifficulty:6
ApproachRate:7.5
SliderMultiplier:1.3
SliderTickRate:1

[Events]
//Background and Video events
Video,-219,"Dragon Ball Super - OPENING 2 (1080p FULL HD).avi"
0,0,"591a5b1ab4204.jpg",0,0
//Break Periods
2,11299,12834
//Storyboard Layer 0 (Background)
//Storyboard Layer 1 (Fail)
//Storyboard Layer 2 (Pass)
//Storyboard Layer 3 (Foreground)
//Storyboard Sound Samples

[TimingPoints]
-421,320,4,1,1,60,1,0
699,-100,4,1,1,5,0,0
859,-100,4,1,1,60,0,0
3099,-100,4,1,1,30,0,0
3419,-100,4,1,1,60,0,0
5899,-100,4,1,1,5,0,0
5979,-100,4,1,1,60,0,0
10139,-83.3333333333333,4,1,1,70,0,0
10299,-83.3333333333333,4,1,1,50,0,0
10459,-83.3333333333333,4,1,1,70,0,0
10619,-83.3333333333333,4,1,1,50,0,0
10779,-83.3333333333333,4,1,1,70,0,0
10939,-83.3333333333333,4,1,1,50,0,0
11099,-100,4,1,1,30,0,0
13339,-100,4,1,1,50,0,0
13579,-100,4,1,1,5,0,0
13659,-100,4,1,1,50,0,0
13739,-100,4,1,1,30,0,0
13979,-100,4,1,1,50,0,0
15579,-83.3333333333333,4,1,1,60,0,0
15979,-83.3333333333333,4,1,1,30,0,0
16219,-100,4,1,1,50,0,0
18139,-83.3333333333333,4,1,1,60,0,0
18539,-83.3333333333333,4,1,1,30,0,0
18779,-100,4,1,1,50,0,0
22619,-100,4,1,1,60,0,0
23259,-100,4,1,1,65,0,0
23899,-100,4,1,1,50,0,0
25819,-83.3333333333333,4,1,1,60,0,0
26219,-83.3333333333333,4,1,1,30,0,0
26459,-100,4,1,1,50,0,0
28379,-83.3333333333333,4,1,1,60,0,0
28779,-83.3333333333333,4,1,1,30,0,0
29019,-100,4,1,1,50,0,0
32859,-100,4,1,1,60,0,0
33499,-100,4,1,1,65,0,0
34139,-83.3333333333333,4,1,1,70,0,0
34299,-83.3333333333333,4,1,1,50,0,0
34459,-83.3333333333333,4,1,1,70,0,0
34699,-83.3333333333333,4,1,1,5,0,0
34779,-100,4,1,1,50,0,0
36699,-83.3333333333333,4,1,1,70,0,0
36859,-83.3333333333333,4,1,1,50,0,0
37019,-83.3333333333333,4,1,1,70,0,0
37259,-83.3333333333333,4,1,1,5,0,0
37339,-100,4,1,1,50,0,0
39259,-100,4,1,1,60,0,0
44379,-83.3333333333333,4,1,1,70,0,0
44539,-83.3333333333333,4,1,1,50,0,0
44699,-83.3333333333333,4,1,1,70,0,0
44939,-83.3333333333333,4,1,1,5,0,0
45019,-100,4,1,1,50,0,0
46939,-83.3333333333333,4,1,1,70,0,0
47099,-83.3333333333333,4,1,1,50,0,0
47259,-83.3333333333333,4,1,1,70,0,0
47499,-83.3333333333333,4,1,1,5,0,0
47579,-100,4,1,1,50,0,0
49499,-100,4,1,1,60,0,0
50059,-100,4,1,1,50,0,0
50779,-100,4,1,1,60,0,0
51339,-100,4,1,1,50,0,0
51739,-100,4,1,1,60,0,0
52059,-100,4,1,1,70,0,1
54619,-100,4,1,1,70,0,0
54779,-100,4,1,1,40,0,0
55099,-100,4,1,1,70,0,0
55259,-100,4,1,1,40,0,0
55579,-100,4,1,1,70,0,0
55739,-100,4,1,1,40,0,0
55899,-100,4,1,1,70,0,0
56059,-100,4,1,1,40,0,0
56219,-100,4,1,1,20,0,0
56299,-100,4,1,1,25,0,0
56379,-100,4,1,1,30,0,0
56459,-100,4,1,1,35,0,0
56539,-100,4,1,1,40,0,0
56619,-100,4,1,1,45,0,0
56699,-100,4,1,1,60,0,0
56779,-100,4,1,1,50,0,0
57179,-100,4,1,1,60,0,1
67339,-100,4,1,1,60,0,0
67419,-100,4,1,1,60,0,1
76699,-100,4,1,1,50,0,1
77659,-100,4,1,1,60,0,1
79899,-100,4,1,1,50,0,1
80219,-125,4,1,1,50,0,0
80379,-125,4,1,1,10,0,0
80539,-125,4,1,1,30,0,0
80699,-125,4,1,1,5,0,0
80859,-125,4,1,1,30,0,0
81019,-125,4,1,1,5,0,0
81179,-100,4,1,1,30,0,0
81339,-100,4,1,1,70,0,1
82139,-55.5555555555556,4,1,1,70,0,1
82459,-58.8235294117647,4,1,1,10,0,1
82779,-100,4,1,1,5,0,0
82859,-100,4,1,1,5,0,0

[Colours]
Combo1 : 191,0,0
Combo2 : 233,227,3
SliderBorder : 248,241,3
SliderTrackOverride : 0,0,0

[HitObjects]
62,133,379,6,0,L|73:208,1,65,8|4,0:3|0:0,0:0:0:0:
107,354,859,5,4,0:0:0:0:
107,354,1019,1,4,0:0:0:0:
339,309,1499,5,4,0:0:0:0:
339,309,1659,1,4,0:0:0:0:
175,141,2139,5,4,0:0:0:0:
175,141,2299,1,4,0:0:0:0:
205,294,2619,5,4,0:0:0:0:
313,181,2939,2,0,P|346:174|388:187,2,65,4|4|4,0:0|2:3|2:3,0:0:0:0:
251,229,3419,5,4,0:0:0:0:
251,229,3579,1,4,0:0:0:0:
483,184,4059,5,4,0:0:0:0:
483,184,4219,1,4,0:0:0:0:
319,16,4699,5,4,0:0:0:0:
319,16,4859,1,4,0:0:0:0:
226,141,5179,6,0,P|192:148|156:140,1,65,4|0,0:0|0:0,0:0:0:0:
14,94,5659,1,12,0:2:0:0:
162,142,5979,6,0,L|171:210,1,65,4|0,0:0|0:0,0:0:0:0:
248,167,6299,1,8,0:0:0:0:
248,167,6459,1,0,0:0:0:0:
248,167,6619,2,0,L|257:235,1,65,2|0,0:0|0:0,0:0:0:0:
330,183,6939,1,8,0:0:0:0:
330,183,7099,2,0,P|391:204|443:165,1,130,6|0,0:0|0:0,0:0:0:0:
387,67,7579,5,8,0:0:0:0:
387,67,7739,1,0,0:0:0:0:
387,67,7899,2,0,L|378:135,1,65,2|0,0:0|0:0,0:0:0:0:
305,83,8219,1,8,0:0:0:0:
305,83,8379,2,0,P|244:62|192:101,1,130,6|0,0:0|0:0,0:0:0:0:
265,199,8859,5,8,0:0:0:0:
265,199,9019,1,0,0:0:0:0:
265,199,9179,2,0,L|256:131,1,65,2|0,0:0|0:0,0:0:0:0:
183,183,9499,1,8,0:0:0:0:
183,183,9659,2,0,P|122:204|70:165,1,130,6|0,0:0|0:0,0:0:0:0:
147,55,10139,6,0,L|132:149,1,77.999997619629,4|0,0:0|0:0,0:0:0:0:
223,38,10459,2,0,L|208:132,1,77.999997619629,4|0,0:0|0:0,0:0:0:0:
298,30,10779,2,0,L|283:124,1,77.999997619629,4|0,0:0|0:0,0:0:0:0:
272,181,11099,5,14,2:3:0:0:
37,326,13659,6,0,P|19:265|41:205,1,130,12|8,0:0|0:0,0:0:0:0:
178,131,14299,2,0,P|196:192|174:252,1,130,2|8,0:0|0:0,0:0:0:0:
112,299,14779,2,0,P|173:280|233:302,1,130,2|2,0:0|0:0,0:0:0:0:
375,365,15419,1,0,0:0:0:0:
413,279,15579,6,0,P|421:241|409:204,1,77.999997619629,8|8,0:0|0:0,0:0:0:0:
340,138,15899,2,0,P|285:121|230:138,1,116.999996429443,12|8,0:0|0:0,0:0:0:0:
199,162,16219,6,0,P|181:223|203:283,1,130,12|8,0:0|0:0,0:0:0:0:
343,353,16859,2,0,P|404:371|464:349,1,130,2|8,0:0|0:0,0:0:0:0:
493,276,17339,2,0,P|512:215|490:155,1,130,2|2,0:0|0:0,0:0:0:0:
335,134,17979,1,0,0:0:0:0:
301,221,18139,6,0,P|339:230|376:218,1,77.999997619629,8|8,0:0|0:0,0:0:0:0:
457,263,18459,2,0,P|467:199|442:156,1,116.999996429443,12|8,0:0|0:0,0:0:0:0:
401,131,18779,6,0,L|269:143,1,130,6|8,1:3|0:0,0:0:0:0:
115,152,19419,2,0,L|247:164,1,130,6|8,1:3|0:0,0:0:0:0:
401,175,20059,6,0,L|269:187,1,130,6|8,1:3|0:0,0:0:0:0:
115,196,20699,2,0,L|247:208,1,130,6|12,1:3|0:0,0:0:0:0:
401,219,21339,6,0,L|269:231,1,130,6|8,1:3|0:0,0:0:0:0:
115,240,21979,2,0,L|247:252,1,130,6|8,1:3|0:0,0:0:0:0:
401,263,22619,6,0,L|269:275,1,130,6|8,1:3|0:0,0:0:0:0:
115,284,23259,2,0,L|247:296,1,130,6|8,1:3|0:0,0:0:0:0:
392,339,23899,6,0,P|369:280|387:219,1,130,4|8,0:0|0:0,0:0:0:0:
452,64,24539,2,0,P|475:123|457:184,1,130,2|8,0:0|0:0,0:0:0:0:
387,219,25019,2,0,P|327:242|266:224,1,130,2|2,0:0|0:0,0:0:0:0:
137,136,25659,1,0,0:0:0:0:
63,193,25819,6,0,P|50:230|67:274,1,77.999997619629,8|8,0:0|0:0,0:0:0:0:
135,323,26139,2,0,P|189:342|243:324,1,116.999996429443,12|8,0:0|0:0,0:0:0:0:
275,300,26459,6,0,P|298:240|280:179,1,130,4|8,0:0|0:0,0:0:0:0:
220,19,27099,2,0,P|196:78|214:139,1,130,2|8,0:0|0:0,0:0:0:0:
280,179,27579,2,0,P|339:202|400:184,1,130,2|2,0:0|0:0,0:0:0:0:
506,69,28219,1,0,0:0:0:0:
419,32,28379,6,0,P|382:19|338:36,1,77.999997619629,8|8,0:0|0:0,0:0:0:0:
289,104,28699,2,0,P|270:158|287:212,1,116.999996429443,12|8,0:0|0:0,0:0:0:0:
307,246,29019,6,0,L|265:376,1,130,6|8,1:3|0:0,0:0:0:0:
206,225,29659,2,0,L|248:355,1,130,6|8,1:3|0:0,0:0:0:0:
307,205,30299,6,0,L|265:335,1,130,6|8,1:3|0:0,0:0:0:0:
206,184,30939,2,0,L|248:314,1,130,6|12,1:3|0:0,0:0:0:0:
307,164,31579,6,0,L|265:294,1,130,6|8,1:3|0:0,0:0:0:0:
206,143,32219,2,0,L|248:273,1,130,6|8,1:3|0:0,0:0:0:0:
307,123,32859,6,0,L|265:253,1,130,6|8,1:3|0:0,0:0:0:0:
206,102,33499,2,0,L|248:232,1,130,6|12,1:3|0:0,0:0:0:0:
415,307,34139,6,0,P|454:317|500:305,1,77.999997619629,6|2,1:3|2:1,0:0:0:0:
356,223,34459,2,0,P|304:207|244:226,1,116.999996429443,6|0,1:3|2:0,0:0:0:0:
214,248,34779,6,0,L|200:114,1,130,4|8,0:0|0:0,0:0:0:0:
47,147,35419,2,0,L|56:230,1,65,2|0,0:0|0:0,0:0:0:0:
174,310,35899,2,0,P|231:321|281:274,1,130,0|0,0:0|0:0,0:0:0:0:
299,199,36379,1,8,0:0:0:0:
216,30,36699,6,0,P|177:20|131:32,1,77.999997619629,6|2,1:3|2:1,0:0:0:0:
275,114,37019,2,0,P|326:129|387:111,1,116.999996429443,6|0,1:3|2:0,0:0:0:0:
413,84,37339,6,0,L|399:218,1,130,4|8,0:0|0:0,0:0:0:0:
250,261,37979,2,0,L|259:178,1,65,2|0,0:0|0:0,0:0:0:0:
306,49,38459,2,0,P|363:38|413:85,1,130,0|0,0:0|0:0,0:0:0:0:
432,158,38939,1,8,0:0:0:0:
340,285,39259,6,0,P|309:291|277:286,1,65,4|0,0:0|0:0,0:0:0:0:
208,250,39579,2,0,P|176:244|144:251,1,65,8|0,0:0|0:0,0:0:0:0:
72,280,39899,1,2,0:0:0:0:
16,224,40059,2,0,P|9:189|21:152,1,65,8|8,1:3|0:0,0:0:0:0:
135,59,40539,6,0,P|166:52|198:57,1,65,4|8,0:0|0:0,0:0:0:0:
268,94,40859,2,0,P|299:99|331:92,1,65,8|0,0:0|0:0,0:0:0:0:
404,64,41179,1,2,0:0:0:0:
460,120,41339,2,0,P|467:155|455:192,1,65,8|8,0:0|0:0,0:0:0:0:
346,291,41819,6,0,P|287:313|225:296,1,130,6|8,0:0|0:0,0:0:0:0:
221,218,42299,2,0,P|280:195|342:212,1,130,2|2,0:0|0:0,0:0:0:0:
410,249,42779,1,8,0:0:0:0:
506,126,43099,6,0,L|513:87,4,32.5,12|8|8|8|8,0:0|0:0|0:0|0:0|0:0,0:0:0:0:
428,132,43579,2,0,L|422:163,4,32.5,8|8|8|8|8,0:0|0:0|0:0|0:0|0:0,0:0:0:0:
353,109,44059,2,0,L|360:70,3,32.5,12|8|8|8,0:0|0:0|0:0|0:0,0:0:0:0:
312,80,44379,6,0,P|274:89|236:80,1,77.999997619629,6|2,1:3|2:1,0:0:0:0:
399,19,44699,2,0,P|450:3|510:21,1,116.999996429443,6|0,1:3|2:0,0:0:0:0:
507,59,45019,6,0,L|492:196,1,130,4|8,0:0|0:0,0:0:0:0:
350,251,45659,2,0,L|356:186,1,65,2|0,0:0|0:0,0:0:0:0:
223,105,46139,2,0,P|161:126|101:104,1,130,0|0,0:0|0:0,0:0:0:0:
41,55,46619,1,12,0:0:0:0:
100,252,46939,6,0,P|109:290|100:328,1,77.999997619629,6|2,1:3|2:1,0:0:0:0:
39,165,47259,2,0,P|23:114|41:54,1,116.999996429443,6|0,1:3|2:0,0:0:0:0:
71,30,47579,6,0,L|208:45,1,130,4|8,0:0|0:0,0:0:0:0:
329,132,48219,2,0,L|264:126,1,65,2|0,0:0|0:0,0:0:0:0:
131,209,48699,2,0,P|152:271|130:331,1,130,0|0,0:0|0:0,0:0:0:0:
193,377,49179,2,0,L|223:346,3,32.5,8|8|8|8,0:0|0:0|0:0|0:0,0:0:0:0:
242,321,49499,5,4,0:0:0:0:
242,321,49659,1,4,0:0:0:0:
130,211,49979,2,0,P|127:192|132:171,6,32.5,4|8|8|8|8|8|8,0:0|0:0|0:0|0:0|0:0|0:0|0:0,0:0:0:0:
246,325,50779,5,4,0:0:0:0:
246,325,50939,1,4,0:0:0:0:
353,212,51259,2,0,P|356:193|351:172,4,32.5,12|8|8|8|8,0:0|0:0|0:0|0:0|0:0,0:0:0:0:
304,273,51739,1,4,0:0:0:0:
178,200,52059,5,12,1:3:0:0:
178,200,52219,1,8,1:3:0:0:
178,200,52379,1,8,1:3:0:0:
106,230,52539,2,0,P|73:223|31:239,2,65,12|8|8,1:3|1:3|1:3,0:0:0:0:
174,285,53019,5,12,1:3:0:0:
174,285,53179,1,8,1:3:0:0:
174,285,53339,1,8,1:3:0:0:
246,255,53499,2,0,P|278:263|313:252,2,65,12|8|8,1:3|1:3|1:3,0:0:0:0:
182,219,53979,5,12,1:3:0:0:
182,219,54139,1,8,1:3:0:0:
249,179,54299,1,8,1:3:0:0:
249,179,54459,1,8,1:3:0:0:
246,255,54619,5,6,1:3:0:0:
12,246,55099,1,6,1:3:0:0:
87,22,55579,5,6,1:3:0:0:
125,173,55899,1,6,1:3:0:0:
253,82,56219,6,0,P|274:77|296:85,4,32.5,8|8|8|8|8,0:0|0:0|0:0|0:0|0:0,0:0:0:0:
200,139,56699,5,12,0:0:0:0:
178,63,56859,1,8,0:0:0:0:
251,197,57179,6,0,P|315:216|384:191,1,130,6|8,0:0|0:0,0:0:0:0:
495,100,57819,1,2,0:0:0:0:
451,165,57979,2,0,P|445:196|452:228,1,65,2|8,0:0|0:0,0:0:0:0:
494,293,58299,6,0,P|430:274|361:299,1,130,6|2,0:0|0:0,0:0:0:0:
298,320,58779,2,0,P|236:337|175:318,1,130,8|0,0:0|0:0,0:0:0:0:
121,275,59259,5,2,0:0:0:0:
121,275,59419,1,8,0:0:0:0:
121,275,59579,1,8,0:0:0:0:
174,217,59739,6,0,P|238:198|307:223,1,130,12|8,0:0|0:0,0:0:0:0:
429,299,60379,1,2,0:0:0:0:
385,234,60539,2,0,P|378:203|387:169,1,65,2|8,0:0|0:0,0:0:0:0:
446,121,60859,6,0,P|382:140|313:115,1,130,12|2,0:0|0:0,0:0:0:0:
254,84,61339,2,0,P|192:66|131:85,1,130,8|2,0:0|0:0,0:0:0:0:
75,140,61819,5,8,0:0:0:0:
117,205,61979,1,8,0:0:0:0:
39,209,62139,1,2,0:0:0:0:
75,140,62299,2,0,P|129:128|188:177,1,130,6|8,0:0|0:0,0:0:0:0:
117,205,62779,1,6,0:0:0:0:
267,165,63099,5,8,0:0:0:0:
309,230,63259,1,8,0:0:0:0:
231,234,63419,1,2,0:0:0:0:
267,165,63579,2,0,P|321:153|380:202,1,130,6|8,0:0|0:0,0:0:0:0:
309,230,64059,1,6,0:0:0:0:
208,349,64379,5,8,0:0:0:0:
208,349,64539,1,8,0:0:0:0:
208,349,64699,1,2,0:0:0:0:
144,303,64859,6,0,P|125:241|147:181,1,130,6|8,0:0|0:0,0:0:0:0:
285,109,65499,2,0,P|303:170|281:230,1,130,2|8,0:0|0:0,0:0:0:0:
144,303,66139,6,0,P|80:334|16:296,1,130,6|8,0:0|0:0,0:0:0:0:
83,256,66619,1,6,0:0:0:0:
229,192,66939,5,8,0:0:0:0:
229,192,67099,1,8,0:0:0:0:
229,192,67259,1,8,0:0:0:0:
299,224,67419,6,0,P|322:283|296:354,1,130,12|8,0:0|0:0,0:0:0:0:
151,383,68059,1,2,0:0:0:0:
103,321,68219,2,0,P|94:286|102:254,1,65,2|8,0:0|0:0,0:0:0:0:
141,191,68539,6,0,P|200:169|261:189,1,130,6|2,0:0|0:0,0:0:0:0:
309,252,69019,2,0,P|286:192|306:131,1,130,8|0,0:0|0:0,0:0:0:0:
369,84,69499,5,2,0:0:0:0:
369,84,69659,1,8,0:0:0:0:
369,84,69819,1,2,0:0:0:0:
294,56,69979,6,0,P|263:49|231:56,1,65,6|0,0:0|0:0,0:0:0:0:
200,128,70299,2,0,P|231:135|263:128,1,65,8|0,0:0|0:0,0:0:0:0:
341,161,70619,1,2,0:0:0:0:
341,161,70779,2,0,L|351:247,1,65,2|8,0:0|0:0,0:0:0:0:
316,297,71099,6,0,P|256:274|195:294,1,130,12|2,0:0|0:0,0:0:0:0:
142,351,71579,2,0,P|164:291|144:230,1,130,2|8,0:0|0:0,0:0:0:0:
75,193,72059,5,8,0:0:0:0:
117,128,72219,1,8,0:0:0:0:
39,124,72379,1,2,0:0:0:0:
75,193,72539,2,0,P|129:205|188:156,1,130,6|8,0:0|0:0,0:0:0:0:
117,128,73019,1,6,0:0:0:0:
266,171,73339,5,8,0:0:0:0:
308,106,73499,1,8,0:0:0:0:
230,102,73659,1,2,0:0:0:0:
266,171,73819,2,0,P|320:183|379:134,1,130,6|8,0:0|0:0,0:0:0:0:
308,106,74299,1,6,0:0:0:0:
453,186,74619,5,8,0:0:0:0:
453,186,74779,1,8,0:0:0:0:
453,186,74939,1,2,0:0:0:0:
380,215,75099,6,0,P|358:274|387:345,1,130,6|8,0:0|0:0,0:0:0:0:
226,298,75739,2,0,P|166:276|96:305,1,130,2|8,0:0|0:0,0:0:0:0:
158,149,76379,2,0,P|179:89|151:19,2,130,6|8|8,0:0|0:0|0:0,0:0:0:0:
100,202,77179,5,8,0:0:0:0:
100,202,77339,1,12,0:0:0:0:
100,202,77499,1,8,0:0:0:0:
48,260,77659,6,0,L|44:298,4,32.5,12|8|8|8|8,0:3|0:3|0:3|0:3|0:3,0:0:0:0:
123,280,78139,2,0,L|119:318,4,32.5,12|8|8|8|8,0:3|0:3|0:3|0:3|0:3,0:0:0:0:
199,296,78619,2,0,L|195:334,3,32.5,12|8|8|8,0:3|0:3|0:3|0:3,0:0:0:0:
234,322,78939,6,0,P|294:343|364:317,1,130,12|8,1:3|0:3,0:0:0:0:
402,260,79419,2,0,L|406:222,4,32.5,12|8|8|8|8,0:3|0:3|0:3|0:3|0:3,0:0:0:0:
336,217,79899,2,0,L|340:179,4,32.5,12|8|8|8|4,0:0|0:0|0:0|0:0|2:1,0:0:0:0:
242,124,81339,6,0,L|244:36,1,65,12|0,0:0|0:0,0:0:0:0:
322,162,81659,1,12,0:0:0:0:
308,244,81819,1,12,0:0:0:0:
223,259,81979,1,12,0:0:0:0:
183,186,82139,6,0,B|228:167|228:167|243:123|243:123|271:160|271:160|321:161|321:161|291:196|291:196|307:244|307:244|261:224|261:224|224:259|224:259|224:207|224:207|198:195,1,467.999985717774,14|0,0:0|2:0,0:0:0:0:
256,192,82859,12,0,84059,2:0:0:0:
