osu file format v14

[General]
AudioFilename: audio.mp3
AudioLeadIn: 0
PreviewTime: 56619
Countdown: 0
SampleSet: Normal
StackLeniency: 0.4
Mode: 0
LetterboxInBreaks: 0
WidescreenStoryboard: 1

[Editor]
Bookmarks: 379,5979,11099,13659,18779,23899,25819,26459,28379,29019,34139,34779,36699,37339,39259,44379,45019,46939,47579,49499,52059,54619,57179,67419,80219,81339,82779,84059
DistanceSpacing: 1.8
BeatDivisor: 4
GridSize: 4
TimelineZoom: 1

[Metadata]
Title:Genkai Toppa x Survivor
TitleUnicode:限界突破×サバイバー
Artist:Kiyoshi Hikawa
ArtistUnicode:氷川きよし
Creator:Natsu
Version:Expert
Source:ドラゴンボール超
Tags:opening two limit break x survivor dbz goku Dragon Ball Super tv size
BeatmapID:1427259
BeatmapSetID:673464

[Difficulty]
HPDrainRate:5
CircleSize:4
OverallDifficulty:8
ApproachRate:9
SliderMultiplier:1.6
SliderTickRate:1

[Events]
//Background and Video events
Video,-219,"Dragon Ball Super - OPENING 2 (1080p FULL HD).avi"
0,0,"591a5b1ab4204.jpg",0,0
//Break Periods
//Storyboard Layer 0 (Background)
//Storyboard Layer 1 (Fail)
//Storyboard Layer 2 (Pass)
//Storyboard Layer 3 (Foreground)
//Storyboard Sound Samples

[TimingPoints]
-421,320,4,1,1,60,1,0
779,-100,4,1,1,5,0,0
859,-100,4,1,1,60,0,0
2779,-100,4,1,1,5,0,0
2939,-100,4,1,1,60,0,0
3099,-100,4,1,1,30,0,0
3419,-100,4,1,1,60,0,0
5899,-100,4,1,1,5,0,0
5979,-100,4,1,1,60,0,0
10139,-100,4,1,1,70,0,0
10299,-100,4,1,1,50,0,0
10459,-83.3333333333333,4,1,1,70,0,0
10619,-83.3333333333333,4,1,1,50,0,0
10779,-71.4285714285714,4,1,1,70,0,0
10939,-71.4285714285714,4,1,1,50,0,0
11099,-166.666666666667,4,1,1,30,0,0
13339,-100,4,1,1,50,0,0
13579,-100,4,1,1,5,0,0
13659,-111.111111111111,4,1,1,50,0,0
13739,-111.111111111111,4,1,1,30,0,0
13979,-111.111111111111,4,1,1,50,0,0
15579,-83.3333333333333,4,1,1,60,0,0
15979,-83.3333333333333,4,1,1,30,0,0
16219,-111.111111111111,4,1,1,50,0,0
18139,-83.3333333333333,4,1,1,60,0,0
18539,-83.3333333333333,4,1,1,30,0,0
18779,-111.111111111111,4,1,1,50,0,0
22619,-111.111111111111,4,1,1,60,0,0
23259,-111.111111111111,4,1,1,65,0,0
23899,-111.111111111111,4,1,1,50,0,0
25819,-83.3333333333333,4,1,1,60,0,0
26219,-83.3333333333333,4,1,1,30,0,0
26459,-111.111111111111,4,1,1,50,0,0
28379,-83.3333333333333,4,1,1,60,0,0
28779,-83.3333333333333,4,1,1,30,0,0
29019,-111.111111111111,4,1,1,50,0,0
32859,-111.111111111111,4,1,1,60,0,0
33499,-111.111111111111,4,1,1,65,0,0
34139,-83.3333333333333,4,1,1,70,0,0
34299,-83.3333333333333,4,1,1,50,0,0
34459,-83.3333333333333,4,1,1,70,0,0
34699,-83.3333333333333,4,1,1,5,0,0
34779,-111.111111111111,4,1,1,50,0,0
36699,-83.3333333333333,4,1,1,70,0,0
36859,-83.3333333333333,4,1,1,50,0,0
37019,-83.3333333333333,4,1,1,70,0,0
37259,-83.3333333333333,4,1,1,5,0,0
37339,-111.111111111111,4,1,1,50,0,0
39259,-111.111111111111,4,1,1,60,0,0
44379,-83.3333333333333,4,1,1,70,0,0
44539,-83.3333333333333,4,1,1,50,0,0
44699,-83.3333333333333,4,1,1,70,0,0
44939,-83.3333333333333,4,1,1,5,0,0
45019,-111.111111111111,4,1,1,50,0,0
46939,-83.3333333333333,4,1,1,70,0,0
47099,-83.3333333333333,4,1,1,50,0,0
47259,-83.3333333333333,4,1,1,70,0,0
47499,-83.3333333333333,4,1,1,5,0,0
47579,-111.111111111111,4,1,1,50,0,0
49499,-100,4,1,1,60,0,0
50059,-100,4,1,1,50,0,0
50779,-100,4,1,1,60,0,0
51339,-100,4,1,1,50,0,0
51739,-100,4,1,1,60,0,0
52059,-100,4,1,1,70,0,1
54619,-90.9090909090909,4,1,1,70,0,0
54779,-90.9090909090909,4,1,1,40,0,0
55099,-83.3333333333333,4,1,1,70,0,0
55259,-83.3333333333333,4,1,1,40,0,0
55579,-76.9230769230769,4,1,1,70,0,0
55739,-76.9230769230769,4,1,1,40,0,0
55899,-71.4285714285714,4,1,1,70,0,0
56059,-71.4285714285714,4,1,1,40,0,0
56219,-100,4,1,1,20,0,0
56299,-100,4,1,1,25,0,0
56379,-100,4,1,1,30,0,0
56459,-100,4,1,1,35,0,0
56539,-100,4,1,1,40,0,0
56619,-100,4,1,1,45,0,0
56699,-100,4,1,1,60,0,0
56779,-100,4,1,1,50,0,0
57179,-100,4,1,1,60,0,1
67339,-100,4,1,1,60,0,0
67419,-100,4,1,1,60,0,1
76699,-100,4,1,1,50,0,1
77659,-100,4,1,1,60,0,1
79899,-100,4,1,1,50,0,1
80219,-125,4,1,1,50,0,0
80379,-125,4,1,1,10,0,0
80539,-142.857142857143,4,1,1,30,0,0
80699,-142.857142857143,4,1,1,5,0,0
80859,-166.666666666667,4,1,1,30,0,0
81019,-166.666666666667,4,1,1,5,0,0
81179,-100,4,1,1,30,0,0
81339,-100,4,1,1,70,0,1
82139,-58.8235294117647,4,1,1,70,0,1
82459,-58.8235294117647,4,1,1,10,0,1
82779,-100,4,1,1,5,0,0
82859,-100,4,1,1,5,0,0

[Colours]
Combo1 : 191,0,0
Combo2 : 233,227,3
SliderBorder : 248,241,3
SliderTrackOverride : 0,0,0

[HitObjects]
392,255,379,5,8,0:3:0:0:
408,136,539,2,0,L|391:270,1,120,4|0,0:0|2:0,0:0:0:0:
382,330,859,5,4,0:0:0:0:
177,260,1019,1,4,0:0:0:0:
177,260,1499,5,4,0:0:0:0:
382,190,1659,1,4,0:0:0:0:
382,190,2139,5,4,0:0:0:0:
177,120,2299,1,4,0:0:0:0:
177,120,2619,6,0,P|167:81|176:39,1,80,4|0,0:0|2:0,0:0:0:0:
382,190,2939,2,0,P|392:229|383:271,2,80,4|4|4,0:0|2:3|2:3,0:0:0:0:
177,120,3419,5,4,0:0:0:0:
382,190,3579,1,4,0:0:0:0:
382,190,4059,5,4,0:0:0:0:
177,260,4219,1,4,0:0:0:0:
177,260,4699,5,4,0:0:0:0:
382,330,4859,1,4,0:0:0:0:
382,330,5179,6,0,P|371:292|382:250,1,80,4|0,0:0|0:0,0:0:0:0:
380,253,5659,6,0,L|258:258,1,120,12|0,0:2|2:0,0:0:0:0:
213,313,5979,5,4,0:0:0:0:
146,171,6139,1,0,0:0:0:0:
35,312,6299,1,8,0:0:0:0:
177,245,6459,1,0,0:0:0:0:
38,136,6619,1,2,0:0:0:0:
105,278,6779,1,0,0:0:0:0:
209,140,6939,1,8,0:0:0:0:
67,207,7099,2,0,P|25:266|59:343,1,160,6|0,0:0|0:0,0:0:0:0:
247,345,7579,5,8,0:0:0:0:
105,278,7739,1,0,0:0:0:0:
242,171,7899,1,2,0:0:0:0:
175,313,8059,1,0,0:0:0:0:
67,176,8219,1,8,0:0:0:0:
209,243,8379,2,0,P|279:243|319:159,1,160,6|0,0:0|0:0,0:0:0:0:
127,64,8859,5,8,0:0:0:0:
242,171,9019,1,0,0:0:0:0:
74,235,9179,1,2,0:0:0:0:
181,120,9339,1,0,0:0:0:0:
234,293,9499,1,8,0:0:0:0:
127,178,9659,2,0,P|50:161|-3:233,1,160,6|0,0:0|0:0,0:0:0:0:
234,293,10139,6,0,L|229:210,1,80,4|0,0:0|0:0,0:0:0:0:
353,330,10459,6,0,L|346:216,1,95.9999970703126,4|0,0:0|0:0,0:0:0:0:
472,356,10779,6,0,L|463:237,1,111.999996582031,4|0,0:0|0:0,0:0:0:0:
365,133,11099,6,0,P|337:129|304:141,2,47.9999985351563,14|2|14,2:3|2:3|2:3,0:0:0:0:
463,244,11739,1,10,2:3:0:0:
512,107,12059,1,14,2:3:0:0:
512,107,12219,1,2,2:3:0:0:
365,133,12539,1,2,2:3:0:0:
468,248,12859,1,2,2:3:0:0:
468,248,13019,1,10,2:3:0:0:
414,58,13339,6,0,P|359:39|304:62,1,120,8|0,3:0|2:0,0:0:0:0:
238,32,13659,6,0,P|231:66|242:100,1,71.9999978027344,12|12,0:0|0:0,0:0:0:0:
366,186,13979,2,0,P|373:151|362:117,1,71.9999978027344,8|0,0:0|0:0,0:0:0:0:
238,32,14299,2,0,L|62:45,1,143.999995605469,2|8,0:0|0:0,0:0:0:0:
25,164,14779,2,0,P|17:198|28:232,1,71.9999978027344,2|0,0:0|0:0,0:0:0:0:
152,317,15099,2,0,P|159:282|148:248,1,71.9999978027344,2|8,0:0|0:0,0:0:0:0:
25,164,15419,1,0,0:0:0:0:
112,372,15579,6,0,L|224:359,1,95.9999970703126,8|8,0:0|0:0,0:0:0:0:
371,333,15899,1,12,0:0:0:0:
389,299,15979,1,8,0:0:0:0:
395,261,16059,1,8,0:0:0:0:
386,224,16139,1,8,0:0:0:0:
365,193,16219,6,0,P|328:184|287:194,1,71.9999978027344,12|0,0:0|0:0,0:0:0:0:
146,190,16539,2,0,P|184:200|225:190,1,71.9999978027344,8|0,0:0|0:0,0:0:0:0:
364,116,16859,2,0,L|364:264,1,143.999995605469,2|8,0:0|0:0,0:0:0:0:
223,284,17339,2,0,P|185:274|144:284,1,71.9999978027344,2|0,0:0|0:0,0:0:0:0:
4,281,17659,2,0,P|41:290|82:280,1,71.9999978027344,2|8,0:0|0:0,0:0:0:0:
216,193,17979,1,0,0:0:0:0:
35,115,18139,6,0,P|22:160|36:205,1,95.9999970703126,8|8,0:0|0:0,0:0:0:0:
116,341,18459,1,12,0:0:0:0:
149,359,18539,1,8,0:0:0:0:
187,365,18619,1,8,0:0:0:0:
224,356,18699,1,8,0:0:0:0:
255,335,18779,6,0,P|320:355|404:316,1,143.999995605469,6|8,1:3|0:0,0:0:0:0:
413,213,19259,1,2,0:0:0:0:
257,315,19419,6,0,P|192:335|108:296,1,143.999995605469,6|8,1:3|0:0,0:0:0:0:
99,193,19899,1,2,0:0:0:0:
255,295,20059,6,0,P|320:315|404:276,1,143.999995605469,6|8,1:3|0:0,0:0:0:0:
413,173,20539,1,2,0:0:0:0:
257,275,20699,6,0,P|192:295|108:256,1,143.999995605469,6|12,1:3|0:0,0:0:0:0:
99,153,21179,1,2,0:0:0:0:
255,255,21339,6,0,P|320:275|404:236,1,143.999995605469,6|8,1:3|0:0,0:0:0:0:
413,133,21819,1,2,0:0:0:0:
257,235,21979,6,0,P|192:255|108:216,1,143.999995605469,6|8,1:3|0:0,0:0:0:0:
99,113,22459,1,2,0:0:0:0:
238,67,22619,6,0,P|245:102|240:137,1,71.9999978027344,6|8,1:3|0:0,0:0:0:0:
125,300,22939,2,0,P|117:264|122:229,1,71.9999978027344,8|8,0:0|0:0,0:0:0:0:
238,67,23259,5,6,1:3:0:0:
238,242,23419,1,8,0:0:0:0:
135,100,23579,1,8,0:0:0:0:
301,154,23739,1,8,0:0:0:0:
135,208,23899,6,0,P|99:215|60:209,1,71.9999978027344,4|0,0:0|0:0,0:0:0:0:
0,86,24219,2,0,P|35:78|75:85,1,71.9999978027344,8|0,0:0|0:0,0:0:0:0:
135,208,24539,2,0,L|152:378,1,143.999995605469,2|8,0:0|0:0,0:0:0:0:
282,366,25019,2,0,P|317:373|357:367,1,71.9999978027344,2|0,0:0|0:0,0:0:0:0:
417,244,25339,2,0,P|381:236|342:243,1,71.9999978027344,2|8,0:0|0:0,0:0:0:0:
219,310,25659,1,0,0:0:0:0:
91,147,25819,6,0,P|78:192|99:246,1,95.9999970703126,8|8,0:0|0:0,0:0:0:0:
219,310,26139,1,12,0:0:0:0:
252,328,26219,1,8,0:0:0:0:
290,334,26299,1,8,0:0:0:0:
327,325,26379,1,8,0:0:0:0:
358,304,26459,6,0,P|366:268|353:227,1,71.9999978027344,4|0,0:0|0:0,0:0:0:0:
264,122,26779,2,0,P|256:158|269:199,1,71.9999978027344,8|0,0:0|0:0,0:0:0:0:
358,304,27099,2,0,L|507:292,1,143.999995605469,2|8,0:0|0:0,0:0:0:0:
512,169,27579,2,0,P|520:133|507:92,1,71.9999978027344,2|0,0:0|0:0,0:0:0:0:
418,0,27899,2,0,P|410:36|423:77,1,71.9999978027344,2|8,0:0|0:0,0:0:0:0:
512,169,28219,1,0,0:0:0:0:
289,104,28379,6,0,P|278:151|290:196,1,95.9999970703126,8|8,0:0|0:0,0:0:0:0:
340,323,28699,1,12,0:0:0:0:
373,341,28779,1,8,0:0:0:0:
411,347,28859,1,8,0:0:0:0:
448,338,28939,1,8,0:0:0:0:
479,317,29019,6,0,P|407:277|337:290,1,143.999995605469,6|8,1:3|0:0,0:0:0:0:
214,368,29499,1,2,0:0:0:0:
33,297,29659,6,0,P|105:257|175:270,1,143.999995605469,6|8,1:3|0:0,0:0:0:0:
298,348,30139,1,2,0:0:0:0:
479,277,30299,6,0,P|407:237|337:250,1,143.999995605469,6|8,1:3|0:0,0:0:0:0:
214,328,30779,1,2,0:0:0:0:
33,257,30939,6,0,P|105:217|175:230,1,143.999995605469,6|12,1:3|0:0,0:0:0:0:
298,308,31419,1,2,0:0:0:0:
479,237,31579,6,0,P|407:197|337:210,1,143.999995605469,6|8,1:3|0:0,0:0:0:0:
214,288,32059,1,2,0:0:0:0:
33,217,32219,6,0,P|105:177|175:190,1,143.999995605469,6|8,1:3|0:0,0:0:0:0:
298,268,32699,1,2,0:0:0:0:
424,137,32859,6,0,P|433:172|423:220,1,71.9999978027344,6|8,1:3|0:0,0:0:0:0:
302,338,33179,2,0,P|293:303|303:255,1,71.9999978027344,8|8,0:0|0:0,0:0:0:0:
424,137,33499,5,6,1:3:0:0:
424,312,33659,1,8,0:0:0:0:
321,170,33819,1,12,0:0:0:0:
487,224,33979,1,8,0:0:0:0:
321,278,34139,6,0,P|274:290|222:276,1,95.9999970703126,6|2,1:3|2:1,0:0:0:0:
47,223,34459,2,0,P|111:196|186:226,1,143.999995605469,6|0,1:3|2:0,0:0:0:0:
228,279,34779,6,0,P|236:314|224:356,1,71.9999978027344,4|0,0:0|0:0,0:0:0:0:
47,292,35099,2,0,P|39:257|51:215,1,71.9999978027344,8|0,0:0|0:0,0:0:0:0:
170,146,35419,1,2,0:0:0:0:
228,279,35579,2,0,P|265:285|304:276,1,71.9999978027344,0|8,0:0|0:0,0:0:0:0:
422,200,35899,2,0,L|433:363,1,143.999995605469,0|0,0:0|0:0,0:0:0:0:
298,278,36379,2,0,L|293:195,1,71.9999978027344,8|0,0:0|0:0,0:0:0:0:
276,45,36699,6,0,P|229:33|177:47,1,95.9999970703126,6|2,1:3|2:1,0:0:0:0:
2,100,37019,2,0,P|66:127|141:97,1,143.999995605469,6|0,1:3|2:0,0:0:0:0:
211,113,37339,6,0,L|216:195,1,71.9999978027344,4|0,0:0|0:0,0:0:0:0:
86,260,37659,2,0,L|81:178,1,71.9999978027344,8|0,0:0|0:0,0:0:0:0:
211,113,37979,1,2,0:0:0:0:
320,209,38139,2,0,P|356:219|400:204,1,71.9999978027344,0|8,0:0|0:0,0:0:0:0:
506,137,38459,2,0,L|498:295,1,143.999995605469,0|0,0:0|0:0,0:0:0:0:
381,357,38939,1,8,0:0:0:0:
346,369,39019,1,8,0:0:0:0:
310,367,39099,1,8,0:0:0:0:
278,353,39179,1,8,0:0:0:0:
252,328,39259,6,0,P|242:292|251:254,1,71.9999978027344,4|0,0:0|0:0,0:0:0:0:
368,149,39579,2,0,P|378:185|369:223,1,71.9999978027344,8|0,0:0|0:0,0:0:0:0:
248,258,39899,1,2,0:0:0:0:
155,166,40059,2,0,P|189:157|224:162,1,71.9999978027344,8|8,1:3|0:0,0:0:0:0:
508,247,40539,6,0,P|473:256|438:251,1,71.9999978027344,4|8,0:0|0:0,0:0:0:0:
313,159,40859,2,0,P|347:149|382:154,1,71.9999978027344,8|0,0:0|0:0,0:0:0:0:
508,247,41179,1,2,0:0:0:0:
397,340,41339,1,8,0:0:0:0:
397,340,41419,1,8,0:0:0:0:
397,340,41499,2,0,P|380:344|349:341,3,35.9999989013672,8|8|8|8,0:0|0:0|0:0|0:0,0:0:0:0:
298,310,41819,6,0,P|224:286|146:323,1,143.999995605469,6|8,0:0|0:0,0:0:0:0:
39,367,42299,2,0,P|63:293|26:215,1,143.999995605469,2|2,0:0|0:0,0:0:0:0:
0,100,42779,2,0,P|33:109|84:95,1,71.9999978027344,8|0,0:0|0:0,0:0:0:0:
252,29,43099,5,12,0:0:0:0:
267,61,43179,1,8,0:0:0:0:
271,97,43259,1,8,0:0:0:0:
264,132,43339,1,8,0:0:0:0:
245,163,43419,1,8,0:0:0:0:
174,293,43579,2,0,P|170:318|176:343,4,35.9999989013672,8|8|8|8|8,0:0|0:0|0:0|0:0|0:0,0:0:0:0:
338,208,44059,1,12,0:0:0:0:
373,214,44139,1,8,0:0:0:0:
408,209,44219,1,8,0:0:0:0:
440,193,44299,1,8,0:0:0:0:
464,166,44379,6,0,P|476:119|460:69,1,95.9999970703126,6|2,1:3|2:1,0:0:0:0:
280,139,44699,2,0,P|249:208|283:278,1,143.999995605469,6|0,1:3|2:0,0:0:0:0:
341,306,45019,6,0,P|376:315|423:304,1,71.9999978027344,4|0,0:0|0:0,0:0:0:0:
464,166,45339,2,0,P|429:157|382:168,1,71.9999978027344,8|0,0:0|0:0,0:0:0:0:
272,268,45659,1,2,0:0:0:0:
184,151,45819,2,0,P|177:113|184:81,1,71.9999978027344,0|8,0:0|0:0,0:0:0:0:
249,192,46139,2,0,P|184:228|118:191,1,143.999995605469,0|0,0:0|0:0,0:0:0:0:
27,109,46619,2,0,L|33:184,1,71.9999978027344,12|0,0:0|0:0,0:0:0:0:
134,372,46939,6,0,P|181:384|231:368,1,95.9999970703126,6|2,1:3|2:1,0:0:0:0:
161,173,47259,2,0,P|94:149|31:180,1,143.999995605469,6|0,1:3|2:0,0:0:0:0:
6,248,47579,6,0,P|1:281|13:324,1,71.9999978027344,4|0,0:0|0:0,0:0:0:0:
165,243,47899,2,0,P|169:209|158:167,1,71.9999978027344,8|0,0:0|0:0,0:0:0:0:
52,76,48219,1,2,0:0:0:0:
160,172,48379,2,0,P|196:181|242:168,1,71.9999978027344,0|8,0:0|0:0,0:0:0:0:
365,105,48699,2,0,L|351:255,1,143.999995605469,0|0,0:0|0:0,0:0:0:0:
238,347,49179,1,8,0:0:0:0:
206,362,49259,1,8,0:0:0:0:
170,364,49339,1,8,0:0:0:0:
136,352,49419,1,8,0:0:0:0:
111,327,49499,5,4,0:0:0:0:
49,187,49659,2,0,P|86:175|125:182,1,80,4|0,0:0|0:0,0:0:0:0:
273,247,49979,1,4,0:0:0:0:
273,247,50059,1,8,0:0:0:0:
273,247,50139,2,0,P|299:252|333:245,3,40,8|8|8|8,0:0|0:0|0:0|0:0,0:0:0:0:
378,215,50459,2,0,P|416:208|455:215,1,80,8|0,0:0|0:0,0:0:0:0:
331,348,50779,5,4,0:0:0:0:
201,285,50939,2,0,P|191:244|208:198,1,80,4|0,0:0|0:0,0:0:0:0:
272,50,51259,1,12,0:0:0:0:
308,36,51339,1,8,0:0:0:0:
343,53,51419,1,8,0:0:0:0:
354,90,51499,1,8,0:0:0:0:
335,123,51579,1,8,0:0:0:0:
201,208,51739,2,0,P|157:219|121:210,1,80,4|0,0:0|0:0,0:0:0:0:
7,106,52059,5,12,1:3:0:0:
158,142,52219,1,8,1:3:0:0:
51,258,52379,1,8,1:3:0:0:
93,76,52539,5,12,1:3:0:0:
245,114,52699,1,8,1:3:0:0:
139,229,52859,1,8,1:3:0:0:
186,45,53019,5,12,1:3:0:0:
337,83,53179,1,8,1:3:0:0:
231,199,53339,1,8,1:3:0:0:
278,14,53499,5,12,1:3:0:0:
430,52,53659,1,8,1:3:0:0:
324,167,53819,1,8,1:3:0:0:
360,11,53979,5,12,1:3:0:0:
413,213,54139,1,8,1:3:0:0:
458,5,54299,1,8,1:3:0:0:
511,207,54459,1,8,1:3:0:0:
309,93,54619,6,0,P|264:83|224:92,1,88.000002685547,6|0,1:3|2:0,0:0:0:0:
0,330,55099,6,0,P|45:343|92:333,1,95.9999970703126,6|0,1:3|2:0,0:0:0:0:
309,93,55579,6,0,P|357:77|418:96,1,103.999995239258,6|0,1:3|2:0,0:0:0:0:
423,276,55899,2,0,P|364:290|303:270,1,111.999996582031,6|0,1:3|2:0,0:0:0:0:
163,192,56219,6,0,P|140:187|116:195,4,40,8|8|8|8|8,0:0|0:0|0:0|0:0|0:0,0:0:0:0:
315,277,56699,6,0,L|320:328,1,40,12|8,0:0|0:0,0:0:0:0:
406,281,56859,2,0,L|445:324,1,40,8|8,0:0|0:0,0:0:0:0:
473,225,57019,2,0,L|518:231,1,40,8|8,0:0|0:0,0:0:0:0:
498,140,57179,6,0,P|507:102|492:55,1,80,6|0,0:0|0:0,0:0:0:0:
271,19,57499,2,0,P|262:57|277:104,1,80,8|0,0:0|0:0,0:0:0:0:
418,182,57819,1,2,0:0:0:0:
272,95,57979,2,0,P|231:87|194:97,1,80,2|8,0:0|0:0,0:0:0:0:
94,290,58299,6,0,P|167:317|240:289,1,160,6|2,0:0|0:0,0:0:0:0:
418,94,58779,2,0,P|344:66|271:94,1,160,8|0,0:0|0:0,0:0:0:0:
166,223,59259,5,2,0:0:0:0:
331,252,59419,1,8,0:0:0:0:
279,102,59579,1,8,0:0:0:0:
279,102,59659,1,8,0:0:0:0:
279,102,59739,6,0,P|267:136|278:187,1,80,12|0,0:0|0:0,0:0:0:0:
432,326,60059,2,0,P|443:291|433:241,1,80,8|0,0:0|0:0,0:0:0:0:
344,146,60379,1,2,0:0:0:0:
228,275,60539,2,0,P|262:286|313:276,1,80,2|8,0:0|0:0,0:0:0:0:
492,146,60859,6,0,P|418:120|344:146,1,160,12|2,0:0|0:0,0:0:0:0:
228,275,61339,2,0,P|222:311|243:358,2,80,8|2|2,0:0|0:0|0:0,0:0:0:0:
344,145,61819,5,8,0:0:0:0:
126,227,61979,1,8,0:0:0:0:
354,290,62139,1,2,0:0:0:0:
136,372,62299,2,0,P|111:336|148:205,1,160,6|8,0:0|0:0,0:0:0:0:
354,290,62779,2,0,P|313:304|271:294,1,80,6|0,0:0|0:0,0:0:0:0:
88,144,63099,5,8,0:0:0:0:
306,226,63259,1,8,0:0:0:0:
78,289,63419,1,2,0:0:0:0:
296,371,63579,2,0,P|321:335|284:204,1,160,6|8,0:0|0:0,0:0:0:0:
78,289,64059,2,0,P|119:303|161:293,1,80,6|0,0:0|0:0,0:0:0:0:
264,145,64379,5,8,0:0:0:0:
126,225,64539,1,8,0:0:0:0:
126,64,64699,1,2,0:0:0:0:
235,246,64859,6,0,P|273:255|310:244,1,80,6|0,0:0|0:0,0:0:0:0:
262,69,65179,2,0,P|252:107|263:144,1,80,8|0,0:0|0:0,0:0:0:0:
432,103,65499,2,0,P|394:94|357:105,1,80,2|0,0:0|0:0,0:0:0:0:
405,280,65819,2,0,P|415:242|404:205,1,80,8|0,0:0|0:0,0:0:0:0:
262,69,66139,5,6,0:0:0:0:
235,246,66299,2,0,P|273:255|310:244,1,80,0|8,0:0|0:0,0:0:0:0:
262,69,66619,2,0,P|223:59|186:70,1,80,6|2,0:0|0:0,0:0:0:0:
89,224,66939,5,8,0:0:0:0:
227,144,67099,1,8,0:0:0:0:
96,70,67259,1,8,0:0:0:0:
96,70,67339,1,8,0:0:0:0:
96,70,67419,6,0,P|57:60|15:71,1,80,12|0,0:0|0:0,0:0:0:0:
49,293,67739,2,0,P|88:303|130:292,1,80,8|0,0:0|0:0,0:0:0:0:
256,192,68059,1,2,0:0:0:0:
87,141,68219,2,0,P|77:180|88:222,1,80,2|8,0:0|0:0,0:0:0:0:
261,341,68539,6,0,P|282:265|255:191,1,160,6|2,0:0|0:0,0:0:0:0:
25,104,69019,2,0,P|3:179|24:257,1,160,8|0,0:0|0:0,0:0:0:0:
224,352,69499,5,2,0:0:0:0:
243,193,69659,1,8,0:0:0:0:
94,257,69819,1,2,0:0:0:0:
301,317,69979,5,6,0:0:0:0:
240,108,70139,1,0,0:0:0:0:
224,352,70299,1,8,0:0:0:0:
162,142,70459,1,0,0:0:0:0:
150,384,70619,1,2,0:0:0:0:
90,175,70779,2,0,P|82:137|97:95,1,80,2|8,0:0|0:0,0:0:0:0:
300,153,71099,6,0,P|328:229|296:300,1,160,12|2,0:0|0:0,0:0:0:0:
76,304,71579,2,0,P|34:296|-2:308,2,80,2|2|8,0:0|0:0|0:0,0:0:0:0:
321,368,72059,5,8,0:0:0:0:
239,150,72219,1,8,0:0:0:0:
176,378,72379,1,2,0:0:0:0:
94,160,72539,2,0,P|130:135|261:172,1,160,6|8,0:0|0:0,0:0:0:0:
176,378,73019,2,0,P|162:341|169:301,1,80,6|0,0:0|0:0,0:0:0:0:
328,112,73339,5,8,0:0:0:0:
246,330,73499,1,8,0:0:0:0:
183,102,73659,1,2,0:0:0:0:
101,320,73819,2,0,P|137:345|268:308,1,160,6|8,0:0|0:0,0:0:0:0:
183,102,74299,2,0,P|169:139|176:179,1,80,6|0,0:0|0:0,0:0:0:0:
327,293,74619,5,8,0:0:0:0:
412,158,74779,1,8,0:0:0:0:
252,151,74939,1,2,0:0:0:0:
417,291,75099,6,0,P|456:300|495:289,1,80,6|0,0:0|0:0,0:0:0:0:
449,86,75419,2,0,P|410:77|371:88,1,80,8|0,0:0|0:0,0:0:0:0:
225,270,75739,2,0,P|264:279|303:268,1,80,2|0,0:0|0:0,0:0:0:0:
257,65,76059,2,0,P|218:56|179:67,1,80,8|0,0:0|0:0,0:0:0:0:
50,243,76379,2,0,P|89:252|128:241,1,80,6|0,0:0|0:0,0:0:0:0:
265,73,76699,5,8,0:0:0:0:
265,73,76779,1,8,0:0:0:0:
265,73,76859,2,0,P|289:68|315:75,3,40,12|8|8|8,0:0|0:0|0:0|0:0,0:0:0:0:
379,87,77179,5,8,0:0:0:0:
493,199,77339,1,12,0:0:0:0:
341,244,77499,1,8,0:0:0:0:
312,45,77659,5,12,0:3:0:0:
340,17,77739,1,8,0:3:0:0:
378,6,77819,1,8,0:3:0:0:
416,16,77899,1,8,0:3:0:0:
445,43,77979,1,8,0:3:0:0:
493,199,78139,2,0,P|500:227|494:261,4,40,12|8|8|8|8,0:3|0:3|0:3|0:3|0:3,0:0:0:0:
341,244,78619,1,12,0:3:0:0:
306,263,78699,1,8,0:3:0:0:
267,270,78779,1,8,0:3:0:0:
227,265,78859,1,8,0:3:0:0:
191,248,78939,6,0,P|162:169|189:99,1,160,12|8,1:3|0:3,0:0:0:0:
342,44,79419,2,0,P|364:39|389:46,4,40,12|8|8|8|8,0:3|0:3|0:3|0:3|0:3,0:0:0:0:
186,101,79899,1,12,0:0:0:0:
151,121,79979,1,8,0:0:0:0:
112,129,80059,1,8,0:0:0:0:
73,126,80139,1,8,0:0:0:0:
36,109,80219,6,0,L|21:256,2,128,4|8|0,2:1|2:3|2:1,0:0:0:0:
379,215,81179,1,8,0:0:0:0:
169,113,81339,6,0,L|160:206,1,80,12|0,0:0|0:0,0:0:0:0:
379,215,81659,1,12,0:0:0:0:
169,113,81819,1,12,0:0:0:0:
278,313,81979,1,12,0:0:0:0:
275,88,82139,6,0,B|328:66|328:66|345:14|345:14|378:57|378:57|436:59|436:59|401:100|401:100|420:156|420:156|366:133|366:133|322:173|322:173|322:113|322:113|292:99,1,544.000010375977,14|0,0:0|2:0,0:0:0:0:
256,192,82859,12,0,84059,2:0:0:0:
