osu file format v14

[General]
AudioFilename: audio.mp3
AudioLeadIn: 0
PreviewTime: 56619
Countdown: 0
SampleSet: Normal
StackLeniency: 0.4
Mode: 0
LetterboxInBreaks: 0
WidescreenStoryboard: 1

[Editor]
Bookmarks: 379,5579,5979,11099,13659,18779,23899,25819,26459,28379,29019,34139,34779,36699,37339,39259,44379,45019,46939,47579,49499,52059,54619,57179,67419,80219,81339,82779,84059
DistanceSpacing: 1.1
BeatDivisor: 2
GridSize: 4
TimelineZoom: 1

[Metadata]
Title:Genkai Toppa x Survivor
TitleUnicode:限界突破×サバイバー
Artist:Kiyoshi Hikawa
ArtistUnicode:氷川きよし
Creator:Natsu
Version:Easy
Source:ドラゴンボール超
Tags:opening two limit break x survivor dbz goku Dragon Ball Super tv size
BeatmapID:1427574
BeatmapSetID:673464

[Difficulty]
HPDrainRate:2
CircleSize:2
OverallDifficulty:2
ApproachRate:3
SliderMultiplier:0.8
SliderTickRate:1

[Events]
//Background and Video events
Video,-219,"Dragon Ball Super - OPENING 2 (1080p FULL HD).avi"
0,0,"591a5b1ab4204.jpg",0,0
//Break Periods
2,10979,12219
//Storyboard Layer 0 (Background)
//Storyboard Layer 1 (Fail)
//Storyboard Layer 2 (Pass)
//Storyboard Layer 3 (Foreground)
//Storyboard Sound Samples

[TimingPoints]
-421,320,4,1,1,60,1,0
699,-100,4,1,1,5,0,0
859,-100,4,1,1,60,0,0
3099,-100,4,1,1,30,0,0
3419,-100,4,1,1,60,0,0
5899,-100,4,1,1,5,0,0
5979,-100,4,1,1,60,0,0
10139,-100,4,1,1,70,0,0
10299,-100,4,1,1,50,0,0
10459,-100,4,1,1,70,0,0
10619,-100,4,1,1,50,0,0
10779,-100,4,1,1,70,0,0
10939,-100,4,1,1,50,0,0
11099,-100,4,1,1,30,0,0
13339,-100,4,1,1,50,0,0
13579,-100,4,1,1,5,0,0
13659,-100,4,1,1,50,0,0
13739,-100,4,1,1,30,0,0
13979,-100,4,1,1,50,0,0
15579,-100,4,1,1,60,0,0
15979,-100,4,1,1,30,0,0
16219,-100,4,1,1,50,0,0
18139,-100,4,1,1,60,0,0
18239,-100,4,1,1,30,0,0
18779,-100,4,1,1,50,0,0
22619,-100,4,1,1,60,0,0
23259,-100,4,1,1,65,0,0
23899,-100,4,1,1,50,0,0
25819,-100,4,1,1,60,0,0
26219,-100,4,1,1,30,0,0
26459,-100,4,1,1,50,0,0
28379,-100,4,1,1,60,0,0
28779,-100,4,1,1,30,0,0
29019,-100,4,1,1,50,0,0
32859,-100,4,1,1,60,0,0
33499,-100,4,1,1,65,0,0
34139,-100,4,1,1,70,0,0
34299,-100,4,1,1,50,0,0
34459,-100,4,1,1,70,0,0
34699,-100,4,1,1,5,0,0
34779,-100,4,1,1,50,0,0
36699,-100,4,1,1,70,0,0
36859,-100,4,1,1,50,0,0
37019,-100,4,1,1,70,0,0
37259,-100,4,1,1,5,0,0
37339,-100,4,1,1,50,0,0
39259,-100,4,1,1,60,0,0
44379,-100,4,1,1,70,0,0
44539,-100,4,1,1,50,0,0
44699,-100,4,1,1,70,0,0
44939,-100,4,1,1,5,0,0
45019,-100,4,1,1,50,0,0
46939,-100,4,1,1,70,0,0
47099,-100,4,1,1,50,0,0
47259,-100,4,1,1,70,0,0
47499,-100,4,1,1,5,0,0
47579,-100,4,1,1,50,0,0
49499,-100,4,1,1,60,0,0
50059,-100,4,1,1,50,0,0
50779,-100,4,1,1,60,0,0
51339,-100,4,1,1,50,0,0
51739,-100,4,1,1,60,0,0
52059,-100,4,1,1,70,0,1
54619,-100,4,1,1,70,0,0
54779,-100,4,1,1,40,0,0
55099,-100,4,1,1,70,0,0
55259,-100,4,1,1,40,0,0
55579,-100,4,1,1,70,0,0
55739,-100,4,1,1,40,0,0
55899,-100,4,1,1,70,0,0
56059,-100,4,1,1,40,0,0
56219,-100,4,1,1,20,0,0
56299,-100,4,1,1,25,0,0
56379,-100,4,1,1,30,0,0
56459,-100,4,1,1,35,0,0
56539,-100,4,1,1,40,0,0
56619,-100,4,1,1,45,0,0
56699,-100,4,1,1,60,0,0
56779,-100,4,1,1,50,0,0
57179,-100,4,1,1,60,0,1
67339,-100,4,1,1,60,0,0
67419,-100,4,1,1,60,0,1
76699,-100,4,1,1,50,0,1
77659,-100,4,1,1,60,0,1
79899,-100,4,1,1,50,0,1
80219,-100,4,1,1,50,0,0
80379,-100,4,1,1,10,0,0
80539,-100,4,1,1,30,0,0
80699,-100,4,1,1,5,0,0
80859,-100,4,1,1,30,0,0
81019,-100,4,1,1,5,0,0
81179,-100,4,1,1,30,0,0
81339,-100,4,1,1,70,0,1
82139,-100,4,1,1,70,0,1
82459,-100,4,1,1,10,0,1
82779,-100,4,1,1,5,0,0
82859,-100,4,1,1,5,0,0

[Colours]
Combo1 : 191,0,0
Combo2 : 233,227,3
SliderBorder : 248,241,3
SliderTrackOverride : 0,0,0

[HitObjects]
456,126,379,6,0,L|451:165,1,40,8|4,0:3|0:0,0:0:0:0:
368,197,859,6,0,L|363:157,1,40,4|4,0:0|0:0,0:0:0:0:
244,99,1499,2,0,L|239:138,1,40,4|4,0:0|0:0,0:0:0:0:
115,187,2139,2,0,L|110:147,1,40,4|4,0:0|0:0,0:0:0:0:
60,74,2619,2,0,P|96:59|138:64,1,80,4|4,0:0|0:0,0:0:0:0:
267,78,3419,6,0,L|307:83,1,40,4|4,0:0|0:0,0:0:0:0:
381,192,4059,2,0,L|342:197,1,40,4|4,0:0|0:0,0:0:0:0:
283,316,4699,2,0,L|323:321,1,40,4|4,0:0|0:0,0:0:0:0:
391,375,5179,2,0,P|409:328|383:258,1,120,4|12,0:0|0:2,0:0:0:0:
310,223,5979,6,0,L|204:222,1,80,4|8,0:0|0:0,0:0:0:0:
164,280,6619,2,0,P|142:226|159:169,1,120,2|6,0:0|0:0,0:0:0:0:
271,98,7579,2,0,L|378:98,1,80,8|2,0:0|0:0,0:0:0:0:
418,154,8219,2,0,L|398:204,1,40,8|6,0:0|0:0,0:0:0:0:
338,306,8859,2,0,L|231:306,1,80,8|2,0:0|0:0,0:0:0:0:
181,262,9499,2,0,L|201:212,1,40,8|6,0:0|0:0,0:0:0:0:
252,105,10139,6,0,P|295:96|349:116,2,80,4|4|4,0:0|0:0|0:0,0:0:0:0:
179,126,13659,6,0,P|171:164|180:203,1,80,12|8,0:0|0:0,0:0:0:0:
251,256,14299,2,0,P|259:294|251:333,1,80,2|8,0:0|0:0,0:0:0:0:
207,344,14779,2,0,L|108:345,1,80,2|2,0:0|0:0,0:0:0:0:
45,311,15419,2,0,L|85:256,1,40,0|8,0:0|0:0,0:0:0:0:
158,127,16219,6,0,P|196:135|235:126,1,80,12|8,0:0|0:0,0:0:0:0:
292,58,16859,2,0,P|330:49|369:57,1,80,2|8,0:0|0:0,0:0:0:0:
394,93,17339,2,0,L|395:192,1,80,2|2,0:0|0:0,0:0:0:0:
355,252,17979,2,0,L|300:212,1,40,0|8,0:0|0:0,0:0:0:0:
185,117,18779,5,6,1:3:0:0:
150,289,19419,1,6,1:3:0:0:
317,235,20059,1,6,1:3:0:0:
185,117,20699,1,6,1:3:0:0:
149,289,21339,6,0,P|226:319|314:287,1,160,6|6,1:3|1:3,0:0:0:0:
335,126,22619,2,0,P|407:97|483:116,1,160,6|6,1:3|1:3,0:0:0:0:
488,292,23899,6,0,L|408:292,1,80,4|8,0:0|0:0,0:0:0:0:
321,308,24539,2,0,P|281:314|242:307,1,80,2|8,0:0|0:0,0:0:0:0:
202,288,25019,2,0,P|162:281|123:288,1,80,2|2,0:0|0:0,0:0:0:0:
40,316,25659,2,0,L|32:267,1,40,0|8,0:0|0:0,0:0:0:0:
154,147,26459,6,0,P|193:153|232:146,1,80,4|8,0:0|0:0,0:0:0:0:
235,57,27099,2,0,P|195:50|156:57,1,80,2|8,0:0|0:0,0:0:0:0:
113,64,27579,2,0,P|73:70|34:63,1,80,2|2,0:0|0:0,0:0:0:0:
15,149,28219,2,0,L|7:198,1,40,0|8,0:0|0:0,0:0:0:0:
113,329,29019,5,6,1:3:0:0:
277,266,29659,1,6,1:3:0:0:
138,157,30299,1,6,1:3:0:0:
113,329,30939,1,6,1:3:0:0:
277,266,31579,6,0,P|304:194|271:107,1,160,6|6,1:3|1:3,0:0:0:0:
126,30,32859,2,0,P|99:102|132:189,1,160,6|6,1:3|1:3,0:0:0:0:
237,313,34139,6,0,L|267:228,1,80,6|6,1:3|1:3,0:0:0:0:
295,155,34779,6,0,P|335:147|389:162,1,80,4|8,0:0|0:0,0:0:0:0:
455,184,35419,2,0,L|465:244,1,40,2|0,0:0|0:0,0:0:0:0:
477,310,35899,2,0,P|422:328|365:310,1,120,0|8,0:0|0:0,0:0:0:0:
291,260,36699,6,0,L|261:345,1,80,6|6,1:3|1:3,0:0:0:0:
177,350,37339,6,0,P|137:342|83:357,1,80,4|8,0:0|0:0,0:0:0:0:
18,314,37979,2,0,L|20:265,1,40,2|0,0:0|0:0,0:0:0:0:
24,186,38459,2,0,P|2:132|23:73,1,120,0|8,0:0|0:0,0:0:0:0:
90,129,39259,6,0,L|197:129,1,80,4|8,0:0|0:0,0:0:0:0:
252,160,39899,2,0,L|233:212,1,40,2|8,0:0|1:3,0:0:0:0:
184,318,40539,2,0,L|77:318,1,80,4|8,0:0|0:0,0:0:0:0:
26,276,41179,2,0,L|45:224,1,40,2|8,0:0|0:0,0:0:0:0:
78,112,41819,6,0,P|128:93|191:112,2,120,6|2|8,0:0|0:0|0:0,0:0:0:0:
134,179,43099,2,0,P|186:198|246:176,2,120,12|8|12,0:0|0:0|0:0,0:0:0:0:
48,201,44379,6,0,L|33:301,1,80,6|6,1:3|1:3,0:0:0:0:
113,322,45019,6,0,P|153:331|201:320,1,80,4|8,0:0|0:0,0:0:0:0:
267,280,45659,2,0,L|280:226,1,40,2|0,0:0|0:0,0:0:0:0:
333,174,46139,2,0,P|274:154|211:182,1,120,0|12,0:0|0:0,0:0:0:0:
157,233,46939,6,0,L|142:333,1,80,6|6,1:3|1:3,0:0:0:0:
215,365,47579,6,0,P|255:356|303:367,1,80,4|8,0:0|0:0,0:0:0:0:
380,364,48219,2,0,L|393:310,1,40,2|0,0:0|0:0,0:0:0:0:
446,257,48699,2,0,P|387:237|324:265,1,120,0|8,0:0|0:0,0:0:0:0:
251,282,49499,6,0,L|238:228,1,40,4|4,0:0|0:0,0:0:0:0:
184,176,49979,2,0,P|242:156|306:184,1,120,4|8,0:0|0:0,0:0:0:0:
383,183,50779,2,0,L|396:129,1,40,4|4,0:0|0:0,0:0:0:0:
449,77,51259,2,0,P|390:57|327:85,1,120,12|4,0:0|0:0,0:0:0:0:
281,143,52059,6,0,P|211:223|261:59,1,560,12|8,1:3|1:3,0:0:0:0:
337,75,54619,6,0,P|394:90|466:70,1,120,6|6,1:3|1:3,0:0:0:0:
463,208,55579,2,0,P|454:251|470:298,1,80,6|6,1:3|1:3,0:0:0:0:
246,326,56699,6,0,L|164:327,1,80,12|8,0:0|0:0,0:0:0:0:
122,326,57179,2,0,P|130:284|111:235,1,80,6|8,0:0|0:0,0:0:0:0:
119,160,57819,2,0,L|176:160,1,40,2|2,0:0|0:0,0:0:0:0:
227,105,58299,2,0,P|247:158|219:225,1,120,6|8,0:0|0:0,0:0:0:0:
305,322,59259,6,0,L|387:323,1,80,2|8,0:0|0:0,0:0:0:0:
402,282,59739,2,0,P|394:240|413:191,1,80,12|8,0:0|0:0,0:0:0:0:
344,140,60379,2,0,L|287:140,1,40,2|2,0:0|0:0,0:0:0:0:
235,84,60859,2,0,P|215:134|246:206,1,120,12|8,0:0|0:0,0:0:0:0:
329,286,61819,6,0,L|338:349,2,40,8|8|2,0:0|0:0|0:0,0:0:0:0:
288,304,62299,2,0,P|233:324|160:299,1,120,6|6,0:0|0:0,0:0:0:0:
120,240,63099,2,0,L|111:177,2,40,8|8|2,0:0|0:0|0:0,0:0:0:0:
159,220,63579,2,0,P|214:200|287:225,1,120,6|6,0:0|0:0,0:0:0:0:
351,253,64379,6,0,P|360:215|351:177,1,80,8|2,0:0|0:0,0:0:0:0:
327,138,64859,2,0,P|317:99|327:61,1,80,6|8,0:0|0:0,0:0:0:0:
241,40,65499,2,0,L|147:55,1,80,2|8,0:0|0:0,0:0:0:0:
109,122,66139,2,0,L|243:142,1,120,6|6,0:0|0:0,0:0:0:0:
280,210,66939,2,0,L|186:225,1,80,8|8,0:0|0:0,0:0:0:0:
159,237,67419,6,0,P|169:275|161:313,1,80,12|8,0:0|0:0,0:0:0:0:
80,276,68059,2,0,L|61:232,1,40,2|2,0:0|0:0,0:0:0:0:
40,154,68539,2,0,P|52:97|31:41,1,120,6|8,0:0|0:0,0:0:0:0:
162,52,69499,6,0,P|200:60|240:54,1,80,2|2,0:0|0:0,0:0:0:0:
284,51,69979,2,0,P|323:44|362:53,1,80,6|8,0:0|0:0,0:0:0:0:
441,89,70619,2,0,L|427:141,1,40,2|2,0:0|0:0,0:0:0:0:
398,209,71099,2,0,P|343:228|285:214,1,120,12|2,0:0|0:0,0:0:0:0:
194,117,72059,6,0,L|202:63,2,40,8|8|2,0:0|0:0|0:0,0:0:0:0:
156,94,72539,2,0,P|99:80|44:99,1,120,6|6,0:0|0:0,0:0:0:0:
5,179,73339,2,0,L|-3:233,2,40,8|8|2,0:0|0:0|0:0,0:0:0:0:
40,204,73819,2,0,P|97:218|152:199,1,120,6|6,0:0|0:0,0:0:0:0:
234,162,74619,6,0,P|272:155|312:161,1,80,8|2,0:0|0:0,0:0:0:0:
351,181,75099,2,0,P|390:187|429:179,1,80,6|8,0:0|0:0,0:0:0:0:
443,92,75739,2,0,P|403:85|364:93,1,80,2|8,0:0|0:0,0:0:0:0:
278,112,76379,2,0,P|222:128|156:111,1,120,6|12,0:0|0:0,0:0:0:0:
89,66,77179,2,0,P|50:58|10:64,1,80,8|8,0:0|0:0,0:0:0:0:
11,108,77659,6,0,P|-10:160|12:218,2,120,12|12|12,0:3|0:3|0:3,0:0:0:0:
78,163,78939,2,0,P|99:215|77:273,2,120,12|12|12,1:3|0:3|0:0,0:0:0:0:
11,107,80219,1,4,2:1:0:0:
313,47,81339,6,0,P|324:84|317:123,1,80,12|12,0:0|0:0,0:0:0:0:
298,164,81819,2,0,P|290:202|302:240,1,80,12|14,0:0|0:0,0:0:0:0:
256,192,82299,12,0,84059,2:0:0:0:
