osu file format v14

[General]
AudioFilename: audio.mp3
AudioLeadIn: 0
PreviewTime: 56619
Countdown: 0
SampleSet: Normal
StackLeniency: 0.4
Mode: 0
LetterboxInBreaks: 0
WidescreenStoryboard: 1

[Editor]
Bookmarks: 379,5579,5979,11099,13659,18779,23899,25819,26459,28379,29019,34139,34779,36699,37339,39259,44379,45019,46939,47579,49499,52059,54619,57179,67419,80219,81339,82779,84059
DistanceSpacing: 1
BeatDivisor: 2
GridSize: 4
TimelineZoom: 1

[Metadata]
Title:Genkai Toppa x Survivor
TitleUnicode:限界突破×サバイバー
Artist:Kiyoshi Hikawa
ArtistUnicode:氷川きよし
Creator:Natsu
Version:Normal
Source:ドラゴンボール超
Tags:opening two limit break x survivor dbz goku Dragon Ball Super tv size
BeatmapID:1427533
BeatmapSetID:673464

[Difficulty]
HPDrainRate:3
CircleSize:3
OverallDifficulty:4
ApproachRate:5
SliderMultiplier:1.1
SliderTickRate:1

[Events]
//Background and Video events
Video,-219,"Dragon Ball Super - OPENING 2 (1080p FULL HD).avi"
0,0,"591a5b1ab4204.jpg",0,0
//Break Periods
2,10979,12459
//Storyboard Layer 0 (Background)
//Storyboard Layer 1 (Fail)
//Storyboard Layer 2 (Pass)
//Storyboard Layer 3 (Foreground)
//Storyboard Sound Samples

[TimingPoints]
-421,320,4,1,1,60,1,0
699,-100,4,1,1,5,0,0
859,-100,4,1,1,60,0,0
3099,-100,4,1,1,30,0,0
3419,-100,4,1,1,60,0,0
5899,-100,4,1,1,5,0,0
5979,-100,4,1,1,60,0,0
10139,-100,4,1,1,70,0,0
10299,-100,4,1,1,50,0,0
10459,-100,4,1,1,70,0,0
10619,-100,4,1,1,50,0,0
10779,-100,4,1,1,70,0,0
10939,-100,4,1,1,50,0,0
11099,-100,4,1,1,30,0,0
13339,-100,4,1,1,50,0,0
13579,-100,4,1,1,5,0,0
13659,-100,4,1,1,50,0,0
13739,-100,4,1,1,30,0,0
13979,-100,4,1,1,50,0,0
15579,-100,4,1,1,60,0,0
15979,-100,4,1,1,30,0,0
16219,-100,4,1,1,50,0,0
18139,-100,4,1,1,60,0,0
18539,-100,4,1,1,30,0,0
18779,-100,4,1,1,50,0,0
22619,-100,4,1,1,60,0,0
23259,-100,4,1,1,65,0,0
23899,-100,4,1,1,50,0,0
25819,-100,4,1,1,60,0,0
26219,-100,4,1,1,30,0,0
26459,-100,4,1,1,50,0,0
28379,-100,4,1,1,60,0,0
28779,-100,4,1,1,30,0,0
29019,-100,4,1,1,50,0,0
32859,-100,4,1,1,60,0,0
33499,-100,4,1,1,65,0,0
34139,-100,4,1,1,70,0,0
34299,-100,4,1,1,50,0,0
34459,-100,4,1,1,70,0,0
34699,-100,4,1,1,5,0,0
34779,-100,4,1,1,50,0,0
36699,-100,4,1,1,70,0,0
36859,-100,4,1,1,50,0,0
37019,-100,4,1,1,70,0,0
37259,-100,4,1,1,5,0,0
37339,-100,4,1,1,50,0,0
39259,-100,4,1,1,60,0,0
44379,-100,4,1,1,70,0,0
44539,-100,4,1,1,50,0,0
44699,-100,4,1,1,70,0,0
44939,-100,4,1,1,5,0,0
45019,-100,4,1,1,50,0,0
46939,-100,4,1,1,70,0,0
47099,-100,4,1,1,50,0,0
47259,-100,4,1,1,70,0,0
47499,-100,4,1,1,5,0,0
47579,-100,4,1,1,50,0,0
49499,-100,4,1,1,60,0,0
50059,-100,4,1,1,50,0,0
50779,-100,4,1,1,60,0,0
51339,-100,4,1,1,50,0,0
51739,-100,4,1,1,60,0,0
52059,-100,4,1,1,70,0,1
54619,-100,4,1,1,70,0,0
54779,-100,4,1,1,40,0,0
55099,-100,4,1,1,70,0,0
55259,-100,4,1,1,40,0,0
55579,-100,4,1,1,70,0,0
55739,-100,4,1,1,40,0,0
55899,-100,4,1,1,70,0,0
56059,-100,4,1,1,40,0,0
56219,-100,4,1,1,20,0,0
56299,-100,4,1,1,25,0,0
56379,-100,4,1,1,30,0,0
56459,-100,4,1,1,35,0,0
56539,-100,4,1,1,40,0,0
56619,-100,4,1,1,45,0,0
56699,-100,4,1,1,60,0,0
56779,-100,4,1,1,50,0,0
57179,-100,4,1,1,60,0,1
67339,-100,4,1,1,60,0,0
67419,-100,4,1,1,60,0,1
76699,-100,4,1,1,50,0,1
77659,-100,4,1,1,60,0,1
79899,-100,4,1,1,50,0,1
80219,-100,4,1,1,50,0,0
80379,-100,4,1,1,10,0,0
80539,-100,4,1,1,30,0,0
80699,-100,4,1,1,5,0,0
80859,-100,4,1,1,30,0,0
81019,-100,4,1,1,5,0,0
81179,-100,4,1,1,30,0,0
81339,-100,4,1,1,70,0,1
82139,-100,4,1,1,70,0,1
82459,-100,4,1,1,10,0,1
82779,-100,4,1,1,5,0,0
82859,-100,4,1,1,5,0,0

[Colours]
Combo1 : 191,0,0
Combo2 : 233,227,3
SliderBorder : 248,241,3
SliderTrackOverride : 0,0,0

[HitObjects]
62,133,379,6,0,L|72:203,1,55,8|4,0:3|0:0,0:0:0:0:
90,295,859,5,4,0:0:0:0:
90,295,1019,1,4,0:0:0:0:
227,204,1499,2,0,P|254:197|296:210,1,55,4|4,0:0|0:0,0:0:0:0:
398,316,2139,2,0,P|432:321|459:316,1,55,4|4,0:0|0:0,0:0:0:0:
490,214,2619,2,0,P|503:160|482:92,1,110,4|4,0:0|0:0,0:0:0:0:
346,27,3419,5,4,0:0:0:0:
346,27,3579,1,4,0:0:0:0:
241,154,4059,2,0,P|233:180|237:207,1,55,4|4,0:0|0:0,0:0:0:0:
403,207,4699,2,0,P|410:180|406:153,1,55,4|4,0:0|0:0,0:0:0:0:
337,67,5179,2,0,L|169:67,1,165,4|12,0:0|0:2,0:0:0:0:
94,144,5979,6,0,P|78:191|106:261,1,110,4|8,0:0|0:0,0:0:0:0:
146,279,6459,1,0,0:0:0:0:
146,279,6619,2,0,P|193:294|263:267,1,110,2|8,0:0|0:0,0:0:0:0:
295,247,7099,2,0,P|327:241|360:251,1,55,6|0,0:0|0:0,0:0:0:0:
454,275,7579,6,0,P|460:243|450:210,1,55,8|0,0:0|0:0,0:0:0:0:
426,174,7899,2,0,P|421:147|427:120,1,55,2|0,0:0|0:0,0:0:0:0:
472,88,8219,1,8,0:0:0:0:
472,88,8379,2,0,P|478:61|473:34,1,55,6|0,0:0|0:0,0:0:0:0:
364,51,8859,6,0,P|332:57|299:47,1,55,8|0,0:0|0:0,0:0:0:0:
263,23,9179,2,0,P|236:18|209:24,1,55,2|0,0:0|0:0,0:0:0:0:
177,69,9499,1,8,0:0:0:0:
177,69,9659,2,0,P|150:75|123:70,1,55,6|0,0:0|0:0,0:0:0:0:
48,151,10139,6,0,L|54:292,2,110,4|4|4,0:0|0:0|0:0,0:0:0:0:
40,41,13659,6,0,P|23:93|39:145,1,110,12|8,0:0|0:0,0:0:0:0:
135,199,14299,2,0,P|150:251|134:302,1,110,2|8,0:0|0:0,0:0:0:0:
101,347,14779,2,0,P|153:331|204:347,1,110,2|2,0:0|0:0,0:0:0:0:
320,357,15419,1,0,0:0:0:0:
320,357,15579,2,0,P|372:372|423:356,1,110,8|12,0:0|0:0,0:0:0:0:
371,259,16219,6,0,P|319:242|267:258,1,110,12|8,0:0|0:0,0:0:0:0:
214,354,16859,2,0,P|161:369|110:353,1,110,2|8,0:0|0:0,0:0:0:0:
62,325,17339,2,0,P|46:272|62:221,1,110,2|2,0:0|0:0,0:0:0:0:
120,127,17979,1,0,0:0:0:0:
120,127,18139,2,0,P|135:74|119:23,1,110,8|12,0:0|0:0,0:0:0:0:
226,46,18779,6,0,L|338:53,1,110,6|8,1:3|0:0,0:0:0:0:
408,135,19419,2,0,L|296:142,1,110,6|8,1:3|0:0,0:0:0:0:
225,225,20059,2,0,L|337:232,1,110,6|8,1:3|0:0,0:0:0:0:
401,319,20699,2,0,L|289:326,1,110,6|12,1:3|0:0,0:0:0:0:
181,340,21339,6,0,L|69:333,1,110,6|8,1:3|0:0,0:0:0:0:
2,247,21979,2,0,L|114:240,1,110,6|8,1:3|0:0,0:0:0:0:
181,154,22619,2,0,L|69:147,1,110,6|8,1:3|0:0,0:0:0:0:
6,58,23259,2,0,L|118:51,1,110,6|8,1:3|0:0,0:0:0:0:
223,47,23899,6,0,P|276:63|328:49,1,110,4|8,0:0|0:0,0:0:0:0:
437,32,24539,2,0,P|421:84|435:136,1,110,2|8,0:0|0:0,0:0:0:0:
463,184,25019,2,0,P|410:168|358:182,1,110,2|2,0:0|0:0,0:0:0:0:
258,229,25659,1,0,0:0:0:0:
258,229,25819,2,0,P|205:243|153:227,1,110,8|12,0:0|0:0,0:0:0:0:
58,171,26459,6,0,P|73:223|59:275,1,110,4|8,0:0|0:0,0:0:0:0:
5,371,27099,2,0,P|57:355|109:369,1,110,2|8,0:0|0:0,0:0:0:0:
164,375,27579,2,0,P|148:322|162:270,1,110,2|2,0:0|0:0,0:0:0:0:
218,175,28219,1,0,0:0:0:0:
218,175,28379,2,0,P|232:122|216:70,1,110,8|12,0:0|0:0,0:0:0:0:
114,30,29019,6,0,L|4:40,1,110,6|8,1:3|0:0,0:0:0:0:
16,150,29659,2,0,L|125:139,1,110,6|8,1:3|0:0,0:0:0:0:
131,249,30299,2,0,L|21:259,1,110,6|8,1:3|0:0,0:0:0:0:
33,369,30939,2,0,L|142:358,1,110,6|12,1:3|0:0,0:0:0:0:
252,359,31579,6,0,L|361:348,1,110,6|8,1:3|0:0,0:0:0:0:
350,239,32219,2,0,L|240:249,1,110,6|8,1:3|0:0,0:0:0:0:
235,140,32859,2,0,L|344:129,1,110,6|8,1:3|0:0,0:0:0:0:
333,20,33499,2,0,L|223:30,1,110,6|12,1:3|0:0,0:0:0:0:
115,51,34139,5,6,1:3:0:0:
115,51,34459,1,6,1:3:0:0:
186,134,34779,6,0,P|235:147|303:125,1,110,4|8,0:0|0:0,0:0:0:0:
378,206,35419,2,0,P|384:232|381:259,1,55,2|0,0:0|0:0,0:0:0:0:
303,337,35899,2,0,B|217:374|217:295|145:329,1,165,0|8,0:0|0:0,0:0:0:0:
52,276,36699,5,6,1:3:0:0:
52,276,37019,1,6,1:3:0:0:
101,178,37339,6,0,P|153:166|206:181,1,110,4|8,0:0|0:0,0:0:0:0:
313,166,37979,2,0,P|319:139|316:112,1,55,2|0,0:0|0:0,0:0:0:0:
238,35,38459,2,0,B|152:-2|152:76|80:42,1,165,0|8,0:0|0:0,0:0:0:0:
21,135,39259,6,0,L|32:261,1,110,4|8,0:0|0:0,0:0:0:0:
124,314,39899,1,2,0:0:0:0:
124,314,40059,2,0,P|155:308|195:318,1,55,8|8,1:3|0:0,0:0:0:0:
282,345,40539,2,0,P|334:356|391:343,1,110,4|8,0:0|0:0,0:0:0:0:
469,269,41179,1,2,0:0:0:0:
469,269,41339,2,0,L|472:205,1,55,8|8,0:0|0:0,0:0:0:0:
422,115,41819,6,0,P|370:132|318:117,1,110,6|8,0:0|0:0,0:0:0:0:
271,88,42299,2,0,P|218:73|167:90,1,110,2|2,0:0|0:0,0:0:0:0:
126,127,42779,1,8,0:0:0:0:
69,221,43099,2,0,P|120:238|172:223,1,110,12|8,0:0|0:0,0:0:0:0:
220,194,43579,2,0,P|272:179|370:245,1,165,8|12,0:0|0:0,0:0:0:0:
425,325,44379,5,6,1:3:0:0:
425,325,44699,1,6,1:3:0:0:
363,231,45019,6,0,P|305:250|256:236,1,110,4|8,0:0|0:0,0:0:0:0:
185,160,45659,2,0,P|180:128|189:100,1,55,2|0,0:0|0:0,0:0:0:0:
279,49,46139,2,0,L|97:49,1,165,0|12,0:0|0:0,0:0:0:0:
59,144,46939,5,6,1:3:0:0:
59,144,47259,1,6,1:3:0:0:
119,236,47579,6,0,P|176:216|226:231,1,110,4|8,0:0|0:0,0:0:0:0:
327,263,48219,2,0,P|332:295|323:323,1,55,2|0,0:0|0:0,0:0:0:0:
233,374,48699,2,0,L|415:374,1,165,0|8,0:0|0:0,0:0:0:0:
486,308,49499,5,4,0:0:0:0:
486,308,49659,1,4,0:0:0:0:
406,232,49979,2,0,P|374:157|400:80,1,165,4|8,0:0|0:0,0:0:0:0:
306,35,50779,5,4,0:0:0:0:
306,35,50939,1,4,0:0:0:0:
232,116,51259,2,0,P|177:130|119:115,1,110,12|8,0:0|0:0,0:0:0:0:
77,91,51739,1,4,0:0:0:0:
23,186,52059,6,0,L|10:261,2,55,12|8|8,1:3|1:3|1:3,0:0:0:0:
67,218,52539,2,0,L|81:284,2,55,12|8|8,1:3|1:3|1:3,0:0:0:0:
121,223,53019,2,0,L|158:278,2,55,12|8|8,1:3|1:3|1:3,0:0:0:0:
176,220,53499,2,0,L|241:255,2,55,12|8|8,1:3|1:3|1:3,0:0:0:0:
222,190,53979,2,0,B|232:140|232:140|210:85|210:85|220:19,1,165,12|8,1:3|1:3,0:0:0:0:
273,28,54619,5,6,1:3:0:0:
437,22,55099,1,6,1:3:0:0:
350,163,55579,2,0,P|336:215|351:268,1,110,6|6,1:3|1:3,0:0:0:0:
86,344,56699,6,0,L|27:347,2,55,12|8|8,0:0|0:0|0:0,0:0:0:0:
140,341,57179,2,0,P|121:290|134:237,1,110,6|8,0:0|0:0,0:0:0:0:
222,172,57819,2,0,L|287:172,1,55,2|2,0:0|0:0,0:0:0:0:
370,114,58299,2,0,P|388:164|375:217,1,110,6|2,0:0|0:0,0:0:0:0:
335,255,58779,2,0,L|270:255,1,55,8|0,0:0|0:0,0:0:0:0:
185,198,59259,6,0,L|188:139,2,55,2|8|8,0:0|0:0|0:0,0:0:0:0:
182,252,59739,2,0,P|132:240|72:252,1,110,12|8,0:0|0:0,0:0:0:0:
100,354,60379,2,0,P|129:360|162:353,1,55,2|2,0:0|0:0,0:0:0:0:
254,311,60859,2,0,P|272:260|259:207,1,110,12|2,0:0|0:0,0:0:0:0:
219,170,61339,2,0,L|154:170,1,55,8|2,0:0|0:0,0:0:0:0:
62,212,61819,6,0,L|52:137,2,55,8|8|2,0:0|0:0|0:0,0:0:0:0:
76,265,62299,2,0,P|127:283|190:254,1,110,6|8,0:0|0:0,0:0:0:0:
220,229,62779,1,6,0:0:0:0:
308,163,63099,2,0,L|318:238,2,55,8|8|2,0:0|0:0|0:0,0:0:0:0:
294,110,63579,2,0,P|243:92|180:121,1,110,6|8,0:0|0:0,0:0:0:0:
150,146,64059,1,6,0:0:0:0:
159,255,64379,6,0,L|164:336,2,55,8|8|2,0:0|0:0|0:0,0:0:0:0:
110,281,64859,2,0,P|53:299|2:282,1,110,6|8,0:0|0:0,0:0:0:0:
54,185,65499,2,0,L|50:64,1,110,2|8,0:0|0:0,0:0:0:0:
152,33,66139,2,0,L|155:142,1,110,6|8,0:0|0:0,0:0:0:0:
157,197,66619,1,6,0:0:0:0:
188,302,66939,2,0,P|158:310|124:300,2,55,8|8|8,0:0|0:0|0:0,0:0:0:0:
238,280,67419,6,0,P|291:263|353:281,1,110,12|8,0:0|0:0,0:0:0:0:
450,297,68059,2,0,P|456:271|448:239,1,55,2|2,0:0|0:0,0:0:0:0:
370,168,68539,2,0,P|353:115|371:53,1,110,6|2,0:0|0:0,0:0:0:0:
320,30,69019,2,0,L|262:32,1,55,8|0,0:0|0:0,0:0:0:0:
160,66,69499,6,0,P|153:40|157:12,2,55,2|8|2,0:0|0:0|0:0,0:0:0:0:
193,110,69979,1,6,0:0:0:0:
90,148,70299,1,8,0:0:0:0:
175,214,70619,2,0,P|181:241|178:268,1,55,2|2,0:0|0:0,0:0:0:0:
120,362,71099,2,0,L|248:362,1,110,12|2,0:0|0:0,0:0:0:0:
284,360,71579,2,0,P|278:333|281:306,1,55,2|2,0:0|0:0,0:0:0:0:
361,231,72059,6,0,L|435:231,2,55,8|8|2,0:0|0:0|0:0,0:0:0:0:
382,180,72539,2,0,P|397:127|385:74,1,110,6|8,0:0|0:0,0:0:0:0:
345,37,73019,1,6,0:0:0:0:
237,60,73339,2,0,L|163:60,2,55,8|8|2,0:0|0:0|0:0,0:0:0:0:
216,111,73819,2,0,P|200:163|212:216,1,110,6|8,0:0|0:0,0:0:0:0:
253,254,74299,1,6,0:0:0:0:
345,312,74619,6,0,L|346:377,2,55,8|8|2,0:0|0:0|0:0,0:0:0:0:
297,339,75099,2,0,P|243:352|184:323,1,110,6|8,0:0|0:0,0:0:0:0:
153,230,75739,2,0,L|130:99,1,110,2|8,0:0|0:0,0:0:0:0:
23,121,76379,2,0,L|42:229,1,110,6|8,0:0|0:0,0:0:0:0:
59,281,76859,1,12,0:0:0:0:
162,317,77179,6,0,L|174:401,2,55,8|12|8,0:0|0:0|0:0,0:0:0:0:
211,292,77659,2,0,P|264:303|317:290,1,110,12|8,0:3|0:3,0:0:0:0:
312,235,78139,2,0,P|258:223|205:236,1,110,12|8,0:3|0:3,0:0:0:0:
157,263,78619,1,12,0:3:0:0:
130,156,78939,6,0,P|118:102|131:49,1,110,12|8,1:3|0:3,0:0:0:0:
187,52,79419,2,0,P|198:105|185:158,1,110,12|8,0:3|0:3,0:0:0:0:
159,207,79899,1,12,0:0:0:0:
60,258,80219,1,4,2:1:0:0:
60,258,81339,6,0,P|110:275|178:245,1,110,12|12,0:0|0:0,0:0:0:0:
213,236,81819,2,0,L|222:308,2,55,12|12|14,0:0|0:0|0:0,0:0:0:0:
256,192,82299,12,0,84059,2:0:0:0:
