osu file format v14

[General]
AudioFilename: audio.mp3
AudioLeadIn: 0
PreviewTime: 56619
Countdown: 0
SampleSet: Normal
StackLeniency: 0.4
Mode: 0
LetterboxInBreaks: 0
WidescreenStoryboard: 0

[Editor]
Bookmarks: 379,5979,11099,13659,18779,23899,25819,26459,28379,29019,34139,34779,36699,37339,39259,44379,45019,46939,47579,49499,52059,54619,57179,67419,80219,81339,82779,84059
DistanceSpacing: 1.8
BeatDivisor: 4
GridSize: 4
TimelineZoom: 1

[Metadata]
Title:Genkai Toppa x Survivor
TitleUnicode:限界突破×サバイバー
Artist:Kiyoshi Hikawa
ArtistUnicode:氷川きよし
Creator:Natsu
Version:Limit Breaker
Source:ドラゴンボール超
Tags:opening two limit break x survivor dbz goku Dragon Ball Super tv size
BeatmapID:1425283
BeatmapSetID:673464

[Difficulty]
HPDrainRate:6
CircleSize:4.2
OverallDifficulty:9
ApproachRate:9.3
SliderMultiplier:1.8
SliderTickRate:1

[Events]
//Background and Video events
Video,-219,"Dragon Ball Super - OPENING 2 (1080p FULL HD).avi"
0,0,"591a5b1ab4204.jpg",0,0
//Break Periods
//Storyboard Layer 0 (Background)
//Storyboard Layer 1 (Fail)
//Storyboard Layer 2 (Pass)
//Storyboard Layer 3 (Foreground)
//Storyboard Sound Samples

[TimingPoints]
-421,320,4,1,1,60,1,0
779,-100,4,1,1,5,0,0
859,-100,4,1,1,60,0,0
2779,-100,4,1,1,5,0,0
2939,-100,4,1,1,60,0,0
3099,-100,4,1,1,30,0,0
3419,-100,4,1,1,60,0,0
5499,-100,4,1,1,5,0,0
5659,-100,4,1,1,60,0,0
5899,-100,4,1,1,5,0,0
5979,-100,4,1,1,60,0,0
10139,-100,4,1,1,70,0,0
10299,-100,4,1,1,50,0,0
10459,-83.3333333333333,4,1,1,70,0,0
10619,-83.3333333333333,4,1,1,50,0,0
10779,-71.4285714285714,4,1,1,70,0,0
10939,-71.4285714285714,4,1,1,50,0,0
11099,-166.666666666667,4,1,1,30,0,0
13339,-100,4,1,1,50,0,0
13579,-100,4,1,1,5,0,0
13659,-111.111111111111,4,1,1,50,0,0
13739,-111.111111111111,4,1,1,30,0,0
13979,-111.111111111111,4,1,1,50,0,0
15579,-83.3333333333333,4,1,1,60,0,0
15979,-83.3333333333333,4,1,1,30,0,0
16219,-111.111111111111,4,1,1,50,0,0
18139,-83.3333333333333,4,1,1,60,0,0
18539,-83.3333333333333,4,1,1,30,0,0
18779,-111.111111111111,4,1,1,50,0,0
22619,-111.111111111111,4,1,1,60,0,0
23259,-111.111111111111,4,1,1,65,0,0
23899,-111.111111111111,4,1,1,50,0,0
25819,-83.3333333333333,4,1,1,60,0,0
26219,-83.3333333333333,4,1,1,30,0,0
26459,-111.111111111111,4,1,1,50,0,0
28379,-83.3333333333333,4,1,1,60,0,0
28779,-83.3333333333333,4,1,1,30,0,0
29019,-111.111111111111,4,1,1,50,0,0
32859,-111.111111111111,4,1,1,60,0,0
33499,-111.111111111111,4,1,1,65,0,0
34139,-83.3333333333333,4,1,1,70,0,0
34299,-83.3333333333333,4,1,1,50,0,0
34459,-83.3333333333333,4,1,1,70,0,0
34699,-83.3333333333333,4,1,1,5,0,0
34779,-111.111111111111,4,1,1,50,0,0
36699,-83.3333333333333,4,1,1,70,0,0
36859,-83.3333333333333,4,1,1,50,0,0
37019,-83.3333333333333,4,1,1,70,0,0
37259,-83.3333333333333,4,1,1,5,0,0
37339,-111.111111111111,4,1,1,50,0,0
39259,-111.111111111111,4,1,1,60,0,0
44379,-83.3333333333333,4,1,1,70,0,0
44539,-83.3333333333333,4,1,1,50,0,0
44699,-83.3333333333333,4,1,1,70,0,0
44939,-83.3333333333333,4,1,1,5,0,0
45019,-111.111111111111,4,1,1,50,0,0
46939,-83.3333333333333,4,1,1,70,0,0
47099,-83.3333333333333,4,1,1,50,0,0
47259,-83.3333333333333,4,1,1,70,0,0
47499,-83.3333333333333,4,1,1,5,0,0
47579,-111.111111111111,4,1,1,50,0,0
49499,-100,4,1,1,60,0,0
50059,-100,4,1,1,50,0,0
50779,-100,4,1,1,60,0,0
51339,-100,4,1,1,50,0,0
51739,-100,4,1,1,60,0,0
52059,-100,4,1,1,70,0,1
54619,-90.9090909090909,4,1,1,70,0,0
54779,-90.9090909090909,4,1,1,40,0,0
55099,-83.3333333333333,4,1,1,70,0,0
55259,-83.3333333333333,4,1,1,40,0,0
55579,-76.9230769230769,4,1,1,70,0,0
55739,-76.9230769230769,4,1,1,40,0,0
55899,-71.4285714285714,4,1,1,70,0,0
56059,-71.4285714285714,4,1,1,40,0,0
56219,-100,4,1,1,20,0,0
56299,-100,4,1,1,25,0,0
56379,-100,4,1,1,30,0,0
56459,-100,4,1,1,35,0,0
56539,-100,4,1,1,40,0,0
56619,-100,4,1,1,45,0,0
56699,-100,4,1,1,60,0,0
56779,-100,4,1,1,50,0,0
57179,-100,4,1,1,60,0,1
67339,-100,4,1,1,60,0,0
67419,-100,4,1,1,60,0,1
76699,-100,4,1,1,50,0,1
77659,-100,4,1,1,60,0,1
79899,-100,4,1,1,50,0,1
80219,-125,4,1,1,50,0,0
80379,-125,4,1,1,10,0,0
80539,-142.857142857143,4,1,1,30,0,0
80699,-142.857142857143,4,1,1,5,0,0
80859,-166.666666666667,4,1,1,30,0,0
81019,-166.666666666667,4,1,1,5,0,0
81179,-100,4,1,1,30,0,0
81339,-100,4,1,1,70,0,1
82139,-58.8235294117647,4,1,1,70,0,1
82459,-58.8235294117647,4,1,1,10,0,1
82779,-100,4,1,1,5,0,0
82859,-100,4,1,1,5,0,0

[Colours]
Combo1 : 191,0,0
Combo2 : 233,227,3
SliderBorder : 248,241,3
SliderTrackOverride : 0,0,0

[HitObjects]
131,308,379,5,8,0:3:0:0:
148,174,539,2,0,L|131:308,1,135,4|0,0:0|2:0,0:0:0:0:
118,383,859,5,4,0:0:0:0:
394,280,1019,1,4,0:0:0:0:
394,280,1499,5,4,0:0:0:0:
118,177,1659,1,4,0:0:0:0:
118,177,2139,5,4,0:0:0:0:
394,74,2299,1,4,0:0:0:0:
394,74,2619,6,0,P|347:61|303:76,1,90,4|0,0:0|2:0,0:0:0:0:
118,177,2939,2,0,P|75:188|32:175,2,90,4|4|4,0:0|2:3|2:3,0:0:0:0:
394,74,3419,5,4,0:0:0:0:
118,177,3579,1,4,0:0:0:0:
118,177,4059,5,4,0:0:0:0:
394,280,4219,1,4,0:0:0:0:
394,280,4699,5,4,0:0:0:0:
118,383,4859,1,4,0:0:0:0:
118,383,5179,6,0,B|160:320|116:256|116:256|120:256|120:256|116:252|116:252|120:252|120:252|116:248|116:248|120:248|120:248|116:244|116:244|120:244|120:244|116:240|116:240|120:240|120:240|116:236|116:236|120:236|120:236|116:232|116:232|120:232|120:232|116:228|116:228|120:228|120:228|116:224|116:224|120:224|120:224|116:220|116:220|120:216|120:216,1,225,4|0,0:0|2:0,0:0:0:0:
58,173,5659,6,0,P|120:199|182:177,1,135,12|0,0:2|2:0,0:0:0:0:
250,141,5979,5,4,0:0:0:0:
326,300,6139,1,0,0:0:0:0:
448,146,6299,1,8,0:0:0:0:
289,223,6459,1,0,0:0:0:0:
446,346,6619,1,2,0:0:0:0:
369,186,6779,1,0,0:0:0:0:
248,340,6939,1,8,0:0:0:0:
407,263,7099,2,0,P|451:190|409:110,1,180,6|0,0:0|0:0,0:0:0:0:
122,87,7579,5,8,0:0:0:0:
194,261,7739,1,0,0:0:0:0:
369,186,7899,1,2,0:0:0:0:
181,163,8059,1,0,0:0:0:0:
158,351,8219,1,8,0:0:0:0:
273,199,8379,2,0,B|323:206|323:206|389:176|389:176|459:183,1,180,6|0,0:0|0:0,0:0:0:0:
376,356,8859,5,8,0:0:0:0:
273,199,9019,1,0,0:0:0:0:
165,384,9179,1,2,0:0:0:0:
322,281,9339,1,0,0:0:0:0:
138,175,9499,1,8,0:0:0:0:
241,332,9659,2,0,P|329:374|411:305,1,180,6|0,0:0|0:0,0:0:0:0:
465,112,10139,6,0,L|480:212,1,90,4|0,0:0|0:0,0:0:0:0:
256,82,10459,6,0,L|272:190,1,107.999996704102,4|0,0:0|0:0,0:0:0:0:
36,43,10779,6,0,L|56:173,1,125.999996154785,4|0,0:0|0:0,0:0:0:0:
88,356,11099,5,14,2:3:0:0:
162,341,11259,1,2,2:3:0:0:
235,325,11419,1,14,2:3:0:0:
235,325,11739,5,10,2:3:0:0:
73,283,12059,1,14,2:3:0:0:
147,268,12219,2,0,P|152:238|146:213,1,53.9999983520508,2|8,2:3|2:3,0:0:0:0:
4,257,12539,6,0,P|-1:287|5:312,1,53.9999983520508,2|8,2:3|2:3,0:0:0:0:
56,364,12859,1,2,2:3:0:0:
129,347,13019,1,10,2:3:0:0:
129,347,13339,6,0,P|187:325|279:351,1,135,8|0,3:0|2:0,0:0:0:0:
338,356,13659,5,12,0:0:0:0:
327,317,13739,1,12,0:0:0:0:
332,277,13819,1,12,0:0:0:0:
352,242,13899,1,12,0:0:0:0:
384,217,13979,2,0,P|424:209|472:224,1,80.9999975280763,8|0,0:0|0:0,0:0:0:0:
338,356,14299,2,0,P|298:364|250:349,1,80.9999975280763,2|0,0:0|0:0,0:0:0:0:
145,264,14619,1,8,0:0:0:0:
291,208,14779,2,0,P|306:245|300:284,1,80.9999975280763,2|0,0:0|0:0,0:0:0:0:
145,264,15099,2,0,P|182:248|221:254,1,80.9999975280763,2|8,0:0|0:0,0:0:0:0:
402,294,15419,1,0,0:0:0:0:
72,363,15579,5,8,0:0:0:0:
168,130,15739,1,8,0:0:0:0:
321,331,15899,1,12,0:0:0:0:
285,357,15979,1,8,0:0:0:0:
242,370,16059,1,8,0:0:0:0:
197,366,16139,1,8,0:0:0:0:
156,348,16219,6,0,P|145:309|156:267,1,80.9999975280763,12|0,0:0|0:0,0:0:0:0:
309,141,16539,2,0,P|320:180|309:222,1,80.9999975280763,8|0,0:0|0:0,0:0:0:0:
154,270,16859,2,0,P|111:281|71:270,1,80.9999975280763,2|0,0:0|0:0,0:0:0:0:
0,176,17179,1,8,0:0:0:0:
226,232,17339,2,0,P|236:272|226:311,1,80.9999975280763,2|0,0:0|0:0,0:0:0:0:
128,178,17659,2,0,P|117:139|128:100,1,80.9999975280763,2|8,0:0|0:0,0:0:0:0:
329,25,17979,1,0,0:0:0:0:
361,274,18139,5,8,0:0:0:0:
128,178,18299,1,8,0:0:0:0:
329,25,18459,1,12,0:0:0:0:
371,12,18539,1,8,0:0:0:0:
415,14,18619,1,8,0:0:0:0:
456,32,18699,1,8,0:0:0:0:
472,77,18779,6,0,P|391:106|311:71,1,161.999995056153,6|8,1:3|0:0,0:0:0:0:
213,26,19259,1,2,0:0:0:0:
63,132,19419,6,0,P|144:161|224:126,1,161.999995056153,6|8,1:3|0:0,0:0:0:0:
322,81,19899,1,2,0:0:0:0:
471,187,20059,6,0,P|390:216|310:181,1,161.999995056153,6|8,1:3|0:0,0:0:0:0:
212,136,20539,1,2,0:0:0:0:
62,242,20699,6,0,P|143:271|223:236,1,161.999995056153,6|12,1:3|0:0,0:0:0:0:
321,191,21179,1,2,0:0:0:0:
470,297,21339,6,0,P|389:326|309:291,1,161.999995056153,6|8,1:3|0:0,0:0:0:0:
211,246,21819,1,2,0:0:0:0:
61,352,21979,6,0,P|142:381|222:346,1,161.999995056153,6|8,1:3|0:0,0:0:0:0:
320,301,22459,1,2,0:0:0:0:
94,208,22619,5,6,1:3:0:0:
211,48,22779,1,8,0:0:0:0:
211,246,22939,1,8,0:0:0:0:
94,86,23099,1,8,0:0:0:0:
24,332,23259,5,6,1:3:0:0:
159,146,23419,1,8,0:0:0:0:
159,376,23579,1,8,0:0:0:0:
24,190,23739,1,8,0:0:0:0:
274,278,23899,6,0,P|312:288|351:278,1,80.9999975280763,4|0,0:0|0:0,0:0:0:0:
353,104,24219,2,0,P|325:133|315:172,1,80.9999975280763,8|0,0:0|0:0,0:0:0:0:
464,263,24539,2,0,P|454:225|426:196,1,80.9999975280763,2|0,0:0|0:0,0:0:0:0:
248,112,24859,1,8,0:0:0:0:
152,256,25019,2,0,P|112:264|73:256,1,80.9999975280763,2|0,0:0|0:0,0:0:0:0:
170,110,25339,2,0,P|209:101|248:112,1,80.9999975280763,2|8,0:0|0:0,0:0:0:0:
361,227,25659,1,0,0:0:0:0:
31,320,25819,5,8,0:0:0:0:
169,109,25979,1,8,0:0:0:0:
281,336,26139,1,12,0:0:0:0:
241,354,26219,1,8,0:0:0:0:
196,359,26299,1,8,0:0:0:0:
153,346,26379,1,8,0:0:0:0:
117,315,26459,6,0,P|107:277|117:238,1,80.9999975280763,4|0,0:0|0:0,0:0:0:0:
307,129,26779,2,0,P|317:167|307:206,1,80.9999975280763,8|0,0:0|0:0,0:0:0:0:
117,237,27099,2,0,P|107:195|124:142,1,80.9999975280763,2|0,0:0|0:0,0:0:0:0:
226,59,27419,1,8,0:0:0:0:
306,206,27579,2,0,P|347:216|387:203,1,80.9999975280763,2|0,0:0|0:0,0:0:0:0:
453,28,27899,2,0,P|414:17|375:28,1,80.9999975280763,2|8,0:0|0:0,0:0:0:0:
228,142,28219,1,0,0:0:0:0:
437,280,28379,5,8,0:0:0:0:
453,28,28539,1,8,0:0:0:0:
228,142,28699,1,12,0:0:0:0:
212,182,28779,1,8,0:0:0:0:
209,226,28859,1,8,0:0:0:0:
224,269,28939,1,8,0:0:0:0:
256,303,29019,6,0,P|333:328|408:296,1,161.999995056153,6|8,1:3|0:0,0:0:0:0:
451,150,29499,1,2,0:0:0:0:
256,273,29659,6,0,P|179:298|104:266,1,161.999995056153,6|8,1:3|0:0,0:0:0:0:
61,120,30139,1,2,0:0:0:0:
256,243,30299,6,0,P|333:268|408:236,1,161.999995056153,6|8,1:3|0:0,0:0:0:0:
451,90,30779,1,2,0:0:0:0:
256,213,30939,6,0,P|179:238|104:206,1,161.999995056153,6|12,1:3|0:0,0:0:0:0:
61,60,31419,1,2,0:0:0:0:
256,183,31579,6,0,P|333:208|408:176,1,161.999995056153,6|8,1:3|0:0,0:0:0:0:
451,30,32059,1,2,0:0:0:0:
256,153,32219,6,0,P|179:178|104:146,1,161.999995056153,6|8,1:3|0:0,0:0:0:0:
61,0,32699,1,2,0:0:0:0:
117,241,32859,5,6,1:3:0:0:
0,81,33019,1,8,0:0:0:0:
0,279,33179,1,8,0:0:0:0:
117,119,33339,1,8,0:0:0:0:
193,340,33499,5,6,1:3:0:0:
328,154,33659,1,8,0:0:0:0:
328,384,33819,1,12,0:0:0:0:
193,198,33979,1,8,0:0:0:0:
430,272,34139,6,0,B|479:293|515:262|515:262|491:259,1,107.999996704102,6|2,1:3|2:1,0:0:0:0:
193,198,34459,2,0,P|116:172|42:202,1,161.999995056153,6|0,1:3|2:0,0:0:0:0:
0,281,34779,6,0,P|38:291|78:283,1,80.9999975280763,4|0,0:0|0:0,0:0:0:0:
271,199,35099,2,0,P|233:189|193:197,1,80.9999975280763,8|0,0:0|0:0,0:0:0:0:
78,282,35419,1,2,0:0:0:0:
228,357,35579,2,0,P|238:318|230:278,1,80.9999975280763,0|8,0:0|0:0,0:0:0:0:
113,151,35899,1,0,0:0:0:0:
78,282,36059,2,0,P|117:292|157:284,1,80.9999975280763,2|0,0:0|0:0,0:0:0:0:
372,249,36379,2,0,P|333:239|293:247,1,80.9999975280763,8|0,0:0|0:0,0:0:0:0:
18,334,36699,6,0,P|-1:283|24:224,1,107.999996704102,6|2,1:3|2:1,0:0:0:0:
255,31,37019,2,0,P|281:105|252:180,1,161.999995056153,6|0,1:3|2:0,0:0:0:0:
165,218,37339,6,0,P|127:228|87:220,1,80.9999975280763,4|0,0:0|0:0,0:0:0:0:
0,92,37659,2,0,P|39:81|79:89,1,80.9999975280763,8|0,0:0|0:0,0:0:0:0:
165,218,37979,1,2,0:0:0:0:
42,354,38139,2,0,P|32:315|40:275,1,80.9999975280763,0|8,0:0|0:0,0:0:0:0:
207,134,38459,1,0,0:0:0:0:
252,306,38619,2,0,P|213:316|173:308,1,80.9999975280763,2|0,0:0|0:0,0:0:0:0:
65,112,38939,1,8,0:0:0:0:
101,93,39019,1,8,0:0:0:0:
141,90,39099,1,8,0:0:0:0:
179,105,39179,1,8,0:0:0:0:
207,134,39259,6,0,P|217:173|209:213,1,80.9999975280763,4|0,0:0|0:0,0:0:0:0:
47,364,39579,2,0,P|37:325|45:285,1,80.9999975280763,8|0,0:0|0:0,0:0:0:0:
209,212,39899,1,2,0:0:0:0:
111,318,40059,1,8,1:3:0:0:
3,192,40219,2,0,P|42:182|82:190,1,80.9999975280763,8|0,0:0|0:0,0:0:0:0:
256,296,40539,5,4,0:0:0:0:
377,199,40699,1,8,0:0:0:0:
377,199,40779,1,8,0:0:0:0:
377,199,40859,2,0,P|386:158|372:113,1,80.9999975280763,8|0,0:0|0:0,0:0:0:0:
256,25,41179,1,2,0:0:0:0:
312,248,41339,1,8,0:0:0:0:
343,273,41419,1,8,0:0:0:0:
382,280,41499,1,8,0:0:0:0:
421,269,41579,1,8,0:0:0:0:
449,241,41659,1,8,0:0:0:0:
462,203,41739,1,8,0:0:0:0:
456,163,41819,6,0,P|382:130|300:176,1,161.999995056153,6|8,0:0|0:0,0:0:0:0:
171,293,42299,2,0,P|245:326|327:280,1,161.999995056153,2|2,0:0|0:0,0:0:0:0:
239,122,42779,2,0,P|230:155|247:213,1,80.9999975280763,8|0,0:0|0:0,0:0:0:0:
368,316,43099,5,12,0:0:0:0:
406,327,43179,1,8,0:0:0:0:
446,321,43259,1,8,0:0:0:0:
479,298,43339,1,8,0:0:0:0:
499,263,43419,1,8,0:0:0:0:
441,115,43579,5,8,0:0:0:0:
403,104,43659,1,8,0:0:0:0:
363,110,43739,1,8,0:0:0:0:
330,133,43819,1,8,0:0:0:0:
310,168,43899,1,8,0:0:0:0:
265,363,44059,5,12,0:0:0:0:
303,374,44139,1,8,0:0:0:0:
343,368,44219,1,8,0:0:0:0:
376,345,44299,1,8,0:0:0:0:
396,310,44379,6,0,P|412:257|396:201,1,107.999996704102,6|2,1:3|2:1,0:0:0:0:
138,79,44699,2,0,P|112:153|141:228,1,161.999995056153,6|0,1:3|2:0,0:0:0:0:
214,255,45019,6,0,P|252:265|292:257,1,80.9999975280763,4|0,0:0|0:0,0:0:0:0:
464,142,45339,2,0,P|425:131|385:139,1,80.9999975280763,8|0,0:0|0:0,0:0:0:0:
292,256,45659,1,2,0:0:0:0:
421,293,45819,2,0,P|431:254|423:214,1,80.9999975280763,0|8,0:0|0:0,0:0:0:0:
255,82,46139,1,0,0:0:0:0:
213,253,46299,2,0,P|252:263|292:255,1,80.9999975280763,2|0,0:0|0:0,0:0:0:0:
255,82,46619,2,0,P|216:71|176:79,1,80.9999975280763,12|0,0:0|0:0,0:0:0:0:
403,140,46939,6,0,P|422:89|397:30,1,107.999996704102,6|2,1:3|2:1,0:0:0:0:
152,153,47259,2,0,P|126:227|155:302,1,161.999995056153,6|0,1:3|2:0,0:0:0:0:
221,341,47579,6,0,P|259:351|299:343,1,80.9999975280763,4|0,0:0|0:0,0:0:0:0:
453,190,47899,2,0,P|415:180|375:188,1,80.9999975280763,8|0,0:0|0:0,0:0:0:0:
269,251,48219,1,2,0:0:0:0:
415,342,48379,2,0,P|425:303|417:263,1,80.9999975280763,0|8,0:0|0:0,0:0:0:0:
293,103,48699,1,0,0:0:0:0:
190,248,48859,2,0,P|229:258|269:250,1,80.9999975280763,2|0,0:0|0:0,0:0:0:0:
435,81,49179,1,8,0:0:0:0:
399,62,49259,1,8,0:0:0:0:
359,59,49339,1,8,0:0:0:0:
321,74,49419,1,8,0:0:0:0:
293,103,49499,5,4,0:0:0:0:
381,276,49659,2,0,P|391:237|377:186,1,90,4|0,0:0|0:0,0:0:0:0:
258,42,49979,1,4,0:0:0:0:
214,55,50059,1,8,0:0:0:0:
170,51,50139,1,8,0:0:0:0:
129,32,50219,1,8,0:0:0:0:
88,15,50299,1,8,0:0:0:0:
43,16,50379,1,8,0:0:0:0:
2,35,50459,2,0,P|-8:74|6:126,1,90,8|0,0:0|0:0,0:0:0:0:
92,334,50779,5,4,0:0:0:0:
243,175,50939,2,0,P|197:163|154:176,1,90,4|0,0:0|0:0,0:0:0:0:
16,312,51259,1,12,0:0:0:0:
52,331,51339,1,8,0:0:0:0:
92,334,51419,1,8,0:0:0:0:
130,319,51499,1,8,0:0:0:0:
158,290,51579,1,8,0:0:0:0:
71,135,51739,2,0,P|63:176|95:245,1,90,4|0,0:0|0:0,0:0:0:0:
208,378,52059,5,12,1:3:0:0:
349,228,52219,1,8,1:3:0:0:
149,178,52379,1,8,1:3:0:0:
385,362,52539,5,12,1:3:0:0:
326,160,52699,1,8,1:3:0:0:
183,311,52859,1,8,1:3:0:0:
473,275,53019,5,12,1:3:0:0:
409,53,53179,1,8,1:3:0:0:
251,219,53339,1,8,1:3:0:0:
512,151,53499,5,12,1:3:0:0:
269,89,53659,1,8,1:3:0:0:
339,333,53819,1,8,1:3:0:0:
409,53,53979,5,12,1:3:0:0:
95,168,54139,1,8,1:3:0:0:
419,259,54299,1,8,1:3:0:0:
106,374,54459,1,8,1:3:0:0:
428,352,54619,6,0,P|437:307|419:259,1,99.0000030212403,6|0,1:3|2:0,0:0:0:0:
85,42,55099,6,0,P|76:87|100:144,1,107.999996704102,6|0,1:3|2:0,0:0:0:0:
431,290,55579,6,0,P|375:309|311:289,1,116.999994644165,6|0,1:3|2:0,0:0:0:0:
99,142,55899,6,0,P|155:123|226:146,1,125.999996154785,6|0,1:3|2:0,0:0:0:0:
445,304,56219,5,8,0:0:0:0:
445,304,56299,1,8,0:0:0:0:
445,304,56379,1,8,0:0:0:0:
445,304,56459,1,8,0:0:0:0:
445,304,56539,2,0,P|421:311|393:307,1,45,8|8,0:0|0:0,0:0:0:0:
278,304,56699,6,0,L|270:379,1,45,12|8,0:0|0:0,0:0:0:0:
160,332,56859,2,0,L|133:377,1,45,8|8,0:0|0:0,0:0:0:0:
62,285,57019,2,0,L|13:299,1,45,8|8,0:0|0:0,0:0:0:0:
7,186,57179,6,0,P|-5:143|5:99,1,90,6|0,0:0|0:0,0:0:0:0:
197,59,57499,2,0,P|209:101|198:145,1,90,8|0,0:0|0:0,0:0:0:0:
62,285,57819,1,2,0:0:0:0:
198,145,57979,2,0,P|240:132|284:143,1,90,2|8,0:0|0:0,0:0:0:0:
465,284,58299,6,0,P|447:213|470:149,1,135,6|0,0:0|2:0,0:0:0:0:
512,86,58619,1,2,0:0:0:0:
366,222,58779,2,0,B|280:260|280:181|193:217,1,180,8|0,0:0|0:0,0:0:0:0:
53,323,59259,5,2,0:0:0:0:
103,144,59419,1,8,0:0:0:0:
227,341,59579,1,8,0:0:0:0:
227,341,59659,1,8,0:0:0:0:
227,341,59739,6,0,P|268:354|325:333,1,90,12|0,0:0|0:0,0:0:0:0:
503,214,60059,2,0,P|462:201|405:222,1,90,8|0,0:0|0:0,0:0:0:0:
271,277,60379,1,2,0:0:0:0:
464,360,60539,2,0,P|474:318|452:263,1,90,2|8,0:0|0:0,0:0:0:0:
286,161,60859,5,12,0:0:0:0:
286,161,60939,1,8,0:0:0:0:
286,161,61019,1,8,0:0:0:0:
155,341,61179,1,2,0:0:0:0:
367,272,61339,1,8,0:0:0:0:
155,202,61499,1,2,0:0:0:0:
286,383,61659,1,2,0:0:0:0:
405,161,61819,5,8,0:0:0:0:
405,161,61899,1,8,0:0:0:0:
405,161,61979,1,8,0:0:0:0:
155,202,62139,1,2,0:0:0:0:
431,87,62299,2,0,P|485:156|438:234,1,180,6|8,0:0|0:0,0:0:0:0:
157,288,62779,2,0,P|145:242|156:198,1,90,6|0,0:0|0:0,0:0:0:0:
349,94,63099,5,8,0:0:0:0:
349,94,63179,1,8,0:0:0:0:
349,94,63259,1,8,0:0:0:0:
108,135,63419,1,2,0:0:0:0:
390,162,63579,2,0,P|428:86|375:20,1,180,6|8,0:0|0:0,0:0:0:0:
108,135,64059,2,0,P|98:178|110:221,1,90,6|0,0:0|0:0,0:0:0:0:
309,298,64379,5,8,0:0:0:0:
309,298,64459,1,8,0:0:0:0:
309,298,64539,1,8,0:0:0:0:
175,177,64699,1,2,0:0:0:0:
267,363,64859,6,0,P|309:376|354:361,1,90,6|0,0:0|0:0,0:0:0:0:
507,209,65179,2,0,P|465:196|420:211,1,90,8|0,0:0|0:0,0:0:0:0:
267,363,65499,2,0,P|280:321|265:276,1,90,2|0,0:0|0:0,0:0:0:0:
108,132,65819,2,0,P|95:174|110:219,1,90,8|0,0:0|0:0,0:0:0:0:
368,360,66139,5,6,0:0:0:0:
322,188,66299,1,0,0:0:0:0:
197,314,66459,1,8,0:0:0:0:
450,254,66619,1,6,0:0:0:0:
272,65,66779,1,2,0:0:0:0:
135,362,66939,5,8,0:0:0:0:
135,362,67019,1,8,0:0:0:0:
135,362,67099,1,8,0:0:0:0:
458,261,67259,1,8,0:0:0:0:
458,261,67339,1,8,0:0:0:0:
458,261,67419,6,0,P|470:210|454:169,1,90,12|0,0:0|0:0,0:0:0:0:
315,40,67739,2,0,P|301:82|314:129,1,90,8|0,0:0|0:0,0:0:0:0:
458,261,68059,1,2,0:0:0:0:
311,125,68219,2,0,P|269:111|222:124,1,90,2|8,0:0|0:0,0:0:0:0:
44,201,68539,6,0,P|66:134|43:68,1,135,6|0,0:0|2:0,0:0:0:0:
0,17,68859,1,2,0:0:0:0:
159,148,69019,2,0,B|245:186|245:107|332:143,1,180,8|0,0:0|0:0,0:0:0:0:
512,276,69499,5,2,0:0:0:0:
327,226,69659,1,8,0:0:0:0:
462,89,69819,1,2,0:0:0:0:
409,384,69979,5,6,0:0:0:0:
187,276,70139,1,0,0:0:0:0:
390,137,70299,1,8,0:0:0:0:
270,384,70459,1,0,0:0:0:0:
47,275,70619,1,2,0:0:0:0:
251,136,70779,2,0,P|267:187|247:245,1,90,2|8,0:0|0:0,0:0:0:0:
126,350,71099,5,12,0:0:0:0:
126,350,71179,1,8,0:0:0:0:
126,350,71259,1,8,0:0:0:0:
0,177,71419,1,2,0:0:0:0:
203,243,71579,1,2,0:0:0:0:
0,309,71739,1,2,0:0:0:0:
126,136,71899,1,8,0:0:0:0:
365,310,72059,5,8,0:0:0:0:
365,310,72139,1,8,0:0:0:0:
365,310,72219,1,8,0:0:0:0:
108,264,72379,1,2,0:0:0:0:
399,238,72539,2,0,P|443:312|397:384,1,180,6|8,0:0|0:0,0:0:0:0:
108,264,73019,2,0,P|97:218|108:176,1,90,6|0,0:0|0:0,0:0:0:0:
434,184,73339,5,8,0:0:0:0:
434,184,73419,1,8,0:0:0:0:
434,184,73499,1,8,0:0:0:0:
193,225,73659,1,2,0:0:0:0:
468,256,73819,2,0,P|511:182|465:110,1,180,6|8,0:0|0:0,0:0:0:0:
193,225,74299,2,0,P|182:270|193:313,1,90,6|0,0:0|0:0,0:0:0:0:
435,379,74619,5,8,0:0:0:0:
435,379,74699,1,8,0:0:0:0:
435,379,74779,1,8,0:0:0:0:
262,271,74939,1,2,0:0:0:0:
451,151,75099,6,0,P|464:192|453:244,1,90,6|0,0:0|0:0,0:0:0:0:
267,357,75419,2,0,P|253:315|264:263,1,90,8|0,0:0|0:0,0:0:0:0:
505,318,75739,2,0,P|463:331|411:320,1,90,2|0,0:0|0:0,0:0:0:0:
211,182,76059,2,0,P|252:168|304:179,1,90,8|0,0:0|0:0,0:0:0:0:
267,357,76379,2,0,P|226:371|174:360,1,90,6|0,0:0|0:0,0:0:0:0:
27,228,76699,5,8,0:0:0:0:
21,183,76779,1,8,0:0:0:0:
33,140,76859,1,12,0:0:0:0:
61,106,76939,1,8,0:0:0:0:
101,85,77019,1,8,0:0:0:0:
145,81,77099,1,8,0:0:0:0:
187,96,77179,6,0,P|208:113|219:140,1,45,8|8,0:0|0:0,0:0:0:0:
301,157,77339,2,0,P|292:181|270:201,1,45,12|8,0:0|0:0,0:0:0:0:
293,284,77499,2,0,P|266:284|241:270,1,45,8|8,0:0|0:0,0:0:0:0:
192,348,77659,5,12,0:3:0:0:
151,367,77739,1,8,0:3:0:0:
107,372,77819,1,8,0:3:0:0:
63,361,77899,1,8,0:3:0:0:
26,337,77979,1,8,0:3:0:0:
74,137,78139,5,12,0:3:0:0:
114,117,78219,1,8,0:3:0:0:
158,112,78299,1,8,0:3:0:0:
202,123,78379,1,8,0:3:0:0:
239,147,78459,1,8,0:3:0:0:
328,300,78619,5,12,0:3:0:0:
287,319,78699,1,8,0:3:0:0:
243,324,78779,1,8,0:3:0:0:
199,313,78859,1,8,0:3:0:0:
162,289,78939,2,0,P|149:266|164:185,2,90,12|8|8,1:3|0:3|0:3,0:0:0:0:
319,343,79419,5,12,0:3:0:0:
359,363,79499,1,8,0:3:0:0:
403,368,79579,1,8,0:3:0:0:
447,357,79659,1,8,0:3:0:0:
484,333,79739,2,0,P|492:308|489:284,1,45,8|8,0:3|0:3,0:0:0:0:
449,192,79899,5,12,0:0:0:0:
409,172,79979,1,8,0:0:0:0:
365,167,80059,1,8,0:0:0:0:
321,178,80139,1,8,0:0:0:0:
284,202,80219,6,0,L|279:283,1,72,4|0,2:1|2:1,0:0:0:0:
365,167,80539,2,0,L|359:244,1,62.9999980773926,8|0,2:3|2:1,0:0:0:0:
445,140,80859,2,0,L|440:213,1,53.9999983520508,0|0,2:1|2:1,0:0:0:0:
428,348,81179,1,8,0:0:0:0:
69,154,81339,6,0,P|112:141|157:148,1,90,12|0,0:0|0:0,0:0:0:0:
428,348,81659,1,12,0:0:0:0:
256,24,81819,1,12,0:0:0:0:
84,348,81979,1,12,0:0:0:0:
421,192,82139,6,0,B|362:167|362:167|343:109|343:109|306:157|306:157|242:160|242:160|281:205|281:205|259:268|259:268|320:242|320:242|369:287|369:287|369:220|369:220|402:204,1,612.000011672974,14|0,0:0|2:0,0:0:0:0:
256,192,82859,12,0,84059,2:0:0:0:
