osu file format v14

[General]
AudioFilename: audio.mp3
AudioLeadIn: 0
PreviewTime: 246000
Countdown: 0
SampleSet: Soft
StackLeniency: 0.7
Mode: 0
LetterboxInBreaks: 0
WidescreenStoryboard: 0

[Editor]
DistanceSpacing: 1.3
BeatDivisor: 4
GridSize: 4
TimelineZoom: 1

[Metadata]
Title:Rocket Beat
TitleUnicode:ロケットビート
Artist:Kiyono Yasuno
ArtistUnicode:安野希世乃
Creator:Rishe
Version:Clear Card
Source:カードキャプターさくら クリアカード編
Tags:cardcaptor captor sakura clear card opening
BeatmapID:1753781
BeatmapSetID:837638

[Difficulty]
HPDrainRate:6
CircleSize:4
OverallDifficulty:8
ApproachRate:9
SliderMultiplier:1.6
SliderTickRate:1

[Events]
//Background and Video events
0,0,"33.jpg",0,0
//Break Periods
2,222217,231087
//Storyboard Layer 0 (Background)
//Storyboard Layer 1 (Fail)
//Storyboard Layer 2 (Pass)
//Storyboard Layer 3 (Foreground)
//Storyboard Sound Samples

[TimingPoints]
157,348.837209302326,4,2,1,55,1,0
7482,-133.333333333333,4,2,1,55,0,0
14110,-100,4,2,1,65,0,0
14372,-100,4,2,1,5,0,0
14459,-100,4,2,1,65,0,0
23703,-250,4,2,1,65,0,0
24575,-166.666666666667,4,2,1,65,0,0
25273,-153.846153846153,4,2,1,45,0,0
36436,-117.647058823529,4,2,1,45,0,0
47598,-125,4,2,1,45,0,0
55883,-125,4,2,1,5,0,0
55970,-125,4,2,1,45,0,0
57715,-117.647058823529,4,2,1,50,0,0
58761,-105.263157894737,4,2,1,55,0,0
60157,-100,4,2,1,60,0,0
63819,-100,4,2,1,45,0,0
64343,-100,4,2,1,60,0,1
69401,-100,4,2,1,40,0,1
69575,-100,4,2,1,60,0,1
72627,-100,4,2,1,5,0,1
72715,-100,4,2,1,60,0,1
74808,-100,4,2,1,40,0,1
75505,-100,4,2,1,60,0,1
83354,-100,4,2,1,30,0,1
83529,-100,4,2,1,60,0,1
83790,-100,4,2,1,5,0,1
83877,-100,4,2,1,60,0,1
85622,-100,4,2,1,35,0,0
86668,-100,4,2,1,60,0,1
92162,-100,4,2,1,5,0,1
92250,-100,4,2,1,60,0,1
95302,-100,4,2,1,5,0,1
95389,-100,4,2,1,60,0,1
96436,-100,4,2,1,45,0,0
97831,-111.111111111111,4,2,1,55,0,0
103412,-111.111111111111,4,2,1,55,0,0
108994,-117.647058823529,4,2,1,50,0,0
118761,-117.647058823529,4,2,1,80,0,0
118848,-117.647058823529,4,2,1,50,0,0
119459,-117.647058823529,4,2,1,80,0,0
119546,-117.647058823529,4,2,1,50,0,0
131319,-125,4,2,1,40,0,0
139604,-125,4,2,1,5,0,0
139691,-125,4,2,1,40,0,0
141436,-111.111111111111,4,2,1,40,0,0
142133,-111.111111111111,4,2,1,50,0,0
142482,-105.263157894737,4,2,1,50,0,0
143093,-105.263157894737,4,2,1,5,0,0
143180,-105.263157894737,4,2,1,50,0,0
147540,-95.2380952380952,4,2,1,50,0,0
148063,-95.2380952380952,4,2,1,60,0,1
152947,-95.2380952380952,4,2,1,40,0,1
153296,-95.2380952380952,4,2,1,60,0,1
156348,-95.2380952380952,4,2,1,5,0,1
156436,-95.2380952380952,4,2,1,60,0,1
158529,-95.2380952380952,4,2,1,40,0,1
159226,-95.2380952380952,4,2,1,60,0,1
161145,-95.2380952380952,4,2,1,30,0,1
161407,-95.2380952380952,4,2,1,60,0,1
161494,-95.2380952380952,4,2,1,60,0,1
167511,-95.2380952380952,4,2,1,5,0,1
167598,-105.263157894737,4,2,1,60,0,1
169343,-83.3333333333333,4,2,1,60,0,0
169691,-95.2380952380952,4,2,1,60,0,0
170389,-95.2380952380952,4,2,1,60,0,1
175883,-95.2380952380952,4,2,1,5,0,1
175970,-95.2380952380952,4,2,1,60,0,1
177191,-95.2380952380952,4,2,1,60,0,1
180157,-95.2380952380952,4,2,1,60,0,0
181552,-100,4,2,1,50,0,0
187046,-100,4,2,1,5,0,0
187133,-100,4,2,1,50,0,0
189139,-100,4,2,1,5,0,0
189226,-100,4,2,1,50,0,0
195418,-100,4,2,1,5,0,0
195505,-100,4,2,1,50,0,0
197773,-100,4,2,1,35,0,0
198296,-100,4,2,1,50,0,0
204139,-100,4,2,1,5,0,0
204226,-100,4,2,1,54,0,0
205534,-100,4,2,1,5,0,0
205622,-100,4,2,1,58,0,0
208063,-100,4,2,1,63,0,0
209720,-100,4,2,1,5,0,0
209808,-100,4,2,1,55,0,1
215302,-100,4,2,1,5,0,1
215389,-100,4,2,1,55,0,1
216523,-100,4,2,1,5,0,1
216610,-100,4,2,1,55,0,1
217395,-100,4,2,1,5,0,1
217482,-100,4,2,1,55,0,1
219575,-111.111111111111,4,2,1,55,0,1
220622,-250,4,2,1,55,0,0
221319,-250,4,2,1,20,0,0
222017,-250,4,2,1,10,0,0
231959,-200,4,2,1,40,0,0
233180,-133.333333333333,4,2,1,40,0,0
240854,-117.647058823529,4,2,1,40,0,0
241029,-117.647058823529,4,2,1,30,0,0
241552,-105.263157894737,4,2,1,40,0,0
244343,-105.263157894737,4,2,1,55,0,0
244604,-105.263157894737,4,2,1,5,0,0
244691,-105.263157894737,4,2,1,55,0,0
246610,-105.263157894737,4,2,1,40,0,0
247046,-105.263157894737,4,2,1,5,0,0
247133,-90.9090909090909,4,2,1,65,0,1
252017,-90.9090909090909,4,2,1,65,0,1
252191,-90.9090909090909,4,2,1,45,0,1
252366,-90.9090909090909,4,2,1,65,0,1
255418,-90.9090909090909,4,2,1,5,0,1
255505,-90.9090909090909,4,2,1,65,0,1
257075,-90.9090909090909,4,2,1,45,0,1
257947,-90.9090909090909,4,2,1,35,0,1
258296,-90.9090909090909,4,2,1,55,0,1
258645,-90.9090909090909,4,2,1,55,0,1
259343,-90.9090909090909,4,2,1,60,0,1
260738,-90.9090909090909,4,2,1,65,0,1
261087,-90.9090909090909,4,2,1,65,0,1
263529,-90.9090909090909,4,2,1,75,0,1
263877,-90.9090909090909,4,2,1,70,0,1
265447,-90.9090909090909,4,2,1,63,0,1
265970,-90.9090909090909,4,2,1,63,0,1
266581,-90.9090909090909,4,2,1,5,0,1
266668,-90.9090909090909,4,2,1,75,0,0
268412,-90.9090909090909,4,2,1,60,0,0
268936,-90.9090909090909,4,2,1,45,0,0
269110,-90.9090909090909,4,2,1,55,0,0
269372,-90.9090909090909,4,2,1,5,0,0
269459,-90.9090909090909,4,2,1,65,0,1
277831,-100,4,2,1,65,0,0
278093,-100,4,2,1,5,0,0
278180,-100,4,2,1,55,0,0
281843,-100,4,2,1,5,0,0
282061,348.837209302326,4,2,1,45,1,0
282061,-100,4,2,1,45,0,0
283412,348.837209302326,4,2,1,45,1,0
283412,-100,4,2,1,45,0,0
283673,-100,4,2,1,5,0,0
283760,-100,4,2,1,50,0,0
288644,-100,4,2,1,45,0,0
288993,-100,4,2,1,55,0,0
289255,-100,4,2,1,5,0,0
289342,-100,4,2,1,50,0,0
292045,-100,4,2,1,45,0,0
292132,-100,4,2,1,50,0,0
294574,-100,4,2,1,50,0,0
296231,-100,4,2,1,5,0,0
296318,-100,4,2,1,50,0,0
302859,-100,4,2,1,5,0,0
302946,-100,4,2,1,50,0,0
308179,-250,4,2,1,50,0,0
308528,-250,4,2,1,25,0,0
316900,-100,4,2,1,5,0,0

[Colours]
Combo1 : 0,113,225
Combo2 : 255,174,94

[HitObjects]
124,151,7482,6,0,L|194:135,1,60.0000022888184,2|0,0:0|0:0,0:0:0:0:
276,117,7831,2,0,P|266:161|261:190,1,60.0000022888184,2|0,0:0|0:0,0:0:0:0:
339,234,8180,1,2,0:0:0:0:
339,234,8529,6,0,L|409:218,1,60.0000022888184,2|0,0:0|0:0,0:0:0:0:
490,197,8877,1,0,0:0:0:0:
453,286,9052,1,0,0:0:0:0:
362,253,9226,1,2,0:0:0:0:
399,164,9401,5,0,0:0:0:0:
453,288,9575,1,2,0:0:0:0:
330,348,9750,2,0,P|295:338|247:325,1,60.0000022888184,2|0,0:0|0:0,0:0:0:0:
180,359,10098,2,0,P|196:313|206:281,1,60.0000022888184,2|0,0:0|0:0,0:0:0:0:
128,236,10447,2,0,P|189:223|264:206,1,120.000004577637,2|0,0:0|0:0,0:0:0:0:
338,188,10970,6,0,P|320:243|313:270,1,60.0000022888184,2|0,0:0|0:0,0:0:0:0:
463,148,11319,2,0,P|433:139|401:129,1,60.0000022888184,2|0,0:0|0:0,0:0:0:0:
351,50,11668,2,0,P|379:41|408:32,1,60.0000022888184,2|0,0:0|0:0,0:0:0:0:
304,133,12017,1,2,0:0:0:0:
211,108,12191,1,0,0:0:0:0:
118,81,12366,1,2,0:0:0:0:
64,205,12540,6,0,P|115:194|190:176,2,120.000004577637
138,321,13412,2,0,P|148:303|159:281,1,30.0000011444092,8|8,0:0|0:0,0:0:0:0:
252,253,13587,1,0,0:0:0:0:
252,253,13674,1,8,0:0:0:0:
252,253,13761,2,0,L|330:236,1,60.0000022888184,8|0,0:0|0:0,0:0:0:0:
431,211,14110,6,0,P|417:268|401:353,1,120,6|0,0:0|0:0,0:0:0:0:
399,356,14459,2,0,L|312:338,1,80,8|0,0:0|0:0,0:0:0:0:
212,314,14808,1,8,0:0:0:0:
191,212,14982,1,0,0:0:0:0:
259,133,15157,1,0,0:0:0:0:
175,307,15331,5,8,0:0:0:0:
154,205,15505,1,0,0:0:0:0:
222,126,15680,1,0,0:0:0:0:
136,303,15854,5,8,0:0:0:0:
115,201,16028,1,0,0:0:0:0:
183,122,16203,1,8,0:0:0:0:
213,237,16377,5,0,0:0:0:0:
306,99,16552,1,8,0:0:0:0:
471,148,16726,1,0,0:0:0:0:
471,148,16901,6,0,P|423:134|371:118,1,80,8|0,0:0|0:0,0:0:0:0:
241,211,17250,2,0,P|289:225|341:241,1,80,8|0,0:0|0:0,0:0:0:0:
447,274,17598,1,8,0:0:0:0:
355,346,17773,1,0,0:0:0:0:
300,137,17947,1,8,0:0:0:0:
185,280,18122,6,0,P|110:256|8:224,1,160,4|0,0:0|0:0,0:0:0:0:
128,153,18645,1,8,0:0:0:0:
188,349,18819,2,0,P|210:302|240:194,1,160,2|0,0:0|0:0,0:0:0:0:
197,95,19343,6,0,P|253:82|295:71,1,80,8|0,0:0|0:0,0:0:0:0:
395,41,19691,2,0,P|379:97|370:136,1,80,8|0,0:0|0:0,0:0:0:0:
480,227,20040,2,0,P|437:203|396:209,1,80,8|0,0:0|0:0,0:0:0:0:
279,271,20389,1,8,0:0:0:0:
379,302,20563,1,0,0:0:0:0:
244,188,20738,1,8,0:0:0:0:
291,369,20912,5,0,0:0:0:0:
189,292,21087,1,8,0:0:0:0:
346,196,21261,1,0,0:0:0:0:
292,370,21436,1,8,0:0:0:0:
189,292,21610,2,0,P|114:307|26:328,1,160
69,200,22133,6,0,P|119:189|181:174,1,80,8|0,0:0|0:0,0:0:0:0:
267,146,22482,2,0,P|254:190|237:247,1,80,8|0,0:0|0:0,0:0:0:0:
153,84,22831,1,8,0:0:0:0:
260,62,23005,1,0,0:0:0:0:
260,62,23093,1,0,0:0:0:0:
260,62,23180,1,8,0:3:0:0:
336,85,23354,1,0,0:0:0:0:
415,91,23529,1,4,0:3:0:0:
493,78,23703,6,0,P|482:147|473:214,1,128
509,259,24575,2,0,P|467:216|373:233,1,143.999995605469,8|0,0:3|0:0,0:0:0:0:
314,270,25273,2,0,P|277:259|196:239,1,103.999995239258,2|0,0:0|0:0,0:0:0:0:
152,178,25796,2,0,P|188:165|213:152,1,51.999997619629,2|0,0:0|0:0,0:0:0:0:
135,97,26145,2,0,P|151:62|159:35,1,51.999997619629,2|0,0:0|0:0,0:0:0:0:
71,45,26494,6,0,P|55:103|80:160,2,103.999995239258,2|0|0,0:0|0:0|0:0,0:0:0:0:
117,189,27366,2,0,P|51:176|-4:167,1,103.999995239258,2|0,0:0|0:0,0:0:0:0:
70,272,27889,1,0,0:0:0:0:
70,272,28063,6,0,P|111:280|142:287,1,51.999997619629,2|0,0:0|0:0,0:0:0:0:
207,243,28412,1,0,0:0:0:0:
253,364,28587,2,0,P|262:330|273:296,1,51.999997619629,2|0,0:0|0:0,0:0:0:0:
367,256,28936,2,0,P|324:246|298:239,1,51.999997619629,2|0,0:0|0:0,0:0:0:0:
251,148,29284,2,0,P|302:162|364:175,1,103.999995239258,2|0,0:0|0:0,0:0:0:0:
451,120,29808,1,0,0:0:0:0:
451,120,29982,5,0,0:0:0:0:
451,120,30157,2,0,P|434:176|427:212,2,77.9999964294435,2|0|0,0:0|0:0|0:0,0:0:0:0:
507,54,30854,2,0,P|456:42|406:29,1,103.999995239258,2|0,0:0|0:0,0:0:0:0:
253,66,31377,2,0,P|304:78|355:92,1,103.999995239258,2|0,0:0|0:0,0:0:0:0:
353,91,31901,5,0,0:0:0:0:
286,167,32250,2,0,P|249:157|216:151,1,51.999997619629,2|0,0:0|0:0,0:0:0:0:
205,82,32598,2,0,P|171:101|144:120,1,51.999997619629
93,68,32947,2,0,P|83:105|77:138,1,51.999997619629
21,172,33296,2,0,P|89:197|132:174,1,103.999995239258,2|2,0:0|0:0,0:0:0:0:
115,187,33819,1,2,0:0:0:0:
160,257,34168,5,2,0:0:0:0:
160,257,34343,2,0,P|145:315|133:372,1,103.999995239258,2|0,0:0|0:0,0:0:0:0:
236,304,34866,1,0,0:0:0:0:
183,179,35040,2,0,P|138:169|111:163,1,51.999997619629,2|0,0:0|0:0,0:0:0:0:
29,235,35389,2,0,P|74:245|101:251,1,51.999997619629
156,260,35738,1,0,0:0:0:0:
230,236,35912,1,8,0:0:0:0:
259,325,36087,1,8,0:0:0:0:
259,325,36436,6,0,P|313:313|354:305,1,68.0000012969971
461,358,36784,1,10,0:0:0:0:
406,275,36959,2,0,P|420:224|428:196,1,68.0000012969971
357,133,37308,2,0,P|347:165|338:198,1,68.0000012969971,0|10,0:0|0:0,0:0:0:0:
254,240,37657,6,0,P|198:228|113:212,1,136.000002593994
50,135,38180,1,10,0:0:0:0:
156,52,38354,2,0,P|144:94|134:140,1,68.0000012969971
206,201,38703,1,0,0:0:0:0:
296,130,38877,1,10,0:0:0:0:
242,20,39052,1,0,0:0:0:0:
296,130,39226,6,0,P|375:114|453:99,1,136.000002593994,2|10,0:0|0:0,0:0:0:0:
304,220,39750,2,0,P|257:210|218:202,1,68.0000012969971
102,243,40098,5,0,0:0:0:0:
189,120,40273,1,10,0:0:0:0:
279,314,40447,2,0,P|324:320|392:261,1,136.000002593994
472,191,40970,2,0,P|434:183|390:171,1,68.0000012969971,8|0,0:0|0:0,0:0:0:0:
336,125,41232,1,0,0:0:0:0:
336,125,41319,2,0,P|348:82|365:25,2,102.000001945496,2|2|2,0:0|0:0|0:0,0:0:0:0:
141,90,42017,6,0,P|176:54|262:61,1,136.000002593994,2|10,0:0|0:0,0:0:0:0:
335,125,42540,1,0,0:0:0:0:
248,247,42715,2,0,P|203:235|151:225,1,68.0000012969971
101,131,43063,2,0,P|148:123|180:133,1,68.0000012969971,10|0,0:0|0:0,0:0:0:0:
280,30,43412,6,0,P|268:75|257:126,1,68.0000012969971
356,180,43761,2,0,P|401:169|447:160,1,68.0000012969971,10|0,0:0|0:0,0:0:0:0:
486,66,44110,2,0,P|441:55|395:46,1,68.0000012969971
346,99,44459,5,10,0:0:0:0:
215,63,44633,1,0,0:0:0:0:
100,192,44808,2,0,B|125:149|125:92|100:42,1,136.000002593994,0|8,0:0|0:0,0:0:0:0:
13,157,45331,1,4,0:3:0:0:
61,289,45505,2,0,P|101:277|152:264,1,68.0000012969971,4|2,0:3|0:0,0:0:0:0:
25,376,45854,1,0,0:0:0:0:
25,376,46029,6,0,P|100:353|162:336,1,136.000002593994,8|0,0:0|0:0,0:0:0:0:
258,382,46552,2,0,P|243:323|237:292,1,68.0000012969971,8|0,0:0|0:0,0:0:0:0:
297,245,46901,2,0,P|243:234|213:227,1,68.0000012969971,8|0,0:3|0:0,0:0:0:0:
144,158,47250,2,0,P|198:147|228:140,1,68.0000012969971,4|0,0:3|0:0,0:0:0:0:
317,78,47598,6,0,P|260:68|178:50,1,128
26,132,48122,1,0,0:0:0:0:
90,32,48296,2,0,P|103:74|112:110,1,64,8|0,0:0|0:0,0:0:0:0:
23,218,48645,1,0,0:0:0:0:
108,191,48819,2,0,P|143:198|179:206,1,64,8|0,0:0|0:0,0:0:0:0:
254,235,49168,2,0,P|289:228|325:219,1,64,0|8,0:0|0:0,0:0:0:0:
399,187,49517,1,0,0:0:0:0:
399,187,49691,2,0,L|383:104,1,64,8|0,0:0|0:0,0:0:0:0:
301,142,50040,2,0,L|287:79,1,64,2|0,0:0|0:0,0:0:0:0:
205,33,50389,6,0,P|142:47|57:62,2,128,0|8|8,0:0|0:0|0:0,0:0:0:0:
119,153,51261,1,2,0:0:0:0:
119,153,51348,1,0,0:0:0:0:
119,153,51436,1,0,0:0:0:0:
227,125,51610,2,0,P|213:175|206:208,1,64,8|0,0:0|0:0,0:0:0:0:
288,266,51959,1,0,0:0:0:0:
377,160,52133,2,0,L|307:176,1,64,8|0,0:0|0:0,0:0:0:0:
288,266,52482,1,8,0:0:0:0:
360,346,52657,1,0,0:0:0:0:
432,87,52831,1,0,0:0:0:0:
432,87,53180,5,8,0:0:0:0:
316,40,53354,2,0,P|326:87|332:121,1,64
257,167,53703,1,0,0:0:0:0:
164,142,53877,1,8,0:0:0:0:
70,117,54052,6,0,P|56:154|48:180,1,64
189,236,54401,2,0,L|120:252,1,64,8|0,0:0|0:0,0:0:0:0:
78,356,54750,2,0,L|160:336,1,64,0|8,0:0|0:0,0:0:0:0:
264,257,55098,1,0,0:0:0:0:
264,257,55273,2,0,L|192:276,1,64,8|0,0:0|0:0,0:0:0:0:
212,160,55622,2,0,P|291:141|330:131,1,96
357,124,55970,6,0,P|344:171|337:204,1,64,8|0,0:0|0:0,0:0:0:0:
403,308,56319,1,0,0:0:0:0:
434,197,56494,1,0,0:0:0:0:
313,278,56668,2,0,P|275:266|222:254,1,64,8|0,0:0|0:0,0:0:0:0:
79,292,57017,1,0,0:0:0:0:
154,352,57191,2,0,L|176:263,1,64,8|0,0:0|0:0,0:0:0:0:
228,42,57540,5,0,0:0:0:0:
228,42,57715,2,0,P|213:106|232:182,2,136.000002593994,0|8|0,0:0|0:0|0:0,0:0:0:0:
438,83,58587,1,0,0:0:0:0:
438,83,58674,1,0,0:0:0:0:
438,83,58761,2,0,L|349:104,1,75.9999979705811,8|0,0:0|0:0,0:0:0:0:
309,212,59110,2,0,L|398:191,1,75.9999979705811,8|0,0:0|0:0,0:0:0:0:
417,326,59459,1,0,0:0:0:0:
312,305,59633,1,0,0:0:0:0:
207,282,59808,2,0,L|118:261,1,75.9999979705811,8|0,0:0|0:0,0:0:0:0:
68,354,60157,6,0,P|89:274|64:180,2,160,0|8|0,0:0|0:0|0:0,0:0:0:0:
185,280,61029,2,8,P|205:274|240:264,1,40,0|8,0:0|0:0,0:0:0:0:
295,328,61203,2,0,L|317:230,1,80,8|0,0:0|0:0,0:0:0:0:
437,164,61552,2,8,P|366:146|281:120,1,160,8|0,0:0|0:0,0:0:0:0:
229,23,62075,2,0,P|249:102|209:195,1,160,8|0,0:0|0:0,0:0:0:0:
51,308,62598,1,8,0:0:0:0:
127,97,62773,1,4,0:0:0:0:
127,97,63296,6,0,P|173:87|213:77,1,80
303,52,63645,2,0,P|291:88|288:109,1,40,8|0,0:0|0:0,0:0:0:0:
365,155,63819,1,8,0:0:0:0:
347,175,63906,1,8,0:0:0:0:
325,189,63993,1,8,0:0:0:0:
299,196,64080,1,8,0:0:0:0:
272,195,64167,1,8,0:0:0:0:
247,187,64255,1,8,0:0:0:0:
225,172,64343,6,0,P|179:182|139:192,2,80,4|0|8,0:0|0:0|0:0,0:0:0:0:
85,115,64866,1,0,0:0:0:0:
48,212,65040,2,0,P|63:270|70:308,1,80
26,372,65389,1,8,0:0:0:0:
218,325,65563,2,0,P|175:335|140:343,1,80
172,227,65912,2,0,P|213:218|252:209,1,80,0|8,0:0|0:0,0:0:0:0:
418,343,66261,5,0,0:0:0:0:
316,294,66436,1,0,0:0:0:0:
355,189,66610,1,0,0:0:0:0:
322,358,66784,1,8,0:0:0:0:
360,166,66959,1,0,0:0:0:0:
364,150,67046,1,8,0:0:0:0:
368,134,67133,6,0,L|389:29,1,80
267,119,67482,2,0,P|217:132|168:144,1,80,8|0,0:0|0:0,0:0:0:0:
45,80,67831,1,0,0:0:0:0:
212,38,68005,1,0,0:0:0:0:
165,229,68180,1,8,0:0:0:0:
350,104,68354,6,0,P|340:145|331:190,1,80
415,286,68703,1,0,0:0:0:0:
444,177,68877,1,8,0:0:0:0:
306,337,69052,1,0,0:0:0:0:
186,258,69226,2,0,P|190:236|197:211,1,40,8|0,0:0|0:0,0:0:0:0:
271,260,69401,1,0,0:0:0:0:
271,260,69488,1,0,0:0:0:0:
271,260,69575,2,0,P|258:317|253:351,1,80,8|0,0:0|0:0,0:0:0:0:
369,321,69924,6,0,P|400:277|497:286,1,160,8|8,0:0|0:0,0:0:0:0:
448,165,70447,1,0,0:0:0:0:
448,165,70622,2,0,P|401:154|345:141,1,80
169,100,70970,1,8,0:0:0:0:
169,100,71145,1,0,0:0:0:0:
290,50,71319,6,0,P|276:106|269:140,1,80
295,317,71668,2,0,P|250:307|203:298,1,80,8|0,0:0|0:0,0:0:0:0:
95,200,72017,2,0,P|134:192|173:183,1,80
312,70,72366,2,0,P|272:62|191:42,1,120,8|0,0:0|0:0,0:0:0:0:
159,33,72715,6,0,P|174:97|179:131,1,80,2|0,0:0|0:0,0:0:0:0:
95,200,73063,1,8,0:0:0:0:
56,32,73238,1,0,0:0:0:0:
174,110,73412,1,0,0:0:0:0:
254,139,73587,1,0,0:0:0:0:
334,108,73761,1,8,0:0:0:0:
450,33,73936,2,0,P|431:123|419:197,1,160
491,344,74459,6,0,P|449:333|389:319,1,80,8|0,0:0|0:0,0:0:0:0:
299,359,74808,2,8,P|308:329|311:307,1,40
249,248,74982,1,8,0:0:0:0:
210,258,75069,1,8,0:0:0:0:
171,269,75156,1,8,0:0:0:0:
133,280,75244,1,8,0:0:0:0:
111,246,75331,1,8,0:0:0:0:
101,207,75418,1,8,0:0:0:0:
105,168,75505,6,0,P|155:155|209:140,2,80,4|0|8,0:0|0:0|0:0,0:0:0:0:
34,299,76029,1,0,0:0:0:0:
111,281,76203,1,0,0:0:0:0:
173,231,76377,1,0,0:0:0:0:
119,358,76552,1,8,0:0:0:0:
253,277,76726,6,0,P|236:325|223:374,1,80
412,295,77075,1,0,0:0:0:0:
323,205,77250,1,8,0:0:0:0:
293,310,77424,1,0,0:0:0:0:
404,163,77598,5,0,0:0:0:0:
349,359,77773,1,0,0:0:0:0:
462,292,77947,1,8,0:0:0:0:
320,203,78122,1,0,0:0:0:0:
320,203,78209,1,8,0:0:0:0:
320,203,78296,6,0,P|305:263|297:299,1,80
165,192,78645,2,0,P|223:178|252:171,1,80,8|0,0:0|0:0,0:0:0:0:
406,271,78994,1,0,0:0:0:0:
297,303,79168,1,0,0:0:0:0:
206,259,79343,1,8,0:0:0:0:
242,99,79517,6,0,L|258:16,1,80
339,186,79866,1,0,0:0:0:0:
225,220,80040,1,8,0:0:0:0:
164,105,80215,1,0,0:0:0:0:
289,69,80389,2,0,P|329:78|391:90,2,80,0|0|8,0:0|0:0|0:0,0:0:0:0:
174,169,80912,1,0,0:0:0:0:
174,169,81000,1,8,0:0:0:0:
174,169,81087,6,0,P|92:150|17:134,1,160,0|8,0:0|0:0,0:0:0:0:
143,41,81610,1,0,0:0:0:0:
143,41,81784,2,0,P|194:54|237:64,1,80
82,186,82133,1,8,0:0:0:0:
82,186,82308,1,0,0:0:0:0:
38,26,82482,2,0,P|55:84|65:125,1,80
0,291,82831,1,8,0:0:0:0:
92,317,83005,1,0,0:0:0:0:
161,237,83180,1,8,0:0:0:0:
260,277,83354,1,8,0:0:0:0:
260,277,83441,1,8,0:0:0:0:
260,277,83529,6,0,P|341:260|404:250,1,120,8|0,0:0|0:0,0:0:0:0:
421,218,83877,6,0,P|408:273|402:310,1,80,4|0,0:0|0:0,0:0:0:0:
473,357,84226,1,0,0:0:0:0:
345,165,84401,2,0,P|332:220|326:257,1,80,8|0,0:0|0:0,0:0:0:0:
471,353,84750,1,0,0:0:0:0:
439,140,84924,1,8,0:0:0:0:
306,332,85098,2,0,P|250:347|170:266,1,160,4|0,0:0|0:0,0:0:0:0:
244,203,85622,6,8,P|213:194|185:187,1,40
110,122,85796,1,8,0:0:0:0:
129,117,85883,1,8,0:0:0:0:
149,113,85970,1,8,0:0:0:0:
168,108,86057,1,8,0:3:0:0:
188,104,86144,1,8,0:3:0:0:
207,99,86232,1,4,0:3:0:0:
225,96,86319,2,0,P|283:112|344:127,1,120,4|0,0:3|0:0,0:0:0:0:
401,159,86668,6,0,P|363:168|313:182,1,80,4|0,0:0|0:0,0:0:0:0:
170,73,87017,2,2,P|208:63|247:53,1,80,8|0,0:0|0:0,0:0:0:0:
168,220,87366,1,8,0:0:0:0:
57,90,87540,1,0,0:0:0:0:
6,257,87715,2,2,P|44:246|83:237,1,80,8|0,0:0|0:0,0:0:0:0:
261,324,88063,5,8,0:0:0:0:
139,365,88238,1,0,0:0:0:0:
62,314,88412,2,0,L|88:217,1,80,8|0,0:0|0:0,0:0:0:0:
195,185,88761,5,8,0:0:0:0:
317,144,88936,1,0,0:0:0:0:
394,195,89110,2,0,L|368:292,1,80,8|0,0:0|0:0,0:0:0:0:
192,265,89459,6,0,P|240:250|283:236,2,80,8|0|8,0:0|0:0|0:0,0:0:0:0:
55,168,89982,1,0,0:0:0:0:
163,29,90157,2,0,P|145:97|139:123,1,80,8|0,0:0|0:0,0:0:0:0:
228,175,90505,2,0,P|270:163|325:151,1,80,8|0,0:0|0:0,0:0:0:0:
409,348,90854,5,8,0:0:0:0:
331,271,91029,1,0,0:0:0:0:
402,135,91203,2,0,P|431:142|454:147,1,40,8|0,0:0|0:0,0:0:0:0:
491,259,91377,1,4,0:3:0:0:
491,259,91465,1,0,0:0:0:0:
491,259,91552,2,0,P|448:248|394:235,1,80,8|0,0:0|0:0,0:0:0:0:
298,339,91901,2,0,P|284:270|265:188,1,120,8|0,0:0|0:0,0:0:0:0:
224,194,92250,6,0,P|267:183|321:170,1,80,4|0,0:0|0:0,0:0:0:0:
393,46,92598,2,0,P|350:35|296:22,1,80,8|0,0:0|0:0,0:0:0:0:
164,76,92947,1,8,0:0:0:0:
256,142,93122,1,0,0:0:0:0:
107,184,93296,2,0,P|124:238|133:274,1,80,8|0,0:0|0:0,0:0:0:0:
39,358,93645,5,8,0:0:0:0:
3,234,93819,1,0,0:0:0:0:
119,282,93994,1,8,0:0:0:0:
45,370,94168,5,0,0:0:0:0:
22,241,94343,1,8,0:0:0:0:
200,317,94517,1,0,0:0:0:0:
139,359,94691,5,8,0:0:0:0:
175,252,94866,1,0,0:0:0:0:
209,145,95040,2,0,P|163:135|92:119,1,120,8|0,0:0|0:0,0:0:0:0:
31,157,95389,2,0,P|81:169|129:180,1,80,8|0,0:0|0:0,0:0:0:0:
368,288,95738,5,4,0:3:0:0:
278,323,95912,1,0,0:0:0:0:
190,283,96087,1,0,0:0:0:0:
100,316,96261,1,0,0:0:0:0:
100,316,96348,1,0,0:0:0:0:
100,316,96436,1,2,0:0:0:0:
190,283,97308,5,0,0:0:0:0:
278,323,97482,1,4,0:3:0:0:
341,207,97831,6,0,P|299:216|264:223,1,71.9999978027344
166,157,98180,1,10,0:0:0:0:
289,59,98354,2,0,P|280:101|273:136,1,71.9999978027344
341,207,98703,1,4,0:3:0:0:
438,181,98877,1,10,0:0:0:0:
473,336,99052,6,0,P|413:323|318:306,1,143.999995605469
223,361,99575,2,0,P|237:306|242:283,1,71.9999978027344,10|0,0:0|0:0,0:0:0:0:
15,219,99924,1,0,0:0:0:0:
94,218,100098,1,0,0:0:0:0:
168,190,100273,1,10,0:0:0:0:
168,190,100622,6,0,P|154:244|145:286,2,71.9999978027344,0|0|10,0:0|0:0|0:0,0:0:0:0:
96,105,101145,1,0,0:0:0:0:
196,58,101319,1,0,0:0:0:0:
249,150,101494,2,0,P|299:138|331:130,1,71.9999978027344,0|10,0:0|0:0,0:0:0:0:
378,232,101843,2,0,P|328:244|296:252,1,71.9999978027344
125,291,102191,5,0,0:0:0:0:
125,291,102366,1,8,0:0:0:0:
203,342,102540,2,0,P|212:296|219:261,1,71.9999978027344,2|0,0:0|0:0,0:0:0:0:
247,104,102889,1,0,0:0:0:0:
158,180,103063,2,0,P|122:172|87:166,1,71.9999978027344,8|0,0:0|0:0,0:0:0:0:
19,314,103412,5,2,0:0:0:0:
91,345,103587,1,0,0:0:0:0:
63,247,103761,1,10,0:0:0:0:
91,345,103936,5,0,0:0:0:0:
152,188,104110,1,2,0:0:0:0:
225,283,104284,1,0,0:0:0:0:
154,166,104459,5,10,0:0:0:0:
255,304,104633,2,0,P|302:290|347:279,1,71.9999978027344,2|0,0:0|0:0,0:0:0:0:
452,331,104982,1,0,0:0:0:0:
404,267,105157,1,10,0:0:0:0:
402,188,105331,2,0,P|367:178|332:168,1,71.9999978027344
216,91,105680,1,0,0:0:0:0:
216,91,105854,2,0,P|250:81|324:62,1,107.999996704102,10|0,0:0|0:0,0:0:0:0:
347,55,106203,5,0,0:0:0:0:
445,23,106377,2,0,P|432:76|426:108,1,71.9999978027344,8|0,0:0|0:0,0:0:0:0:
496,212,106726,1,8,0:3:0:0:
422,241,106901,1,8,0:3:0:0:
346,217,107075,1,4,0:3:0:0:
314,148,107250,1,4,0:3:0:0:
351,78,107424,1,4,0:0:0:0:
351,78,108296,5,0,0:0:0:0:
314,148,108470,1,0,0:0:0:0:
346,217,108645,1,4,0:0:0:0:
422,241,108994,6,0,P|364:228|281:212,1,136.000002593994,0|8,0:0|0:0,0:0:0:0:
169,249,109517,1,0,0:0:0:0:
130,171,109691,1,0,0:0:0:0:
248,133,109866,2,0,P|286:141|326:148,1,68.0000012969971,0|8,0:0|0:0,0:0:0:0:
408,208,110215,5,0,0:0:0:0:
468,100,110389,1,0,0:0:0:0:
373,34,110563,2,0,P|385:81|393:116,1,68.0000012969971,0|8,0:0|0:0,0:0:0:0:
312,182,110912,2,0,P|261:171|230:165,1,68.0000012969971
117,329,111261,5,0,0:0:0:0:
185,358,111436,1,8,0:0:0:0:
264,334,111610,1,0,0:0:0:0:
264,334,111697,1,0,0:0:0:0:
264,334,111784,6,0,L|252:248,1,68.0000012969971
245,167,112133,2,0,L|233:81,1,68.0000012969971,8|0,0:0|0:0,0:0:0:0:
118,45,112482,1,0,0:0:0:0:
150,160,112657,1,0,0:0:0:0:
29,132,112831,1,8,0:0:0:0:
76,269,113005,6,0,P|151:250|217:235,1,136.000002593994
371,292,113529,1,8,0:0:0:0:
232,332,113703,1,0,0:0:0:0:
298,217,113877,2,0,P|310:172|292:99,2,102.000001945496
152,170,114575,6,0,P|177:83|193:20,1,136.000002593994,2|8,0:0|0:0,0:0:0:0:
57,6,115098,1,0,0:0:0:0:
191,129,115273,2,0,P|232:120|263:111,1,68.0000012969971
360,28,115622,2,0,P|349:72|342:107,1,68.0000012969971,8|0,0:0|0:0,0:0:0:0:
407,183,115970,6,0,P|366:192|335:201,1,68.0000012969971
266,296,116319,2,0,P|258:262|250:229,1,68.0000012969971,8|0,0:0|0:0,0:0:0:0:
31,302,116668,1,0,0:0:0:0:
106,302,116843,1,0,0:0:0:0:
158,249,117017,1,8,0:0:0:0:
147,179,117191,1,0,0:0:0:0:
147,179,117279,1,0,0:0:0:0:
147,179,117366,6,0,P|103:169|65:162,1,68.0000012969971,2|0,0:0|0:0,0:0:0:0:
180,73,117715,2,0,P|224:83|262:90,1,68.0000012969971,8|0,0:0|0:0,0:0:0:0:
345,151,118063,5,0,0:0:0:0:
250,212,118238,1,0,0:0:0:0:
344,248,118412,1,8,0:0:0:0:
440,214,118587,2,0,P|430:247|428:271,1,34.0000006484985
475,353,118761,2,0,P|408:337|335:320,1,136.000002593994,0|8,0:0|0:0,0:0:0:0:
235,304,119284,2,0,P|225:271|223:247,1,34.0000006484985
270,165,119458,2,0,P|203:181|130:198,1,136.000002593994,0|8,0:0|0:0,0:0:0:0:
15,115,119982,5,0,0:0:0:0:
155,30,120157,2,0,P|140:89|135:116,1,68.0000012969971,8|0,0:0|0:0,0:0:0:0:
207,180,120505,1,8,0:0:0:0:
313,67,120680,2,0,P|266:77|240:82,1,68.0000012969971
332,188,121029,2,0,P|379:178|405:173,1,68.0000012969971,0|8,0:0|0:0,0:0:0:0:
463,337,121377,6,0,P|401:340|345:289,1,136.000002593994
430,248,121901,1,8,0:0:0:0:
332,152,122075,2,0,P|285:162|259:167,1,68.0000012969971
120,282,122424,1,0,0:0:0:0:
187,341,122598,1,8,0:0:0:0:
281,260,122773,1,0,0:0:0:0:
187,341,122947,6,0,P|125:329|45:316,1,136.000002593994,0|8,0:0|0:0,0:0:0:0:
177,219,123470,2,0,P|217:228|263:236,1,68.0000012969971
358,299,123819,1,0,0:0:0:0:
432,180,123994,1,8,0:0:0:0:
342,322,124168,6,0,P|279:339|203:284,1,136.000002593994
134,244,124691,2,0,P|122:292|115:331,1,68.0000012969971,8|0,0:0|0:0,0:0:0:0:
31,347,124953,1,0,0:0:0:0:
31,347,125040,2,0,P|44:285|56:240,2,102.000001945496,2|2|0,0:0|0:0|0:0,0:0:0:0:
212,295,125738,6,0,P|223:254|233:203,1,68.0000012969971,8|0,0:0|0:0,0:0:0:0:
80,167,126087,2,0,P|138:153|159:148,1,68.0000012969971,8|0,0:0|0:0,0:0:0:0:
321,217,126436,1,0,0:0:0:0:
254,126,126610,1,0,0:0:0:0:
367,80,126784,1,8,0:0:0:0:
307,265,126959,1,0,0:0:0:0:
453,168,127133,6,0,P|437:233|432:259,1,68.0000012969971
492,359,127482,2,0,P|427:343|401:338,1,68.0000012969971,8|0,0:0|0:0,0:0:0:0:
240,281,127831,2,0,P|305:265|331:260,1,68.0000012969971
419,306,128180,5,8,0:0:0:0:
315,361,128354,1,0,0:0:0:0:
236,244,128529,2,0,P|220:191|255:96,1,136.000002593994,0|8,0:0|0:0,0:0:0:0:
334,277,129052,1,4,0:3:0:0:
222,331,129226,2,0,P|165:319|128:312,1,68.0000012969971,4|0,0:3|0:0,0:0:0:0:
28,209,129575,1,8,0:0:0:0:
28,209,129750,6,0,P|109:229|162:241,1,136.000002593994,8|8,0:0|0:0,0:0:0:0:
308,163,130273,2,0,P|265:171|230:179,1,68.0000012969971,8|0,0:3|0:0,0:0:0:0:
63,85,130622,2,0,P|106:77|141:69,1,68.0000012969971,4|0,0:3|0:0,0:0:0:0:
243,18,130970,2,0,P|235:51|229:84,1,68.0000012969971,4|0,0:3|0:0,0:0:0:0:
447,102,131319,6,0,P|398:58|332:82,1,128
398,197,131843,1,4,0:3:0:0:
398,197,132017,2,0,P|343:211|323:217,1,64,8|0,0:0|0:0,0:0:0:0:
211,161,132366,1,0,0:0:0:0:
211,161,132540,2,0,P|257:149|289:140,1,64,8|0,0:0|0:0,0:0:0:0:
247,271,132889,2,0,P|192:285|172:291,1,64,0|8,0:0|0:0,0:0:0:0:
92,176,133238,1,0,0:0:0:0:
92,176,133412,1,8,0:0:0:0:
199,107,133587,1,0,0:0:0:0:
194,128,133674,1,0,0:0:0:0:
190,150,133761,6,0,L|176:226,1,64
264,292,134110,1,8,0:0:0:0:
367,262,134284,1,0,0:0:0:0:
479,227,134459,2,0,L|460:311,1,64,0|4,0:0|0:3,0:0:0:0:
326,169,134808,1,8,0:0:0:0:
434,135,134982,1,0,0:0:0:0:
437,112,135069,1,0,0:0:0:0:
430,90,135157,1,0,0:0:0:0:
333,56,135331,6,0,L|244:80,1,64,8|0,0:0|0:0,0:0:0:0:
127,112,135680,1,8,0:0:0:0:
197,227,135854,2,0,P|212:169|219:142,1,64,8|0,0:0|0:0,0:0:0:0:
332,125,136203,1,8,0:0:0:0:
295,272,136377,1,0,0:0:0:0:
423,206,136552,2,0,L|407:265,1,32
482,355,136726,1,0,0:0:0:0:
482,355,136813,1,0,0:0:0:0:
482,355,136901,6,0,L|408:339,1,64,4|0,0:0|0:0,0:0:0:0:
312,267,137250,2,0,P|324:317|332:357,1,64,8|0,0:0|0:0,0:0:0:0:
217,380,137598,1,2,0:0:0:0:
183,218,137773,1,0,0:0:0:0:
286,276,137947,1,0,0:0:0:0:
133,342,138122,6,0,P|126:310|118:279,1,64,8|0,0:0|0:0,0:0:0:0:
24,205,138470,1,8,0:0:0:0:
24,205,138645,2,0,P|79:188|106:179,1,64,8|0,0:0|0:0,0:0:0:0:
212,268,138994,1,8,0:0:0:0:
104,178,139168,1,0,0:0:0:0:
181,131,139343,2,0,P|193:88|208:26,1,96
205,38,139691,5,8,0:0:0:0:
298,98,139866,2,0,P|331:90|387:75,1,64,8|0,0:0|0:0,0:0:0:0:
461,186,140215,1,0,0:0:0:0:
461,186,140389,2,0,P|430:177|398:170,1,64,8|0,0:0|0:0,0:0:0:0:
308,274,140738,1,0,0:0:0:0:
308,274,140912,6,0,P|295:223|286:191,1,64,8|0,0:0|0:0,0:0:0:0:
108,165,141261,1,0,0:0:0:0:
74,260,141436,2,0,P|109:250|152:239,1,71.9999978027344,8|0,0:0|0:0,0:0:0:0:
230,354,141784,1,4,0:3:0:0:
364,257,141959,1,0,0:0:0:0:
372,229,142046,1,0,0:0:0:0:
364,201,142133,1,8,0:0:0:0:
240,140,142308,1,0,0:0:0:0:
240,140,142395,1,0,0:0:0:0:
240,140,142482,6,0,P|188:154|140:165,1,75.9999979705811,8|0,0:0|0:0,0:0:0:0:
64,75,142831,2,0,P|51:150|66:195,1,113.999996955872,8|0,0:0|0:0,0:0:0:0:
61,185,143180,1,4,0:3:0:0:
94,263,143354,1,0,0:0:0:0:
122,337,143529,2,0,P|159:325|194:315,1,75.9999979705811,8|0,0:0|0:0,0:0:0:0:
313,357,143877,2,0,P|299:306|291:266,1,75.9999979705811
357,187,144226,6,0,P|320:176|284:165,1,75.9999979705811,8|0,0:0|0:0,0:0:0:0:
124,216,144575,1,0,0:0:0:0:
190,140,144750,1,0,0:0:0:0:
190,140,144837,1,0,0:0:0:0:
190,140,144924,2,0,P|204:85|191:22,1,113.999996955872,8|0,0:0|0:0,0:0:0:0:
236,78,145273,6,0,P|289:66|330:55,1,75.9999979705811,8|0,0:0|0:0,0:0:0:0:
472,189,145622,1,0,0:0:0:0:
374,230,145796,1,8,0:0:0:0:
291,162,145970,1,0,0:0:0:0:
396,123,146145,5,0,0:0:0:0:
343,326,146319,1,8,0:0:0:0:
258,64,146494,1,4,0:0:0:0:
259,64,147366,5,8,0:0:0:0:
259,64,147453,1,0,0:0:0:0:
259,64,147540,2,0,L|187:84,1,41.9999987182618
176,176,147715,5,8,0:0:0:0:
176,176,147802,1,0,0:0:0:0:
176,176,147889,2,0,L|156:104,1,41.9999987182618
71,97,148063,6,0,P|84:146|97:198,2,83.9999974365235,4|0|8,0:0|0:0|0:0,0:0:0:0:
176,174,148587,1,0,0:0:0:0:
85,278,148761,2,0,P|37:267|-5:258,1,83.9999974365235
175,94,149110,1,8,0:0:0:0:
278,191,149284,2,0,P|263:247|254:285,1,83.9999974365235
160,257,149633,5,0,0:0:0:0:
225,362,149808,1,8,0:0:0:0:
273,191,149982,1,0,0:0:0:0:
216,374,150157,5,0,0:0:0:0:
259,217,150331,1,0,0:0:0:0:
332,316,150505,1,8,0:0:0:0:
424,255,150680,1,0,0:0:0:0:
424,255,150767,1,8,0:0:0:0:
424,255,150854,6,0,L|442:168,1,83.9999974365235
276,90,151203,2,0,P|325:80|364:70,1,83.9999974365235,8|0,0:0|0:0,0:0:0:0:
461,37,151552,1,0,0:0:0:0:
345,250,151726,1,0,0:0:0:0:
314,131,151901,1,8,0:0:0:0:
229,250,152075,6,0,L|213:167,1,83.9999974365235
27,111,152424,1,0,0:0:0:0:
249,180,152598,1,8,0:0:0:0:
70,227,152773,1,0,0:0:0:0:
171,95,152947,2,0,L|178:150,1,41.9999987182618,8|0,0:0|0:0,0:0:0:0:
210,312,153122,1,0,0:0:0:0:
210,312,153209,1,0,0:0:0:0:
210,312,153296,2,0,L|192:222,1,83.9999974365235,8|0,0:0|0:0,0:0:0:0:
91,371,153645,6,0,P|176:350|258:331,1,167.999994873047,0|8,0:0|0:0,0:0:0:0:
434,289,154168,1,0,0:0:0:0:
434,289,154343,2,0,P|422:339|414:382,1,83.9999974365235
313,248,154691,1,8,0:0:0:0:
313,248,154866,1,0,0:0:0:0:
431,179,155040,6,0,P|390:169|349:160,1,83.9999974365235
217,53,155389,2,0,P|226:93|235:134,1,83.9999974365235,8|0,0:0|0:0,0:0:0:0:
83,261,155738,2,0,P|124:251|164:242,1,83.9999974365235
436,354,156087,2,0,P|449:289|463:224,1,125.999996154785,8|0,0:0|0:0,0:0:0:0:
510,208,156436,6,0,P|462:196|411:182,1,83.9999974365235
308,74,156784,1,8,0:0:0:0:
347,192,156959,1,0,0:0:0:0:
405,41,157133,1,0,0:0:0:0:
313,240,157308,1,0,0:0:0:0:
249,104,157482,1,8,0:0:0:0:
165,221,157657,6,0,P|86:207|-5:192,1,167.999994873047
151,334,158180,2,0,P|192:325|233:317,1,83.9999974365235,8|0,0:0|0:0,0:0:0:0:
393,183,158529,2,8,P|386:202|380:222,1,41.9999987182618
471,267,158703,1,8,0:0:0:0:
454,289,158790,1,8,0:0:0:0:
432,306,158877,1,8,0:0:0:0:
406,316,158964,1,8,0:0:0:0:
378,319,159051,1,8,0:0:0:0:
350,315,159139,1,8,0:0:0:0:
315,303,159226,6,0,P|296:351|282:396,2,83.9999974365235,4|0|8,0:0|0:0|0:0,0:0:0:0:
362,167,159750,1,0,0:0:0:0:
380,350,159924,1,0,0:0:0:0:
268,223,160098,1,0,0:0:0:0:
451,106,160273,1,8,0:0:0:0:
321,33,160447,6,0,P|334:85|344:130,1,83.9999974365235
253,180,160796,1,0,0:0:0:0:
146,157,160970,1,8,0:0:0:0:
223,269,161145,2,0,P|284:273|335:225,1,125.999996154785,2|0,0:0|0:0,0:0:0:0:
331,233,161494,1,2,0:0:0:0:
313,361,161668,1,8,0:0:0:0:
146,157,161843,1,0,0:0:0:0:
146,157,161930,1,8,0:0:0:0:
146,157,162017,6,0,L|169:57,1,83.9999974365235,2|0,0:0|0:0,0:0:0:0:
354,54,162366,2,0,P|305:44|263:34,1,83.9999974365235,8|0,0:0|0:0,0:0:0:0:
116,265,162715,1,0,0:0:0:0:
203,329,162889,1,0,0:0:0:0:
305,291,163063,1,8,0:0:0:0:
335,135,163238,6,0,L|354:51,1,83.9999974365235
454,155,163587,1,0,0:0:0:0:
322,231,163761,1,8,0:0:0:0:
263,96,163936,1,0,0:0:0:0:
318,249,164110,5,0,0:0:0:0:
407,52,164284,1,0,0:0:0:0:
474,200,164459,1,8,0:0:0:0:
408,356,164633,2,8,P|397:331|390:309,1,41.9999987182618
484,287,164808,6,0,P|433:278|304:252,1,167.999994873047,0|8,0:0|0:0,0:0:0:0:
212,163,165331,1,0,0:0:0:0:
212,163,165505,2,0,P|263:154|329:140,1,83.9999974365235
384,57,165854,1,8,0:0:0:0:
384,57,166029,1,0,0:0:0:0:
494,187,166203,2,0,P|443:196|377:210,1,83.9999974365235
154,308,166552,1,8,0:0:0:0:
253,352,166726,1,0,0:0:0:0:
351,303,166901,1,8,0:0:0:0:
326,143,167075,1,8,0:0:0:0:
326,143,167162,1,8,0:0:0:0:
326,143,167250,6,0,L|308:12,1,125.999996154785,8|0,0:0|0:0,0:0:0:0:
308,18,167598,1,10,0:0:0:0:
235,191,167773,1,0,0:0:0:0:
402,97,167947,1,0,0:0:0:0:
229,270,168122,5,8,0:0:0:0:
400,174,168296,1,0,0:0:0:0:
354,308,168470,1,0,0:0:0:0:
133,223,168645,1,8,0:0:0:0:
233,28,168819,6,0,P|209:108|237:176,1,151.999995941162,8|8,0:0|0:3,0:0:0:0:
386,126,169343,2,0,P|368:167|360:196,1,47.9999985351563,8|0,0:0|0:0,0:0:0:0:
457,282,169517,1,0,0:0:0:0:
457,282,169604,1,0,0:0:0:0:
457,282,169691,1,8,0:0:0:0:
338,323,169866,2,0,L|289:311,2,41.9999987182618,0|0|8,0:0|0:0|0:3,0:0:0:0:
181,293,170215,1,0,0:0:0:0:
181,293,170302,1,8,0:0:0:0:
181,293,170389,6,0,L|203:199,1,83.9999974365235
47,84,170738,1,8,0:0:0:0:
131,152,170912,1,0,0:0:0:0:
207,73,171087,1,8,0:0:0:0:
227,69,171174,1,0,0:0:0:0:
248,65,171261,1,0,0:0:0:0:
268,60,171348,1,0,0:0:0:0:
290,55,171436,6,0,B|321:48|343:38|343:38|327:97|317:154,1,167.999994873047,8|8,0:0|0:0,0:0:0:0:
288,316,171959,1,0,0:0:0:0:
154,231,172133,2,0,P|163:188|174:145,1,83.9999974365235,8|0,0:0|0:0,0:0:0:0:
262,214,172482,1,8,0:0:0:0:
229,352,172657,1,0,0:0:0:0:
81,263,172831,1,8,0:0:0:0:
347,191,173005,1,0,0:0:0:0:
421,328,173180,6,0,P|379:318|337:309,2,83.9999974365235,8|0|8,0:0|0:0|0:0,0:0:0:0:
338,214,173703,1,0,0:0:0:0:
338,214,173877,2,0,P|296:224|254:233,1,83.9999974365235,8|0,0:0|0:0,0:0:0:0:
115,151,174226,1,8,0:0:0:0:
269,54,174401,1,0,0:0:0:0:
269,54,174488,1,0,0:0:0:0:
269,54,174575,6,0,P|256:111|251:140,1,83.9999974365235,8|0,0:0|0:0,0:0:0:0:
353,243,174924,1,8,0:0:0:0:
458,194,175098,1,0,0:0:0:0:
368,80,175273,2,0,P|422:66|475:51,1,83.9999974365235,8|0,0:0|0:0,0:0:0:0:
353,243,175622,2,0,P|287:225|209:207,1,125.999996154785,8|0,0:0|0:0,0:0:0:0:
193,204,175970,6,0,P|204:256|210:296,1,83.9999974365235,8|0,0:0|0:0,0:0:0:0:
125,357,176319,1,8,0:0:0:0:
18,331,176494,1,0,0:0:0:0:
42,170,176668,2,0,P|99:157|133:149,1,83.9999974365235,8|0,0:0|0:0,0:0:0:0:
257,62,177017,2,0,P|246:97|241:119,1,41.9999987182618,8|0,0:0|0:0,0:0:0:0:
295,221,177191,1,0,0:0:0:0:
295,221,177366,6,0,P|344:209|386:200,1,83.9999974365235,8|0,0:0|0:0,0:0:0:0:
316,319,177715,1,8,0:0:0:0:
212,352,177889,1,0,0:0:0:0:
116,298,178063,1,8,0:0:0:0:
220,75,178238,2,8,P|195:157|224:241,1,167.999994873047,10|8,0:0|0:0,0:0:0:0:
385,137,178761,6,0,P|343:145|303:155,1,83.9999974365235,8|0,0:0|0:0,0:0:0:0:
180,289,179110,2,0,P|220:279|262:271,1,83.9999974365235,8|0,0:0|0:0,0:0:0:0:
455,323,179459,1,8,0:0:0:0:
363,378,179633,1,0,0:0:0:0:
251,355,179808,1,8,0:0:0:0:
286,160,179982,6,0,L|303:63,1,83.9999974365235,8|0,0:0|0:0,0:0:0:0:
406,141,180331,1,8,0:3:0:0:
175,208,180505,1,0,0:0:0:0:
268,264,180680,1,4,0:3:0:0:
369,225,180854,1,4,0:3:0:0:
286,160,181029,1,8,0:0:0:0:
292,127,181116,1,8,0:0:0:0:
298,94,181203,1,8,0:0:0:0:
407,36,181377,6,8,L|391:107,1,41.9999987182618
366,227,181552,2,0,P|305:214|192:193,2,160,0|8|0,0:0|0:0|0:0,0:0:0:0:
463,311,182424,1,0,0:0:0:0:
365,363,182598,1,8,0:0:0:0:
290,288,182773,1,0,0:0:0:0:
331,123,182947,6,0,L|357:29,1,80
423,196,183296,1,8,0:0:0:0:
339,258,183470,1,0,0:0:0:0:
382,98,183645,1,0,0:0:0:0:
469,275,183819,5,0,0:0:0:0:
393,81,183994,1,8,0:0:0:0:
354,225,184168,1,0,0:0:0:0:
479,173,184343,2,0,L|505:79,1,80
291,166,184691,2,0,P|349:148|379:138,1,80,8|0,0:0|0:0,0:0:0:0:
397,305,185040,5,0,0:0:0:0:
296,277,185215,1,0,0:0:0:0:
440,219,185389,1,8,0:0:0:0:
367,364,185563,1,0,0:0:0:0:
237,205,185738,6,0,P|229:166|242:121,1,80
304,311,186087,2,0,L|210:289,1,80,8|0,0:0|0:0,0:0:0:0:
171,91,186436,1,0,0:0:0:0:
139,200,186610,1,0,0:0:0:0:
338,81,186784,2,0,P|325:135|311:205,1,120,8|0,0:0|0:0,0:0:0:0:
344,238,187133,6,0,P|303:228|252:218,1,80
169,288,187482,2,0,P|151:231|140:197,1,80,8|0,0:0|0:0,0:0:0:0:
37,181,187831,1,0,0:0:0:0:
92,343,188005,1,0,0:0:0:0:
202,225,188180,1,8,0:0:0:0:
12,279,188354,5,0,0:0:0:0:
187,340,188529,1,0,0:0:0:0:
119,201,188703,1,0,0:0:0:0:
69,362,188877,6,0,L|188:339,1,120,8|0,0:0|0:0,0:0:0:0:
243,297,189226,2,0,P|230:347|222:389,1,80
351,307,189575,1,8,0:0:0:0:
243,189,189750,1,0,0:0:0:0:
202,315,189924,1,0,0:0:0:0:
371,162,190098,5,0,0:0:0:0:
314,356,190273,1,8,0:0:0:0:
432,273,190447,1,0,0:0:0:0:
259,178,190622,5,0,0:0:0:0:
324,322,190796,1,0,0:0:0:0:
383,119,190970,1,8,0:0:0:0:
383,119,191145,1,8,0:0:0:0:
260,178,191494,5,0,0:0:0:0:
260,178,191581,1,0,0:0:0:0:
260,178,191668,1,8,0:0:0:0:
169,209,191843,1,0,0:0:0:0:
92,151,192017,1,0,0:0:0:0:
272,101,192191,1,0,0:0:0:0:
190,302,192366,1,8,0:0:0:0:
37,175,192540,1,0,0:0:0:0:
37,175,192627,1,8,0:0:0:0:
37,175,192715,6,0,L|59:81,1,80
155,159,193063,2,0,P|203:147|239:138,1,80,8|0,0:0|0:0,0:0:0:0:
447,297,193412,1,0,0:0:0:0:
359,337,193587,1,0,0:0:0:0:
280,282,193761,1,8,0:0:0:0:
322,124,193936,1,0,0:0:0:0:
322,124,194110,6,0,L|340:41,2,80,0|0|8,0:0|0:0|0:0,0:0:0:0:
359,221,194633,2,0,P|422:207|520:187,1,160
382,321,195157,2,0,P|319:307|233:289,1,120,8|0,0:0|0:0,0:0:0:0:
223,344,195505,6,0,P|214:299|205:259,1,80,8|0,0:0|0:0,0:0:0:0:
85,225,195854,1,0,0:0:0:0:
109,335,196029,1,8,0:0:0:0:
203,174,196203,1,0,0:0:0:0:
19,273,196377,5,0,0:0:0:0:
91,159,196552,2,0,P|142:149|172:142,1,80,8|0,0:0|0:0,0:0:0:0:
273,270,196901,2,0,P|222:280|192:287,1,80,8|0,0:0|0:0,0:0:0:0:
77,319,197250,1,8,0:0:0:0:
152,224,197424,1,0,0:0:0:0:
210,362,197598,1,8,0:0:0:0:
306,194,197773,6,8,P|290:221|280:239,1,40
329,330,197947,1,8,0:0:0:0:
367,338,198034,1,8,0:0:0:0:
405,327,198121,1,8,0:0:0:0:
434,300,198208,1,8,0:0:0:0:
446,262,198296,6,0,L|428:163,1,80,4|0,0:0|0:0,0:0:0:0:
488,108,198645,2,0,P|441:98|396:88,1,80,8|0,0:0|0:0,0:0:0:0:
259,151,198994,1,0,0:0:0:0:
173,106,199168,1,0,0:0:0:0:
232,12,199343,1,8,0:0:0:0:
318,57,199517,1,0,0:0:0:0:
233,216,199691,6,0,P|222:258|212:306,1,80
355,344,200040,2,0,L|275:366,1,80,8|0,0:0|0:0,0:0:0:0:
110,305,200389,2,0,L|190:283,2,80,0|0|8,0:0|0:0|0:0,0:0:0:0:
197,382,200912,5,0,0:0:0:0:
282,260,201087,2,0,L|262:167,1,80
135,47,201436,1,8,0:0:0:0:
113,195,201610,1,0,0:0:0:0:
247,107,201784,1,0,0:0:0:0:
170,251,201959,5,0,0:0:0:0:
265,181,202133,1,8,0:0:0:0:
220,320,202308,5,0,0:0:0:0:
310,251,202482,1,0,0:0:0:0:
320,344,202657,5,0,0:0:0:0:
412,368,202831,1,8,0:0:0:0:
495,320,203005,2,0,L|480:229,1,80
464,114,203354,1,0,0:0:0:0:
390,201,203529,2,0,P|363:192|339:181,1,40,8|0,0:0|0:0,0:0:0:0:
292,121,203703,1,0,0:0:0:0:
292,121,203790,1,8,0:0:0:0:
292,121,203877,6,0,L|149:153,1,120
100,165,204226,2,0,P|69:148|36:115,1,80,8|0,0:0|0:0,0:0:0:0:
155,2,204575,2,0,L|133:84,1,80
211,215,204924,2,0,L|232:126,1,80,8|0,0:0|0:0,0:0:0:0:
361,63,205273,6,0,P|312:55|235:39,1,120
243,40,205622,1,8,0:0:0:0:
311,183,205796,2,0,P|356:174|401:162,1,80
482,139,206145,2,0,P|473:173|470:193,1,40
486,302,206319,6,0,P|443:266|332:277,1,160,8|0,0:0|0:0,0:0:0:0:
270,341,206843,1,8,0:0:0:0:
262,309,206930,1,8,0:0:0:0:
253,278,207017,2,0,L|235:189,1,80,8|0,0:0|0:0,0:0:0:0:
313,77,207366,5,0,0:0:0:0:
222,127,207540,1,0,0:0:0:0:
119,107,207715,1,8,0:0:0:0:
59,264,207889,1,0,0:0:0:0:
59,264,208063,6,0,L|77:353,1,80
149,262,208412,2,0,L|131:173,1,80,8|0,0:0|0:0,0:0:0:0:
104,43,208761,1,0,0:0:0:0:
211,141,208936,2,8,L|276:122,1,40
324,108,209110,1,8,0:0:0:0:
472,200,209284,1,8,0:0:0:0:
433,211,209372,1,8,0:0:0:0:
394,199,209459,6,0,L|417:59,1,120,8|0,0:0|0:0,0:0:0:0:
463,39,209808,2,0,L|447:129,1,80,8|0,0:0|0:0,0:0:0:0:
359,171,210157,1,8,0:0:0:0:
258,146,210331,1,0,0:0:0:0:
119,250,210505,6,0,P|168:237|203:227,1,80,8|0,0:0|0:0,0:0:0:0:
358,277,210854,2,0,P|319:287|280:298,1,80,8|0,0:0|0:0,0:0:0:0:
172,341,211203,1,8,0:0:0:0:
288,223,211377,1,0,0:0:0:0:
254,365,211552,1,8,0:0:0:0:
362,258,211726,5,0,0:0:0:0:
342,359,211901,1,8,0:0:0:0:
477,184,212075,1,0,0:0:0:0:
477,184,212250,6,0,L|493:97,1,80,8|0,0:0|0:0,0:0:0:0:
315,34,212598,2,0,P|308:87|325:133,1,80,8|0,0:0|0:0,0:0:0:0:
436,168,212947,1,8,0:0:0:0:
345,236,213122,1,0,0:0:0:0:
469,300,213296,1,8,0:0:0:0:
363,375,213470,6,0,P|307:361|263:351,1,80,0|8,0:0|0:0,0:0:0:0:
198,379,213819,2,0,P|194:356|191:331,1,40
107,278,213994,2,0,P|163:264|207:254,1,80,8|0,0:0|0:0,0:0:0:0:
294,320,214343,1,8,0:0:0:0:
219,370,214517,1,0,0:0:0:0:
180,183,214691,2,0,P|189:142|201:96,1,80,8|0,0:0|0:0,0:0:0:0:
310,44,215040,6,0,P|292:124|283:175,1,120,8|0,0:0|0:0,0:0:0:0:
280,196,215389,2,0,P|323:186|375:177,1,80,8|0,0:0|0:0,0:0:0:0:
483,335,215738,1,8,0:3:0:0:
403,324,215912,1,4,0:3:0:0:
355,259,216087,1,4,0:3:0:0:
484,85,216261,6,0,P|464:162|452:231,1,120,8|0,0:0|0:0,0:0:0:0:
457,201,216610,1,8,0:0:0:0:
364,129,216784,2,0,P|319:119|276:107,1,80,8|0,0:0|0:0,0:0:0:0:
143,232,217133,2,0,P|194:247|264:264,1,120,8|0,0:0|0:0,0:0:0:0:
289,273,217482,2,0,P|311:232|310:184,1,80,8|0,0:0|0:0,0:0:0:0:
29,342,217831,5,8,0:0:0:0:
129,368,218005,1,0,0:0:0:0:
220,317,218180,2,0,L|204:225,1,80,8|0,0:0|0:0,0:0:0:0:
184,84,218529,5,8,0:0:0:0:
256,117,218703,1,0,0:0:0:0:
334,128,218877,1,8,0:0:0:0:
412,111,219052,2,0,P|401:167|395:207,1,80
470,278,219401,5,0,0:0:0:0:
470,278,219575,2,0,P|477:234|490:181,1,71.9999978027344,8|0,0:0|0:0,0:0:0:0:
403,364,219924,1,8,0:3:0:0:
329,336,220098,1,4,0:3:0:0:
250,347,220273,2,0,L|171:325,1,71.9999978027344,8|0,0:0|0:0,0:0:0:0:
96,307,220622,6,0,P|84:252|105:186,2,128,2|2|2,0:0|0:0|0:0,0:0:0:0:
139,160,231959,6,0,P|205:147|230:142,1,80,8|0,0:3|0:0,0:0:0:0:
309,120,232482,2,0,P|301:156|298:176,2,40,4|4|8,0:3|0:3|0:0,0:0:0:0:
418,235,233180,6,0,P|379:242|293:260,1,120.000004577637,8|0,0:0|0:0,0:0:0:0:
155,308,233703,1,0,0:0:0:0:
233,222,233877,2,0,P|226:263|222:289,1,60.0000022888184,8|0,0:0|0:0,0:0:0:0:
296,344,234226,1,0,0:0:0:0:
296,344,234401,6,0,P|300:314|305:284,1,60.0000022888184,8|0,0:0|0:0,0:0:0:0:
393,204,234750,2,0,P|387:233|383:263,1,60.0000022888184,0|8,0:0|0:0,0:0:0:0:
482,348,235098,5,0,0:0:0:0:
482,348,235273,2,0,P|439:371|369:332,1,120.000004577637,8|0,0:0|0:0,0:0:0:0:
304,207,235970,6,0,P|377:194|437:182,1,120.000004577637
458,85,236494,1,0,0:0:0:0:
458,85,236668,1,8,0:0:0:0:
367,26,236843,1,0,0:0:0:0:
367,26,236930,1,0,0:0:0:0:
367,26,237017,2,0,P|356:80|352:105,1,60.0000022888184
248,159,237366,6,0,P|253:129|259:100,1,60.0000022888184
177,50,237715,2,0,P|166:104|162:129,1,60.0000022888184,8|0,0:0|0:0,0:0:0:0:
127,267,238063,2,0,P|191:254|260:238,1,120.000004577637,8|0,0:0|0:0,0:0:0:0:
396,216,238587,1,0,0:0:0:0:
396,216,238674,1,0,0:0:0:0:
396,216,238761,6,0,P|382:274|370:333,1,120.000004577637,8|0,0:0|0:0,0:0:0:0:
476,364,239284,2,0,P|459:358|437:353,1,30.0000011444092
359,374,239459,2,0,L|293:357,1,60.0000022888184,8|0,0:0|0:0,0:0:0:0:
146,277,239808,1,0,0:0:0:0:
208,380,239982,1,0,0:0:0:0:
208,380,240069,1,0,0:0:0:0:
208,380,240157,2,0,P|218:342|229:306,1,60.0000022888184,0|8,0:0|0:0,0:0:0:0:
338,218,240505,5,0,0:0:0:0:
243,247,240680,1,8,0:0:0:0:
161,187,240854,1,8,0:0:0:0:
293,31,241029,1,8,0:0:0:0:
286,52,241116,1,8,0:0:0:0:
280,74,241204,1,8,0:0:0:0:
275,96,241291,1,8,0:0:0:0:
269,118,241378,1,8,0:0:0:0:
264,140,241465,1,8,0:0:0:0:
259,163,241552,6,0,P|327:206|405:180,2,151.999995941162,0|8|0,0:0|0:0|0:0,0:0:0:0:
339,109,242424,1,0,0:0:0:0:
480,156,242598,2,0,P|467:204|458:244,1,75.9999979705811,8|0,0:0|0:0,0:0:0:0:
496,343,242947,5,0,0:0:0:0:
361,290,243122,1,0,0:0:0:0:
471,188,243296,1,8,0:0:0:0:
341,322,243470,1,8,0:3:0:0:
341,322,243558,1,0,0:0:0:0:
341,322,243645,2,0,P|335:284|328:247,1,75.9999979705811,4|0,0:3|0:0,0:0:0:0:
110,341,243994,1,4,0:3:0:0:
219,371,244168,1,0,0:0:0:0:
201,191,244343,6,0,L|185:72,1,113.999996955872,8|0,0:0|0:0,0:0:0:0:
185,78,244691,5,0,0:0:0:0:
293,122,244866,1,8,0:0:0:0:
125,223,245040,1,0,0:0:0:0:
185,50,245215,5,0,0:0:0:0:
263,293,245389,1,8,0:0:0:0:
83,111,245563,1,8,0:0:0:0:
83,111,246610,5,0,0:0:0:0:
224,68,246784,2,0,P|295:85|338:95,1,113.999996955872,8|0,0:0|0:0,0:0:0:0:
420,59,247133,6,0,P|423:115|403:161,2,88.000002685547,4|0|8,0:0|0:0|0:0,0:0:0:0:
310,213,247657,1,0,0:0:0:0:
399,294,247831,2,0,P|456:280|509:269,1,88.000002685547
315,136,248180,1,8,0:0:0:0:
226,245,248354,2,0,P|240:300|247:339,1,88.000002685547
41,176,248703,5,0,0:0:0:0:
157,282,248877,1,10,0:0:0:0:
201,90,249052,1,0,0:0:0:0:
185,275,249226,5,0,0:0:0:0:
222,108,249401,1,0,0:0:0:0:
318,230,249575,1,8,0:0:0:0:
416,143,249750,1,0,0:0:0:0:
416,143,249837,1,8,0:0:0:0:
416,143,249924,6,0,P|423:103|434:46,1,88.000002685547
307,88,250273,2,0,P|257:101|207:112,1,88.000002685547,8|0,0:0|0:0,0:0:0:0:
50,57,250622,1,0,0:0:0:0:
245,14,250796,1,0,0:0:0:0:
192,224,250970,1,8,0:0:0:0:
385,96,251145,6,0,P|373:155|367:191,1,88.000002685547
452,289,251494,1,0,0:0:0:0:
479,160,251668,1,8,0:0:0:0:
333,304,251843,1,0,0:0:0:0:
216,231,252017,2,0,P|222:201|229:171,1,44.0000013427735,8|0,0:0|0:0,0:0:0:0:
315,118,252191,1,0,0:0:0:0:
315,118,252279,1,0,0:0:0:0:
315,118,252366,2,0,P|302:174|294:214,1,88.000002685547,8|0,0:0|0:0,0:0:0:0:
428,344,252715,6,0,P|371:290|267:315,1,176.000005371094,0|8,0:0|0:0,0:0:0:0:
83,213,253238,1,0,0:0:0:0:
83,213,253412,2,0,P|142:201|187:191,1,88.000002685547
449,145,253761,5,8,0:0:0:0:
449,145,253936,1,0,0:0:0:0:
355,36,254110,2,0,P|345:88|336:145,1,88.000002685547
448,349,254459,2,0,P|386:336|353:328,1,88.000002685547,8|0,0:0|0:0,0:0:0:0:
178,248,254808,2,0,P|240:235|273:227,1,88.000002685547
463,113,255157,2,0,P|401:100|328:82,1,132.00000402832,8|0,0:0|0:0,0:0:0:0:
267,19,255505,6,0,P|241:72|244:114,1,88.000002685547,2|0,0:0|0:0,0:0:0:0:
312,211,255854,1,8,0:0:0:0:
440,177,256029,1,0,0:0:0:0:
394,316,256203,1,0,0:0:0:0:
271,364,256377,1,0,0:0:0:0:
158,293,256552,1,8,0:0:0:0:
208,148,256726,6,0,L|235:57,1,88.000002685547
392,188,257075,2,0,P|368:209|348:221,1,44.0000013427735,8|8,0:0|0:0,0:0:0:0:
116,287,257250,1,8,0:0:0:0:
145,257,257337,1,8,0:0:0:0:
184,240,257424,1,8,0:0:0:0:
227,242,257511,1,8,0:0:0:0:
267,259,257598,5,8,0:3:0:0:
288,280,257686,1,8,0:3:0:0:
318,301,257773,1,8,0:3:0:0:
357,310,257860,1,8,0:3:0:0:
393,301,257947,1,4,0:3:0:0:
426,279,258034,1,4,0:3:0:0:
432,248,258122,1,4,0:3:0:0:
436,217,258209,1,4,0:3:0:0:
441,186,258296,6,0,P|394:175|338:163,2,88.000002685547,12|0|8,0:0|0:0|0:0,0:0:0:0:
479,101,258819,1,0,0:0:0:0:
399,288,258994,1,0,0:0:0:0:
300,214,259168,1,0,0:0:0:0:
238,325,259343,1,8,0:0:0:0:
229,123,259517,6,0,P|271:113|314:103,1,88.000002685547
486,155,259866,1,0,0:0:0:0:
395,16,260040,1,8,0:0:0:0:
351,208,260215,1,0,0:0:0:0:
376,32,260389,5,0,0:0:0:0:
327,227,260563,1,0,0:0:0:0:
467,138,260738,1,8,0:0:0:0:
277,49,260912,1,0,0:0:0:0:
277,49,261000,1,8,0:0:0:0:
277,49,261087,6,0,P|263:105|251:154,1,88.000002685547
337,252,261436,2,0,P|272:237|216:227,1,88.000002685547,8|0,0:0|0:0,0:0:0:0:
40,336,261784,1,0,0:0:0:0:
156,377,261959,1,8,0:3:0:0:
156,377,262046,1,0,0:0:0:0:
156,377,262133,1,8,0:0:0:0:
265,319,262308,6,0,L|250:225,1,88.000002685547
102,103,262657,1,0,0:0:0:0:
132,237,262831,1,8,0:0:0:0:
236,134,263005,1,0,0:0:0:0:
22,208,263180,5,0,0:0:0:0:
242,262,263354,1,0,0:0:0:0:
194,27,263529,1,8,0:0:0:0:
122,185,263703,5,0,0:0:0:0:
122,185,263790,1,8,0:0:0:0:
122,185,263877,2,0,P|209:167|302:149,1,176.000005371094,0|8,0:0|0:0,0:0:0:0:
346,14,264401,1,0,0:0:0:0:
346,14,264575,2,0,P|299:24|236:37,1,88.000002685547
124,229,264924,1,8,0:0:0:0:
243,259,265098,1,0,0:0:0:0:
326,167,265273,1,0,0:0:0:0:
118,122,265447,5,8,0:0:0:0:
118,122,265534,1,8,0:0:0:0:
118,122,265622,1,8,0:0:0:0:
243,259,265796,1,8,0:0:0:0:
243,259,265883,1,8,0:0:0:0:
243,259,265970,2,0,L|218:368,1,88.000002685547,8|0,0:0|0:0,0:0:0:0:
489,198,266319,2,0,P|450:157|366:186,1,132.00000402832,8|0,0:0|0:0,0:0:0:0:
354,191,266668,5,4,0:0:0:0:
321,61,266843,1,0,0:0:0:0:
149,172,267017,1,0,0:0:0:0:
332,17,267191,1,8,0:0:0:0:
268,248,267366,5,0,0:0:0:0:
321,61,267540,1,0,0:0:0:0:
137,225,267715,1,8,0:0:0:0:
204,344,267889,6,0,P|293:361|369:302,1,176.000005371094
466,211,268412,2,0,P|414:200|359:187,1,88.000002685547,8|0,0:0|0:0,0:0:0:0:
392,51,268761,1,8,0:0:0:0:
232,149,268936,2,8,P|222:123|215:88,1,44.0000013427735
299,64,269110,2,0,P|282:119|265:196,1,132.00000402832,8|0,0:0|0:0,0:0:0:0:
285,228,269459,5,4,0:0:0:0:
459,166,269633,1,0,0:0:0:0:
316,313,269808,5,8,0:0:0:0:
401,91,269982,1,0,0:0:0:0:
283,229,270157,1,8,0:0:0:0:
250,223,270244,1,0,0:0:0:0:
218,216,270331,1,0,0:0:0:0:
186,209,270418,1,0,0:0:0:0:
154,200,270505,6,0,B|134:196|108:186|108:186|136:277|143:329,1,176.000005371094,8|8,0:0|0:0,0:0:0:0:
58,361,271029,1,0,0:0:0:0:
247,241,271203,2,0,P|259:301|264:340,1,88.000002685547,8|0,0:0|0:0,0:0:0:0:
43,166,271552,5,8,0:0:0:0:
83,301,271726,1,0,0:0:0:0:
179,73,271901,1,8,0:0:0:0:
191,203,272075,5,0,0:0:0:0:
191,203,272162,1,0,0:0:0:0:
191,203,272250,1,8,0:0:0:0:
484,308,272424,5,0,0:0:0:0:
383,378,272598,1,8,0:0:0:0:
266,336,272773,1,0,0:0:0:0:
489,216,272947,5,8,0:0:0:0:
277,143,273122,1,0,0:0:0:0:
485,96,273296,5,8,0:0:0:0:
258,248,273471,1,0,0:0:0:0:
368,30,273645,5,8,0:0:0:0:
314,297,273820,1,0,0:0:0:0:
418,143,273994,1,8,0:0:0:0:
302,363,274168,5,0,0:0:0:0:
350,118,274343,1,8,0:0:0:0:
146,231,274517,1,0,0:0:0:0:
413,288,274691,5,8,0:0:0:0:
218,172,274866,1,0,0:0:0:0:
424,151,275040,5,8,0:0:0:0:
180,298,275215,1,0,0:0:0:0:
269,35,275389,1,8,0:0:0:0:
272,345,275563,5,0,0:0:0:0:
363,108,275738,1,8,0:0:0:0:
92,181,275912,5,0,0:0:0:0:
294,107,276087,1,8,0:0:0:0:
209,324,276261,1,0,0:0:0:0:
79,57,276436,5,8,0:0:0:0:
137,235,276610,1,0,0:0:0:0:
196,37,276784,1,8,0:0:0:0:
180,320,276959,5,0,0:0:0:0:
258,52,277133,1,8,0:0:0:0:
332,320,277308,1,0,0:0:0:0:
117,159,277482,1,8,0:0:0:0:
396,166,277657,1,0,0:0:0:0:
396,166,277744,1,0,0:0:0:0:
396,166,277831,6,0,P|338:154|264:136,1,120,8|0,0:0|0:0,0:0:0:0:
235,128,278180,2,0,P|214:179|228:234,1,80,8|8,0:0|0:3,0:0:0:0:
300,293,278529,5,0,0:0:0:0:
392,269,278703,1,0,0:0:0:0:
484,245,278877,1,8,0:0:0:0:
397,351,279052,1,4,0:0:0:0:
256,192,279226,12,0,281843,0:0:0:0:
202,137,282061,5,0,0:0:0:0:
202,137,282235,2,0,P|250:126|294:115,1,80,8|0,0:0|0:0,0:0:0:0:
413,206,282584,1,0,0:0:0:0:
413,206,282758,1,0,0:0:0:0:
345,307,282933,2,0,P|352:332|358:357,1,40,8|0,0:0|0:0,0:0:0:0:
222,284,283107,2,0,P|231:255|239:225,1,40,8|0,0:0|0:0,0:0:0:0:
80,189,283281,1,8,0:0:0:0:
80,189,283412,6,0,P|152:175|231:157,1,120,4|8,0:0|0:0,0:0:0:0:
275,154,283760,2,0,P|288:112|296:66,1,80,8|0,0:0|0:0,0:0:0:0:
137,272,284109,1,8,0:0:0:0:
243,307,284284,1,0,0:0:0:0:
325,231,284458,1,8,0:0:0:0:
141,305,284632,5,8,0:0:0:0:
247,340,284807,1,0,0:0:0:0:
329,264,284981,1,0,0:0:0:0:
147,335,285156,5,8,0:0:0:0:
253,370,285331,1,0,0:0:0:0:
335,294,285505,1,0,0:0:0:0:
173,232,285679,1,8,0:0:0:0:
253,370,285853,1,8,0:0:0:0:
430,226,286028,1,0,0:0:0:0:
430,226,286115,1,0,0:0:0:0:
430,226,286202,6,0,L|415:123,1,80,8|0,0:0|0:0,0:0:0:0:
502,62,286551,2,0,P|458:52|416:42,1,80,8|0,0:0|0:0,0:0:0:0:
262,197,286900,1,0,0:0:0:0:
358,253,287074,1,0,0:0:0:0:
442,179,287249,1,8,0:0:0:0:
273,104,287423,6,0,P|172:127|103:141,1,160
17,239,287946,1,8,0:0:0:0:
147,276,288121,1,0,0:0:0:0:
121,163,288295,1,0,0:0:0:0:
236,200,288470,1,0,0:0:0:0:
298,112,288644,2,0,P|326:104|365:91,1,40,8|8,0:0|0:0,0:0:0:0:
470,168,288818,1,8,0:0:0:0:
470,168,288906,1,8,0:0:0:0:
470,168,288993,6,0,P|431:203|346:189,1,120
334,189,289342,2,0,P|312:234|307:271,1,80,8|0,0:0|0:0,0:0:0:0:
461,297,289691,5,0,0:0:0:0:
336,360,289865,1,0,0:0:0:0:
417,144,290039,1,8,0:0:0:0:
342,299,290214,5,0,0:0:0:0:
396,164,290388,1,0,0:0:0:0:
443,318,290563,5,0,0:0:0:0:
307,384,290737,1,8,0:0:0:0:
187,302,290912,2,0,L|211:194,1,80
320,125,291260,5,0,0:0:0:0:
320,125,291348,1,8,0:0:0:0:
320,125,291435,2,0,P|274:116|219:104,1,80,8|0,0:0|0:0,0:0:0:0:
55,225,291784,6,0,P|89:252|193:231,1,120,8|0,0:0|0:0,0:0:0:0:
162,252,292132,1,8,0:0:0:0:
281,200,292307,1,8,0:0:0:0:
281,200,292481,1,0,0:0:0:0:
260,299,292656,2,0,P|247:354|242:385,1,80,0|8,0:0|0:0,0:0:0:0:
481,354,293005,6,0,P|456:314|337:335,1,160
485,206,293528,2,0,P|429:193|403:187,1,80,8|0,0:0|0:0,0:0:0:0:
378,182,293789,1,0,0:0:0:0:
378,182,293877,1,0,0:0:0:0:
245,95,294051,2,0,L|236:57,2,40
279,230,294400,1,0,0:0:0:0:
127,120,294574,6,0,P|141:181|148:220,1,80,8|0,0:0|0:0,0:0:0:0:
60,315,294923,1,8,0:0:0:0:
22,192,295098,1,0,0:0:0:0:
201,348,295272,2,0,P|253:333|288:325,1,80,8|0,0:0|0:0,0:0:0:0:
365,231,295621,2,0,P|326:221|287:210,1,80,8|0,0:0|0:0,0:0:0:0:
161,65,295970,6,0,P|234:52|300:37,1,120,8|0,0:0|0:0,0:0:0:0:
310,29,296318,2,0,P|297:93|294:128,1,80,8|0,0:0|0:0,0:0:0:0:
473,179,296667,2,0,P|429:189|376:206,1,80,8|0,0:0|0:0,0:0:0:0:
241,246,297016,1,8,0:0:0:0:
344,329,297191,1,0,0:0:0:0:
418,87,297365,5,8,0:0:0:0:
329,188,297539,1,0,0:0:0:0:
278,31,297714,1,8,0:0:0:0:
339,230,297888,5,0,0:0:0:0:
428,129,298062,1,8,0:0:0:0:
489,281,298237,1,0,0:0:0:0:
337,146,298412,5,8,0:0:0:0:
248,247,298586,1,0,0:0:0:0:
197,90,298761,1,8,0:0:0:0:
312,217,298935,5,0,0:0:0:0:
401,116,299109,1,8,0:0:0:0:
462,268,299284,1,0,0:0:0:0:
274,149,299458,5,8,0:0:0:0:
185,250,299632,1,0,0:0:0:0:
134,93,299807,1,8,0:0:0:0:
274,302,299981,5,0,0:0:0:0:
274,302,300068,1,0,0:0:0:0:
274,302,300156,2,0,P|223:346|118:325,1,160,4|8,0:0|0:0,0:0:0:0:
30,239,300679,1,0,0:0:0:0:
139,150,300853,2,0,P|121:219|115:247,1,80,8|0,0:0|0:0,0:0:0:0:
342,171,301202,2,0,P|283:186|255:193,1,80,8|0,0:0|0:0,0:0:0:0:
216,321,301551,2,0,P|275:306|303:299,1,80,8|0,0:0|0:0,0:0:0:0:
435,264,301900,5,8,0:0:0:0:
404,359,302074,1,0,0:0:0:0:
282,112,302249,2,0,L|262:196,1,80,8|0,0:0|0:0,0:0:0:0:
230,307,302598,2,0,P|188:281|103:294,1,120,8|0,0:0|0:0,0:0:0:0:
90,298,302946,6,0,L|108:220,1,80,8|0,0:0|0:0,0:0:0:0:
145,93,303295,1,8,0:0:0:0:
400,304,303470,1,0,0:0:0:0:
305,346,303644,1,8,0:0:0:0:
218,288,303818,1,0,0:0:0:0:
262,124,303993,6,0,L|243:211,1,80,8|0,0:0|0:0,0:0:0:0:
313,314,304342,1,8,0:0:0:0:
447,201,304516,1,0,0:0:0:0:
325,56,304691,2,0,P|286:47|240:35,1,80,8|0,0:0|0:0,0:0:0:0:
101,173,305039,2,0,P|152:226|256:202,1,160,8|8,0:0|0:0,0:0:0:0:
343,142,305563,1,0,0:0:0:0:
343,142,305737,6,0,P|328:196|319:233,1,80,8|0,0:0|0:0,0:0:0:0:
439,348,306086,2,0,P|454:294|463:257,1,80,8|0,0:0|0:0,0:0:0:0:
294,327,306435,1,8,0:0:0:0:
222,256,306609,1,0,0:0:0:0:
123,291,306784,1,8,0:0:0:0:
34,236,306958,1,0,0:0:0:0:
34,236,307045,1,0,0:0:0:0:
34,236,307132,6,0,L|57:137,1,80,8|8,0:3|0:3,0:0:0:0:
240,114,307481,1,0,0:0:0:0:
179,335,307655,1,8,0:3:0:0:
73,214,307830,1,0,0:0:0:0:
198,323,308005,5,4,0:3:0:0:
328,197,308179,2,0,L|314:266,1,64,4|4,0:3|0:0,0:0:0:0:
256,192,308615,12,0,316900,0:0:0:0:
