osu file format v14

[General]
AudioFilename: Rainbow Jakka Jan.mp3
AudioLeadIn: 0
PreviewTime: -1
Countdown: 1
SampleSet: Soft
StackLeniency: 0.7
Mode: 0
LetterboxInBreaks: 0
WidescreenStoryboard: 0

[Editor]
DistanceSpacing: 0.7
BeatDivisor: 4
GridSize: 8
TimelineZoom: 2.899999

[Metadata]
Title:Rainbow Jakkajan
TitleUnicode:Rainbow Jakkajan
Artist:Kitsune/Hirasawa Yui/guilhox
ArtistUnicode:KitsuneĀ²/Hirasawa Yui/guilhox
Creator:Hanik
Version:JakkaJan
Source:youtube
Tags:
BeatmapID:2007316
BeatmapSetID:958739

[Difficulty]
HPDrainRate:0
CircleSize:4
OverallDifficulty:9
ApproachRate:9.6
SliderMultiplier:3.59999990463257
SliderTickRate:4

[Events]
//Background and Video events
0,0,"wp_ss_20161219_0001.png",0,0
//Break Periods
2,43399,48023
//Storyboard Layer 0 (Background)
//Storyboard Layer 1 (Fail)
//Storyboard Layer 2 (Pass)
//Storyboard Layer 3 (Foreground)
//Storyboard Sound Samples

[TimingPoints]
533,444.444444444444,4,2,0,70,1,0
50222,-71.4285714285714,4,2,0,70,0,0
53999,-50,4,2,0,70,0,0
54629,-66.6666666666667,4,2,0,70,0,0
64814,-58.8235294117647,4,2,0,70,0,0
67999,-200,4,2,0,70,0,0
71444,-66.6666666666667,4,2,0,70,0,0

[HitObjects]
88,64,533,5,0,0:0:0:0:
260,64,866,1,0,0:0:0:0:
260,64,977,1,0,0:0:0:0:
444,64,1200,1,0,0:0:0:0:
448,192,1422,5,0,0:0:0:0:
336,104,1533,1,0,0:0:0:0:
336,240,1644,1,0,0:0:0:0:
232,144,1755,1,0,0:0:0:0:
216,272,1866,1,0,0:0:0:0:
120,184,2088,1,0,0:0:0:0:
64,48,2311,5,0,0:0:0:0:
168,48,2644,2,0,P|240:56|319:153,1,179.999995231629
368,48,2977,1,0,0:0:0:0:
472,192,3199,1,0,0:0:0:0:
264,192,3311,1,0,0:0:0:0:
400,192,3422,1,0,0:0:0:0:
192,192,3533,1,0,0:0:0:0:
336,192,3644,1,0,0:0:0:0:
112,192,3866,1,0,0:0:0:0:
96,56,4088,6,0,B|128:56|136:64|144:72|136:56|136:56|144:64|128:64|128:64|144:56|144:56|144:48|152:64|152:64|136:48|428:55,1,359.999990463257
408,304,4977,2,0,B|376:304|368:296|368:304|368:304|368:304|360:296|376:296|376:296|360:304|360:304|360:312|352:296|352:296|368:312|84:302,1,359.999990463257
80,192,5644,1,0,0:0:0:0:
136,48,5865,5,0,0:0:0:0:
192,56,5976,1,0,0:0:0:0:
232,104,6088,1,0,0:0:0:0:
288,128,6199,1,0,0:0:0:0:
344,112,6310,1,0,0:0:0:0:
400,80,6421,1,0,0:0:0:0:
456,96,6532,1,0,0:0:0:0:
120,248,6755,6,0,L|232:248,5,89.9999976158142
80,56,7644,5,0,0:0:0:0:
216,56,7866,5,0,0:0:0:0:
240,56,7977,1,0,0:0:0:0:
264,56,8088,1,0,0:0:0:0:
400,56,8310,5,0,0:0:0:0:
336,176,8532,1,0,0:0:0:0:
176,120,8755,5,0,0:0:0:0:
96,240,8866,1,0,0:0:0:0:
40,120,8977,1,0,0:0:0:0:
224,216,9199,1,0,0:0:0:0:
408,48,9421,6,0,B|304:48|304:48|304:128,1,179.999995231628
304,168,9755,1,0,0:0:0:0:
112,192,9977,5,0,0:0:0:0:
112,112,10088,1,0,0:0:0:0:
232,64,10310,5,0,0:0:0:0:
248,184,10421,1,0,0:0:0:0:
392,72,10533,1,0,0:0:0:0:
312,160,10644,1,0,0:0:0:0:
448,184,10755,1,0,0:0:0:0:
304,80,10866,1,0,0:0:0:0:
200,176,10977,1,0,0:0:0:0:
72,128,11199,5,0,0:0:0:0:
112,288,11421,2,0,L|240:288,1,89.9999976158142
336,280,11755,5,0,0:0:0:0:
336,200,11866,1,0,0:0:0:0:
336,40,12088,5,0,0:0:0:0:
464,40,12309,1,0,0:0:0:0:
464,160,12420,1,0,0:0:0:0:
344,160,12532,1,0,0:0:0:0:
344,40,12755,5,0,0:0:0:0:
256,192,12977,1,0,0:0:0:0:
40,40,14310,5,0,0:0:0:0:
472,32,14755,5,0,0:0:0:0:
472,112,15089,6,0,B|472:208|472:208|376:208,1,179.999995231628
344,200,15421,1,0,0:0:0:0:
176,200,15644,5,0,0:0:0:0:
272,104,15755,1,0,0:0:0:0:
192,48,15866,1,0,0:0:0:0:
264,192,15977,1,0,0:0:0:0:
128,128,16088,1,0,0:0:0:0:
264,40,16309,1,0,0:0:0:0:
440,40,16532,5,0,0:0:0:0:
440,144,16866,5,0,0:0:0:0:
440,152,16977,1,0,0:0:0:0:
440,264,17199,1,0,0:0:0:0:
312,216,17421,5,0,0:0:0:0:
128,224,17532,1,0,0:0:0:0:
288,128,17644,1,0,0:0:0:0:
216,288,17755,1,0,0:0:0:0:
176,128,17866,1,0,0:0:0:0:
464,48,18088,1,0,0:0:0:0:
465,140,18310,6,0,B|464:256|464:256|400:256,1,179.999995231629
376,256,18644,1,0,0:0:0:0:
320,256,18755,1,0,0:0:0:0:
192,256,18977,1,0,0:0:0:0:
96,176,19255,6,0,B|96:80|96:80|136:80,1,134.999996423721
168,80,19533,1,0,0:0:0:0:
208,80,19644,1,0,0:0:0:0:
328,80,19866,1,0,0:0:0:0:
328,256,20088,5,0,0:0:0:0:
168,256,20199,1,0,0:0:0:0:
168,72,20310,1,0,0:0:0:0:
408,24,20421,1,0,0:0:0:0:
432,264,20533,5,0,0:0:0:0:
200,152,20644,1,0,0:0:0:0:
456,128,20755,1,0,0:0:0:0:
224,32,20866,1,0,0:0:0:0:
312,288,20977,5,0,0:0:0:0:
456,56,21088,1,0,0:0:0:0:
240,200,21199,1,0,0:0:0:0:
344,32,21310,1,0,0:0:0:0:
168,80,21421,1,0,0:0:0:0:
344,200,21644,5,0,0:0:0:0:
454,150,21866,6,0,B|456:16|456:16|408:16,1,179.999995231629
368,48,22199,1,0,0:0:0:0:
336,80,22310,1,0,0:0:0:0:
176,72,22532,1,0,0:0:0:0:
256,72,22755,5,0,0:0:0:0:
208,184,22865,1,0,0:0:0:0:
256,72,22976,1,0,0:0:0:0:
272,208,23088,1,0,0:0:0:0:
256,72,23199,1,0,0:0:0:0:
344,232,23421,1,0,0:0:0:0:
456,56,23644,5,0,0:0:0:0:
384,136,23866,2,0,L|288:136,2,89.9999976158142
112,152,24310,1,0,0:0:0:0:
320,152,24532,5,0,0:0:0:0:
208,152,24643,1,0,0:0:0:0:
320,152,24754,1,0,0:0:0:0:
320,256,24865,1,0,0:0:0:0:
320,152,24977,1,0,0:0:0:0:
440,152,25198,1,0,0:0:0:0:
32,32,25421,5,0,0:0:0:0:
248,40,25754,1,0,0:0:0:0:
256,40,25865,1,0,0:0:0:0:
344,40,26087,2,0,B|464:40|464:40|464:120,1,179.999995231628
256,192,26532,5,0,0:0:0:0:
120,192,26754,1,0,0:0:0:0:
384,192,26976,1,0,0:0:0:0:
368,280,27198,5,0,0:0:0:0:
248,336,27309,1,0,0:0:0:0:
144,280,27420,1,0,0:0:0:0:
376,200,27532,1,0,0:0:0:0:
256,272,27643,5,0,0:0:0:0:
136,208,27755,1,0,0:0:0:0:
256,184,27866,1,0,0:0:0:0:
376,120,27977,1,0,0:0:0:0:
120,120,28088,5,0,0:0:0:0:
384,248,28199,1,0,0:0:0:0:
120,264,28310,1,0,0:0:0:0:
384,184,28421,1,0,0:0:0:0:
256,272,28532,1,0,0:0:0:0:
256,168,28755,5,0,0:0:0:0:
128,56,28978,5,0,0:0:0:0:
256,56,29089,1,0,0:0:0:0:
128,192,29200,1,0,0:0:0:0:
256,192,29311,1,0,0:0:0:0:
64,120,29422,5,0,0:0:0:0:
312,120,29533,1,0,0:0:0:0:
192,120,29644,1,0,0:0:0:0:
384,120,29755,1,0,0:0:0:0:
384,216,29865,6,0,L|384:320,1,89.9999976158142
272,216,30088,2,0,L|272:328,1,89.9999976158142
80,200,30310,5,0,0:0:0:0:
176,112,30755,5,0,0:0:0:0:
40,120,30866,1,0,0:0:0:0:
192,240,30977,1,0,0:0:0:0:
240,160,31088,1,0,0:0:0:0:
240,160,31199,5,0,0:0:0:0:
240,160,31310,1,0,0:0:0:0:
384,152,31421,1,0,0:0:0:0:
264,48,31532,1,0,0:0:0:0:
384,48,31644,5,0,0:0:0:0:
384,272,31755,1,0,0:0:0:0:
384,272,31866,1,0,0:0:0:0:
384,272,31977,1,0,0:0:0:0:
176,256,32088,6,0,P|112:208|88:168,1,89.9999976158142
112,96,32310,2,0,P|184:40|208:48,1,89.9999976158142
336,168,32755,1,0,0:0:0:0:
200,56,32866,1,0,0:0:0:0:
336,104,32978,1,0,0:0:0:0:
456,104,33088,1,0,0:0:0:0:
232,104,33199,1,0,0:0:0:0:
424,216,33421,5,0,0:0:0:0:
256,192,33532,1,0,0:0:0:0:
112,192,33643,1,0,0:0:0:0:
112,64,33754,1,0,0:0:0:0:
240,64,33865,1,0,0:0:0:0:
56,136,34088,1,0,0:0:0:0:
184,128,34310,5,0,0:0:0:0:
48,40,34422,1,0,0:0:0:0:
128,40,34533,1,0,0:0:0:0:
150,236,34644,1,0,0:0:0:0:
269,78,34755,1,0,0:0:0:0:
347,260,34866,1,0,0:0:0:0:
150,236,34977,1,0,0:0:0:0:
242,305,35199,5,0,0:0:0:0:
164,123,35310,1,0,0:0:0:0:
361,147,35421,1,0,0:0:0:0:
242,305,35532,1,0,0:0:0:0:
347,260,35755,5,0,0:0:0:0:
136,248,35866,1,0,0:0:0:0:
72,48,36088,5,0,0:0:0:0:
152,128,36199,1,0,0:0:0:0:
224,48,36310,1,0,0:0:0:0:
312,128,36421,1,0,0:0:0:0:
392,56,36532,5,0,0:0:0:0:
472,136,36643,1,0,0:0:0:0:
424,240,36755,1,0,0:0:0:0:
304,240,36866,1,0,0:0:0:0:
192,240,36977,5,0,0:0:0:0:
192,128,37088,1,0,0:0:0:0:
80,128,37199,1,0,0:0:0:0:
288,128,37310,1,0,0:0:0:0:
136,56,37421,1,0,0:0:0:0:
219,248,37644,1,0,0:0:0:0:
225,131,37866,5,0,0:0:0:0:
323,195,37977,1,0,0:0:0:0:
219,248,38089,1,0,0:0:0:0:
225,131,38200,1,0,0:0:0:0:
323,195,38311,5,0,0:0:0:0:
96,192,38421,1,0,0:0:0:0:
256,192,38533,1,0,0:0:0:0:
96,112,38644,1,0,0:0:0:0:
480,32,38976,5,0,0:0:0:0:
480,120,39087,1,0,0:0:0:0:
480,208,39198,1,0,0:0:0:0:
480,296,39309,1,0,0:0:0:0:
392,248,39420,1,0,0:0:0:0:
320,200,39532,1,0,0:0:0:0:
192,192,39866,1,0,0:0:0:0:
64,192,40088,5,0,0:0:0:0:
384,192,40199,1,0,0:0:0:0:
384,64,40310,1,0,0:0:0:0:
384,192,40421,1,0,0:0:0:0:
216,128,40644,5,0,0:0:0:0:
376,128,40755,1,0,0:0:0:0:
216,128,40866,1,0,0:0:0:0:
376,128,40977,1,0,0:0:0:0:
376,256,41199,1,0,0:0:0:0:
288,160,41421,5,0,0:0:0:0:
184,280,41532,1,0,0:0:0:0:
296,272,41644,1,0,0:0:0:0:
176,168,41754,1,0,0:0:0:0:
232,224,41866,1,0,0:0:0:0:
288,160,41976,1,0,0:0:0:0:
312,48,42088,1,0,0:0:0:0:
120,48,42310,5,0,0:0:0:0:
248,48,42421,1,0,0:0:0:0:
48,120,42532,1,0,0:0:0:0:
184,112,42644,1,0,0:0:0:0:
120,192,42755,1,0,0:0:0:0:
256,104,42866,1,0,0:0:0:0:
256,192,42977,1,0,0:0:0:0:
256,288,43199,5,0,0:0:0:0:
256,192,48532,5,0,0:0:0:0:
192,64,50310,5,0,0:0:0:0:
264,80,50384,1,0,0:0:0:0:
328,112,50458,1,0,0:0:0:0:
392,192,50532,2,0,P|328:264|133:264,2,251.999985633851
400,120,51199,5,0,0:0:0:0:
400,120,51273,1,0,0:0:0:0:
400,120,51347,1,0,0:0:0:0:
400,120,51421,1,0,0:0:0:0:
400,120,51495,1,0,0:0:0:0:
400,120,51570,1,0,0:0:0:0:
336,32,51755,5,0,0:0:0:0:
280,128,51866,1,0,0:0:0:0:
184,56,52088,5,0,0:0:0:0:
120,56,52162,1,0,0:0:0:0:
88,104,52236,1,0,0:0:0:0:
136,184,52532,5,0,0:0:0:0:
400,184,52607,1,0,0:0:0:0:
200,328,52755,1,0,0:0:0:0:
272,72,52866,1,0,0:0:0:0:
352,328,52977,1,0,0:0:0:0:
416,216,53199,5,0,0:0:0:0:
152,216,53310,1,0,0:0:0:0:
352,72,53421,1,0,0:0:0:0:
280,328,53532,1,0,0:0:0:0:
200,72,53644,1,0,0:0:0:0:
280,192,53718,1,0,0:0:0:0:
352,160,53792,1,0,0:0:0:0:
400,104,53866,1,0,0:0:0:0:
62,89,54088,6,0,P|232:24|448:96,2,359.999990463257
192,152,54755,5,0,0:0:0:0:
304,304,54866,1,0,0:0:0:0:
304,168,54977,1,0,0:0:0:0:
168,288,55088,1,0,0:0:0:0:
256,120,55199,1,0,0:0:0:0:
376,280,55310,1,0,0:0:0:0:
376,120,55421,1,0,0:0:0:0:
240,256,55532,1,0,0:0:0:0:
64,152,55755,6,0,P|112:72|144:80,2,135.000001573563
136,224,56088,2,0,L|240:96,2,135.000001573563
280,200,56421,2,0,P|232:280|200:272,2,135.000001573563
264,136,56755,1,0,0:0:0:0:
216,88,56829,1,0,0:0:0:0:
152,72,56903,1,0,0:0:0:0:
88,88,57051,1,0,0:0:0:0:
72,168,57163,2,0,P|136:264|264:320,1,225.000002622605
296,32,57422,5,0,0:0:0:0:
264,88,57496,1,0,0:0:0:0:
208,112,57570,1,0,0:0:0:0:
400,64,57644,5,0,0:0:0:0:
368,120,57718,1,0,0:0:0:0:
304,136,57792,1,0,0:0:0:0:
472,168,57866,5,0,0:0:0:0:
416,192,57940,1,0,0:0:0:0:
360,184,58014,1,0,0:0:0:0:
248,256,58088,5,0,0:0:0:0:
256,192,58162,1,0,0:0:0:0:
280,136,58236,1,0,0:0:0:0:
104,176,58310,5,0,0:0:0:0:
136,112,58384,1,0,0:0:0:0:
184,64,58458,1,0,0:0:0:0:
304,40,58532,5,0,0:0:0:0:
368,112,58607,1,0,0:0:0:0:
360,208,58681,1,0,0:0:0:0:
320,272,58754,5,0,0:0:0:0:
240,240,58829,1,0,0:0:0:0:
176,296,58903,1,0,0:0:0:0:
250,326,58977,5,0,0:0:0:0:
239,238,59051,1,0,0:0:0:0:
156,208,59125,1,0,0:0:0:0:
72,112,59310,6,0,P|144:56|184:80,2,135.000001573563
232,96,59644,1,0,0:0:0:0:
424,216,59755,1,0,0:0:0:0:
232,96,59866,1,0,0:0:0:0:
424,216,60014,5,0,0:0:0:0:
424,216,60088,1,0,0:0:0:0:
424,248,60163,1,0,0:0:0:0:
392,280,60237,1,0,0:0:0:0:
336,280,60311,1,0,0:0:0:0:
304,240,60385,1,0,0:0:0:0:
296,184,60459,1,0,0:0:0:0:
280,128,60533,5,0,0:0:0:0:
232,96,60607,1,0,0:0:0:0:
176,96,60681,1,0,0:0:0:0:
136,136,60755,1,0,0:0:0:0:
144,192,60829,1,0,0:0:0:0:
180,247,60903,1,0,0:0:0:0:
227,287,60977,6,0,B|272:296|272:296|432:224|432:224|382:118|382:118,1,270.000003147125
272,48,61310,5,0,0:0:0:0:
248,256,61421,1,0,0:0:0:0:
352,80,61532,1,0,0:0:0:0:
176,224,61644,1,0,0:0:0:0:
392,144,61755,1,0,0:0:0:0:
160,152,61866,5,0,0:0:0:0:
160,152,61939,1,0,0:0:0:0:
160,144,62013,1,0,0:0:0:0:
168,96,62087,1,0,0:0:0:0:
224,64,62162,1,0,0:0:0:0:
280,72,62236,1,0,0:0:0:0:
320,120,62310,5,0,0:0:0:0:
368,152,62384,1,0,0:0:0:0:
416,136,62458,1,0,0:0:0:0:
448,88,62532,1,0,0:0:0:0:
416,40,62606,1,0,0:0:0:0:
360,24,62680,1,0,0:0:0:0:
312,48,62754,5,0,0:0:0:0:
280,88,62828,1,0,0:0:0:0:
288,136,62902,1,0,0:0:0:0:
328,160,62976,1,0,0:0:0:0:
376,176,63050,1,0,0:0:0:0:
328,184,63124,1,0,0:0:0:0:
280,192,63199,5,0,0:0:0:0:
240,216,63273,1,0,0:0:0:0:
224,264,63347,1,0,0:0:0:0:
256,304,63421,1,0,0:0:0:0:
304,320,63495,1,0,0:0:0:0:
352,288,63569,1,0,0:0:0:0:
368,240,63643,5,0,0:0:0:0:
368,176,63717,1,0,0:0:0:0:
400,216,63791,1,0,0:0:0:0:
432,272,63865,1,0,0:0:0:0:
368,328,63939,1,0,0:0:0:0:
288,328,64013,1,0,0:0:0:0:
216,288,64088,5,0,0:0:0:0:
176,224,64162,1,0,0:0:0:0:
184,152,64236,1,0,0:0:0:0:
216,88,64310,1,0,0:0:0:0:
280,56,64384,1,0,0:0:0:0:
352,56,64458,1,0,0:0:0:0:
400,104,64532,5,0,0:0:0:0:
352,192,64607,1,0,0:0:0:0:
320,264,64718,1,2,0:0:0:0:
64,304,64977,6,0,P|88:144|208:16,1,305.999997730255,0|2,0:0|0:0,0:0:0:0:
400,48,65421,2,2,P|432:160|320:328,1,305.999997730255,0|2,0:0|0:0,0:0:0:0:
104,56,65866,1,0,0:0:0:0:
288,56,65977,1,0,0:0:0:0:
400,184,66088,1,0,0:0:0:0:
208,224,66310,5,0,0:0:0:0:
216,72,66422,1,0,0:0:0:0:
80,136,66533,1,0,0:0:0:0:
136,184,66644,1,0,0:0:0:0:
272,136,66755,5,0,0:0:0:0:
144,56,66866,1,0,0:0:0:0:
272,136,66977,1,0,0:0:0:0:
136,184,67089,1,0,0:0:0:0:
264,40,67200,1,0,0:0:0:0:
432,32,67347,5,0,0:0:0:0:
464,80,67421,1,0,0:0:0:0:
472,136,67495,1,0,0:0:0:0:
448,184,67570,1,0,0:0:0:0:
336,32,67755,5,0,0:0:0:0:
168,72,67866,1,0,0:0:0:0:
320,128,67977,1,0,0:0:0:0:
288,240,68088,6,0,L|208:296,1,89.9999976158143
112,72,68532,2,0,L|208:96,1,89.9999976158143
384,48,68977,2,0,L|304:96,1,89.9999976158143
306,94,69421,2,0,L|320:184,1,89.9999976158143
104,96,69866,5,0,0:0:0:0:
160,208,69977,1,0,0:0:0:0:
224,88,70088,1,0,0:0:0:0:
376,88,70200,1,0,0:0:0:0:
376,216,70311,5,0,0:0:0:0:
224,216,70422,1,0,0:0:0:0:
296,144,70533,1,0,0:0:0:0:
160,144,70644,1,0,0:0:0:0:
64,40,70755,5,0,0:0:0:0:
248,32,70866,1,0,0:0:0:0:
432,152,70977,1,0,0:0:0:0:
400,264,71088,1,0,0:0:0:0:
240,248,71200,5,0,0:0:0:0:
160,112,71311,1,0,0:0:0:0:
272,96,71422,1,0,0:0:0:0:
328,40,71644,6,0,P|400:40|399:178,3,135.000001573563
246,61,72088,5,0,0:0:0:0:
409,18,72199,1,0,0:0:0:0:
328,200,72311,1,0,0:0:0:0:
176,88,72422,1,0,0:0:0:0:
104,232,72533,5,0,0:0:0:0:
72,104,72644,1,0,0:0:0:0:
288,80,72755,1,0,0:0:0:0:
152,176,72866,1,0,0:0:0:0:
232,24,72977,5,0,0:0:0:0:
392,48,73125,5,0,0:0:0:0:
408,96,73199,1,0,0:0:0:0:
392,144,73273,1,0,0:0:0:0:
344,176,73347,1,0,0:0:0:0:
288,168,73421,6,0,P|233:98|123:75,1,135.000001573563
71,205,73644,1,0,0:0:0:0:
205,298,73755,1,0,0:0:0:0:
192,78,73866,5,0,0:0:0:0:
392,144,73977,1,0,0:0:0:0:
290,169,74088,1,0,0:0:0:0:
394,38,74199,1,0,0:0:0:0:
362,331,74310,5,0,0:0:0:0:
255,29,74421,1,0,0:0:0:0:
131,327,74532,1,0,0:0:0:0:
337,38,74644,1,0,0:0:0:0:
67,297,74755,5,0,0:0:0:0:
57,168,74866,1,0,0:0:0:0:
129,63,74977,1,0,0:0:0:0:
255,29,75088,1,0,0:0:0:0:
409,124,75199,5,0,0:0:0:0:
409,124,75273,2,0,P|421:189|401:224,1,90.0000010490418
341,291,75421,5,0,0:0:0:0:
341,291,75495,2,0,P|406:303|441:283,1,90.0000010490418
242,335,75644,5,0,0:0:0:0:
242,335,75718,2,0,P|230:270|250:235,1,90.0000010490418
454,50,75866,5,0,0:0:0:0:
453,49,75940,2,0,P|411:34|367:45,1,90.0000010490418
219,80,76088,5,0,0:0:0:0:
219,80,76162,2,0,P|247:139|284:156,1,90.0000010490418,0|0,0:0|0:0,0:0:0:0:
318,257,76310,5,0,0:0:0:0:
318,257,76384,2,0,P|372:219|383:180,1,90.0000010490418,0|0,0:0|0:0,0:0:0:0:
219,80,76532,5,0,0:0:0:0:
219,80,76606,2,0,P|159:108|142:145,1,90.0000010490418,0|0,0:0|0:0,0:0:0:0:
261,321,76755,5,0,0:0:0:0:
349,321,76829,1,0,0:0:0:0:
369,256,76903,1,0,0:0:0:0:
311,198,76977,5,0,0:0:0:0:
229,231,77051,1,0,0:0:0:0:
151,277,77125,1,0,0:0:0:0:
56,253,77199,1,0,0:0:0:0:
22,167,77273,1,0,0:0:0:0:
82,89,77347,1,0,0:0:0:0:
177,98,77421,5,0,0:0:0:0:
232,160,77495,1,0,0:0:0:0:
299,112,77569,1,0,0:0:0:0:
381,93,77644,1,0,0:0:0:0:
460,134,77718,1,0,0:0:0:0:
502,213,77792,1,0,0:0:0:0:
468,296,77866,5,0,0:0:0:0:
394,347,77940,1,0,0:0:0:0:
307,323,78014,1,0,0:0:0:0:
253,250,78088,1,0,0:0:0:0:
232,160,78162,1,0,0:0:0:0:
226,70,78236,1,0,0:0:0:0:
143,33,78310,5,0,0:0:0:0:
59,65,78384,1,0,0:0:0:0:
40,153,78458,1,0,0:0:0:0:
114,203,78532,1,0,0:0:0:0:
190,252,78607,1,0,0:0:0:0:
239,326,78681,1,0,0:0:0:0:
288,250,78755,1,0,0:0:0:0:
286,30,79088,5,0,0:0:0:0:
379,143,79199,1,0,0:0:0:0:
219,159,79421,2,0,L|82:155,1,135.000001573563
286,30,79644,5,0,0:0:0:0:
414,59,79755,1,0,0:0:0:0:
362,190,79866,1,0,0:0:0:0:
219,158,79977,1,0,0:0:0:0:
414,59,80088,2,0,P|462:200|424:246,1,135.000001573563
246,188,80310,1,0,0:0:0:0:
78,286,80532,2,0,L|211:204,1,135.000001573563
274,362,80866,5,0,0:0:0:0:
117,72,80977,1,0,0:0:0:0:
303,85,81199,2,0,P|354:119|351:216,1,135.000001573563
100,226,81421,5,0,0:0:0:0:
141,141,81532,1,0,0:0:0:0:
201,214,81644,1,0,0:0:0:0:
235,126,81755,1,0,0:0:0:0:
300,193,81866,1,0,0:0:0:0:
100,226,82088,1,0,0:0:0:0:
351,58,82310,6,0,P|432:100|446:278,1,270.000003147125
100,226,82755,1,0,0:0:0:0:
481,112,82977,1,0,0:0:0:0:
277,26,83199,2,0,P|204:153|344:162,1,270.000003147125
17,113,83644,1,0,0:0:0:0:
280,113,83866,1,0,0:0:0:0:
374,38,84088,6,0,P|425:121|407:192,1,135.000001573563
300,166,84310,2,0,B|234:121|232:197|128:123,1,135.000001573563
154,54,84532,1,0,0:0:0:0:
246,23,84644,1,0,0:0:0:0:
337,82,84755,1,0,0:0:0:0:
241,103,84866,6,0,P|214:177|268:246,1,135.000001573563
301,165,85088,1,0,0:0:0:0:
337,82,85199,1,0,0:0:0:0:
422,51,85310,1,0,0:0:0:0:
410,140,85421,6,0,P|358:62|230:53,1,135.000001573563
243,102,85644,1,0,0:0:0:0:
223,201,85755,1,0,0:0:0:0:
301,262,85866,6,0,B|346:197|395:282|455:180,1,135.000001573563
365,132,86088,1,0,0:0:0:0:
341,340,86199,1,0,0:0:0:0:
223,201,86310,1,0,0:0:0:0:
229,65,86421,1,0,0:0:0:0:
370,51,86532,6,0,P|431:99|427:214,1,135.000001573563
361,234,86755,5,0,0:0:0:0:
392,115,86866,1,0,0:0:0:0:
285,158,86977,1,0,0:0:0:0:
406,183,87088,1,0,0:0:0:0:
325,110,87199,1,0,0:0:0:0:
301,219,87310,1,0,0:0:0:0:
392,115,87421,6,0,P|299:46|265:88,1,135.000001573563
151,305,87644,2,0,L|241:203,1,135.000001573563
455,123,87866,2,0,L|365:225,1,135.000001573563
306,42,88088,5,0,0:0:0:0:
252,140,88199,1,0,0:0:0:0:
166,62,88310,2,0,P|135:162|195:224,1,135.000001573563
226,230,88532,5,0,0:0:0:0:
252,140,88644,1,0,0:0:0:0:
217,48,88755,1,0,0:0:0:0:
107,82,88866,1,0,0:0:0:0:
197,133,88977,2,0,P|266:130|334:99,1,135.000001573563
250,206,89199,2,0,P|181:209|113:240,1,135.000001573563
374,290,89421,6,0,L|400:114,1,135.000001573563
310,176,89644,1,0,0:0:0:0:
220,205,89755,1,0,0:0:0:0:
130,235,89866,2,0,L|104:59,1,135.000001573563
208,55,90088,1,0,0:0:0:0:
286,124,90199,1,0,0:0:0:0:
220,205,90310,6,0,B|190:265|190:265|95:218,1,135.000001573563
202,303,90532,1,0,0:0:0:0:
299,237,90644,1,0,0:0:0:0:
286,124,90755,1,0,0:0:0:0:
163,125,90866,1,0,0:0:0:0:
237,55,90977,2,0,B|296:0|296:86|368:28,1,135.000001573563
435,157,91199,6,0,L|325:256,1,135.000001573563
435,157,91421,1,0,0:0:0:0:
334,247,91532,1,0,0:0:0:0:
334,247,91644,2,0,L|212:362,1,135.000001573563
435,157,91866,1,0,0:0:0:0:
435,157,91977,1,0,0:0:0:0:
334,247,92088,1,0,0:0:0:0:
236,339,92199,1,0,0:0:0:0:
334,247,92310,2,0,L|219:355,1,135.000001573563
435,157,92532,2,0,L|324:255,1,135.000001573563
236,339,92755,2,0,L|341:240,1,135.000001573563
379,52,92977,6,0,L|266:158,3,135.000001573563
181,114,93421,6,0,L|68:220,3,135.000001573563
342,200,93866,6,0,L|455:94,3,135.000001573563
82,206,94310,2,0,B|38:33|38:33|153:85,1,270.000003147125
342,197,94644,1,0,0:0:0:0:
216,93,94755,2,0,P|152:134|157:251,1,135.000001573563
269,262,94977,2,0,P|228:326|111:321,1,135.000001573563
123,91,95199,1,0,0:0:0:0:
268,360,95310,1,0,0:0:0:0:
268,88,95421,1,0,0:0:0:0:
123,354,95532,1,0,0:0:0:0:
241,213,95644,6,0,B|333:146|325:289,1,135.000001573563
419,251,95866,1,0,0:0:0:0:
441,160,95977,1,0,0:0:0:0:
375,85,96088,1,0,0:0:0:0:
268,88,96199,1,0,0:0:0:0:
339,157,96310,6,0,P|410:160|455:88,1,135.000001573563
268,88,96532,2,0,P|232:149|274:222,1,135.000001573563
339,157,96755,1,0,0:0:0:0:
339,157,96866,2,0,B|391:204|416:142|494:220,1,135.000001573563
415,257,97088,1,0,0:0:0:0:
396,102,97199,1,0,0:0:0:0:
279,86,97310,1,0,0:0:0:0:
269,195,97421,1,0,0:0:0:0:
192,144,97644,5,0,0:0:0:0:
108,185,97756,1,0,0:0:0:0:
135,269,97867,1,0,0:0:0:0:
279,86,98088,1,0,0:0:0:0:
131,48,98310,5,0,0:0:0:0:
44,86,98421,1,0,0:0:0:0:
131,48,98532,1,0,0:0:0:0:
44,86,98644,1,0,0:0:0:0:
131,48,98755,1,0,0:0:0:0:
44,326,98977,5,0,0:0:0:0:
131,288,99088,1,0,0:0:0:0:
181,227,99199,5,0,0:0:0:0:
329,163,99310,1,0,0:0:0:0:
181,227,99421,1,0,0:0:0:0:
329,163,99533,1,0,0:0:0:0:
181,227,99644,1,0,0:0:0:0:
315,327,99866,5,0,0:0:0:0:
200,62,99977,1,0,0:0:0:0:
381,57,100088,6,0,P|445:178|438:199,1,135.000001573563
405,134,100310,2,0,P|385:269|367:282,1,135.000001573563
210,137,100532,2,0,P|146:258|153:279,1,135.000001573563
186,214,100754,2,0,P|205:349|223:362,1,135.000001573563
421,213,100977,2,0,L|277:269,1,135.000001573563
304,235,101199,2,0,L|139:298,1,135.000001573563
31,82,101421,2,0,B|180:41|161:161|394:44,1,270.000003147125
213,30,101866,5,0,0:0:0:0:
118,30,101977,1,0,0:0:0:0:
118,125,102088,1,0,0:0:0:0:
213,125,102199,1,0,0:0:0:0:
118,125,102310,1,0,0:0:0:0:
213,125,102421,1,0,0:0:0:0:
118,125,102532,1,0,0:0:0:0:
118,30,102644,1,0,0:0:0:0:
213,30,102755,2,0,P|247:109|238:182,1,135.000001573563
118,125,102977,5,0,0:0:0:0:
55,195,103088,1,0,0:0:0:0:
115,267,103199,1,0,0:0:0:0:
200,226,103310,1,0,0:0:0:0:
287,260,103421,1,0,0:0:0:0:
200,226,103532,1,0,0:0:0:0:
265,196,103588,1,0,0:0:0:0:
331,173,103644,6,0,P|375:230|381:311,1,135.000001573563
434,170,103866,6,0,P|392:117|380:52,1,135.000001573563
287,39,104088,1,0,0:0:0:0:
198,73,104199,1,0,0:0:0:0:
165,161,104310,1,0,0:0:0:0:
287,39,104421,1,0,0:0:0:0:
198,73,104532,1,0,0:0:0:0:
165,161,104755,1,0,0:0:0:0:
198,73,104866,1,0,0:0:0:0:
287,39,104977,1,0,0:0:0:0:
380,54,105199,1,0,0:0:0:0:
372,229,105421,6,0,P|273:193|254:98,1,135.000001573563
345,118,105644,1,0,0:0:0:0:
436,139,105755,1,0,0:0:0:0:
345,118,105866,1,0,0:0:0:0:
254,143,105977,1,0,0:0:0:0:
228,233,106088,1,0,0:0:0:0:
345,118,106310,1,0,0:0:0:0:
254,143,106421,1,0,0:0:0:0:
436,139,106532,1,0,0:0:0:0:
345,118,106644,1,0,0:0:0:0:
254,143,106755,1,0,0:0:0:0:
436,139,106866,1,0,0:0:0:0:
345,118,106977,1,0,0:0:0:0:
0,384,107199,5,0,0:0:0:0:
