osu file format v14

[General]
AudioFilename: audio.mp3
AudioLeadIn: 0
PreviewTime: 1845
Countdown: 1
SampleSet: None
StackLeniency: 0.2
Mode: 0
LetterboxInBreaks: 0
WidescreenStoryboard: 0

[Editor]
DistanceSpacing: 2
BeatDivisor: 4
GridSize: 8
TimelineZoom: 1

[Metadata]
Title:He Has No Mittens
TitleUnicode:He Has No Mittens
Artist:Kitsune^2
ArtistUnicode:KitsuneĀ²
Creator:Mapper
Version:hard diff omg edgy old style map xd
Source:
Tags:
BeatmapID:1259036
BeatmapSetID:595382

[Difficulty]
HPDrainRate:4
CircleSize:5
OverallDifficulty:7
ApproachRate:8
SliderMultiplier:2
SliderTickRate:1

[Events]
//Background and Video events
0,0,"nananana.jpg",0,0
//Break Periods
//Storyboard Layer 0 (Background)
//Storyboard Layer 1 (Fail)
//Storyboard Layer 2 (Pass)
//Storyboard Layer 3 (Foreground)
//Storyboard Sound Samples

[TimingPoints]
131,285.714285714286,4,1,0,60,1,0
6988,-76.9230769230769,4,1,0,60,0,0
9131,-100,4,1,0,60,0,0
20702,-50,4,1,0,60,0,0
22988,-100,4,1,0,60,0,0
25273,-100,4,1,0,60,0,1
32131,-100,4,1,0,10,0,1
32131,-100,4,1,0,10,0,0
32273,-100,4,1,0,15,0,0
32416,-100,4,1,0,20,0,0
32559,-100,4,1,0,25,0,0
32702,-100,4,1,0,30,0,0
32845,-100,4,1,0,35,0,0
32988,-100,4,1,0,40,0,0
33131,-100,4,1,0,45,0,0
33273,-100,4,1,0,60,0,0
38988,-76.9230769230769,4,1,0,60,0,0
41131,-100,4,1,0,60,0,0

[HitObjects]
152,96,131,5,8,0:0:0:0:
352,96,273,1,8,0:0:0:0:
352,296,417,1,0,0:0:0:0:
152,296,560,1,0,0:0:0:0:
159,55,702,5,8,0:0:0:0:
394,105,844,1,8,0:0:0:0:
344,339,988,1,0,0:0:0:0:
109,289,1130,1,0,0:0:0:0:
171,11,1273,5,8,0:0:0:0:
436,118,1415,1,8,0:0:0:0:
329,383,1558,1,0,0:0:0:0:
64,276,1701,1,0,0:0:0:0:
256,192,1845,5,8,0:0:0:0:
336,200,1988,1,0,0:0:0:0:
416,208,2131,1,0,0:0:0:0:
336,200,2273,1,0,0:0:0:0:
232,120,2416,6,0,B|192:112|168:120|128:144,2,100,6|0|0,0:0|0:0|0:0,0:0:0:0:
344,56,2845,1,0,0:0:0:0:
456,128,2988,1,2,0:0:0:0:
488,256,3131,2,0,L|488:368,2,100
376,320,3559,6,0,L|256:320,1,100,2|0,0:0|0:0,0:0:0:0:
144,320,3845,1,0,0:0:0:0:
40,240,3988,1,0,0:0:0:0:
40,112,4131,1,0,0:0:0:0:
144,184,4273,1,0,0:0:0:0:
216,296,4416,1,0,0:0:0:0:
216,296,4488,1,0,0:0:0:0:
216,296,4559,1,0,0:0:0:0:
216,168,4702,6,0,B|192:128|160:112|128:120,1,100
328,168,4988,2,0,B|323:121|300:93|268:87,1,100,8|0,0:0|0:0,0:0:0:0:
424,224,5273,2,0,B|439:179|430:145|404:125,1,100
480,320,5559,1,8,0:0:0:0:
480,320,5631,1,0,0:0:0:0:
480,320,5702,1,0,0:0:0:0:
280,360,5845,5,0,0:0:0:0:
336,280,5988,1,0,0:0:0:0:
240,272,6131,1,0,0:0:0:0:
280,360,6273,1,0,0:0:0:0:
376,368,6416,1,0,0:0:0:0:
336,280,6559,1,0,0:0:0:0:
432,288,6702,1,8,0:0:0:0:
376,368,6845,1,8,0:0:0:0:
232,232,6988,6,0,B|184:208|168:144|224:88,2,129.999994049073
232,232,7416,1,0,0:0:0:0:
304,48,7559,2,0,B|368:0|400:128|464:8,2,129.999994049073
304,64,7916,1,0,0:0:0:0:
304,64,7988,1,0,0:0:0:0:
120,136,8131,5,0,0:0:0:0:
136,328,8273,1,0,0:0:0:0:
328,312,8416,1,0,0:0:0:0:
312,120,8559,1,0,0:0:0:0:
248,176,8702,5,0,0:0:0:0:
264,368,8844,1,0,0:0:0:0:
456,352,8988,2,0,L|448:280,1,64.9999970245363
440,160,9131,2,0,B|416:128|424:88|424:88|456:48,2,100
344,200,9559,1,8,0:0:0:0:
344,96,9702,1,0,0:0:0:0:
344,200,9845,1,0,0:0:0:0:
256,160,9988,1,0,0:0:0:0:
344,200,10131,1,8,0:0:0:0:
272,264,10273,1,0,0:0:0:0:
216,344,10416,5,0,0:0:0:0:
192,328,10488,1,0,0:0:0:0:
168,344,10559,1,0,0:0:0:0:
144,328,10631,1,0,0:0:0:0:
120,344,10702,1,8,0:0:0:0:
48,232,10845,2,0,P|56:160|64:128,1,100
168,48,11131,1,0,0:0:0:0:
288,96,11273,1,0,0:0:0:0:
344,352,11559,6,0,L|224:352,1,100,2|0,0:0|0:0,0:0:0:0:
264,224,11845,2,0,L|144:224,1,100
184,144,12131,2,0,L|284:144,1,100,2|0,0:0|0:0,0:0:0:0:
352,256,12417,2,0,L|452:256,1,100
448,128,12702,5,2,0:0:0:0:
336,56,12845,1,0,0:0:0:0:
208,56,12988,1,0,0:0:0:0:
104,136,13131,1,0,0:0:0:0:
224,184,13273,1,0,0:0:0:0:
208,56,13416,1,0,0:0:0:0:
80,64,13559,1,0,0:0:0:0:
88,192,13702,1,0,0:0:0:0:
96,320,13845,6,0,B|128:342|176:344|208:336,1,100
320,344,14131,2,0,B|352:366|400:368|432:360,1,100,8|0,0:0|0:0,0:0:0:0:
448,240,14416,1,0,0:0:0:0:
456,112,14559,1,0,0:0:0:0:
376,8,14702,1,8,0:0:0:0:
248,16,14845,1,0,0:0:0:0:
168,72,14988,5,2,0:0:0:0:
152,168,15131,1,0,0:0:0:0:
192,256,15273,1,0,0:0:0:0:
280,304,15416,1,0,0:0:0:0:
184,336,15559,1,0,0:0:0:0:
96,288,15702,1,0,0:0:0:0:
192,256,15845,1,8,0:0:0:0:
280,304,15988,1,8,0:0:0:0:
344,168,16131,6,0,B|352:128|328:96|360:72,1,100
424,208,16416,1,0,0:0:0:0:
424,208,16559,1,0,0:0:0:0:
104,184,16702,2,0,B|72:136|88:88|136:72,2,100
128,200,17059,1,0,0:0:0:0:
128,200,17131,1,0,0:0:0:0:
176,64,17273,6,0,B|112:16|88:24|48:40,1,100
384,112,17559,2,0,B|432:48|424:24|408:-16,1,100
336,320,17845,2,0,B|400:368|424:360|464:344,1,100
128,272,18131,2,0,B|80:336|88:360|104:400,1,100
176,64,18416,5,0,0:0:0:0:
384,112,18559,1,0,0:0:0:0:
336,320,18702,1,8,0:0:0:0:
128,272,18845,1,0,0:0:0:0:
135,0,18988,5,0,0:0:0:0:
448,71,19131,1,0,0:0:0:0:
376,384,19274,1,8,0:0:0:0:
63,312,19417,1,0,0:0:0:0:
448,71,19559,5,0,0:0:0:0:
448,119,19630,1,0,0:0:0:0:
450,165,19701,1,0,0:0:0:0:
449,206,19773,1,0,0:0:0:0:
461,253,19844,1,8,0:0:0:0:
472,272,19988,1,0,0:0:0:0:
120,240,20131,1,0,0:0:0:0:
496,336,20273,1,0,0:0:0:0:
96,168,20416,1,0,0:0:0:0:
424,32,20702,6,0,B|400:80|464:144|448:272,1,200,12|8,0:0|0:0,0:0:0:0:
152,336,20988,1,0,0:0:0:0:
152,336,21059,1,0,0:0:0:0:
152,336,21131,1,0,0:0:0:0:
152,336,21202,1,0,0:0:0:0:
152,336,21273,6,0,B|216:312|304:344|392:320,1,200,12|8,0:0|0:0,0:0:0:0:
64,48,21559,1,0,0:0:0:0:
64,48,21630,1,0,0:0:0:0:
64,48,21702,1,0,0:0:0:0:
64,48,21773,1,0,0:0:0:0:
64,48,21844,6,0,B|88:112|56:200|80:288,1,200,12|8,0:0|0:0,0:0:0:0:
376,32,22131,1,0,0:0:0:0:
376,32,22202,1,0,0:0:0:0:
376,32,22274,1,0,0:0:0:0:
376,32,22345,1,0,0:0:0:0:
376,32,22416,6,0,B|312:56|224:24|136:48,1,200,12|8,0:0|0:0,0:0:0:0:
192,208,22702,2,0,B|238:191|326:223|390:199,1,200,12|8,0:0|0:0,0:0:0:0:
120,336,22988,5,12,0:0:0:0:
80,248,23131,1,0,0:0:0:0:
176,280,23273,1,0,0:0:0:0:
272,288,23416,1,0,0:0:0:0:
376,288,23559,1,8,0:0:0:0:
472,320,23702,1,0,0:0:0:0:
496,168,23845,1,0,0:0:0:0:
456,24,23988,1,0,0:0:0:0:
360,16,24131,6,0,B|328:40|280:24|240:56,1,100,8|0,0:0|0:0,0:0:0:0:
184,104,24416,1,8,0:0:0:0:
160,224,24559,1,0,0:0:0:0:
248,336,24702,1,8,0:0:0:0:
408,344,24845,1,8,0:0:0:0:
479,178,24988,1,8,0:0:0:0:
360,16,25131,1,8,0:0:0:0:
160,224,25273,6,0,B|112:232|80:256|88:288|88:288|128:344|168:352,1,200,6|0,0:0|0:0,0:0:0:0:
256,328,25702,1,0,0:0:0:0:
312,248,25845,2,0,P|368:136|360:64,2,200,2|2|2,0:0|0:0|0:0,0:0:0:0:
272,152,26559,1,0,0:0:0:0:
368,120,26702,1,8,0:0:0:0:
440,56,26845,1,0,0:0:0:0:
472,152,26988,2,0,L|472:272,1,100
376,272,27273,2,0,L|376:392,1,100,8|0,0:0|0:0,0:0:0:0:
280,344,27559,5,2,0:0:0:0:
184,368,27702,1,0,0:0:0:0:
208,272,27845,1,0,0:0:0:0:
280,344,27988,1,0,0:0:0:0:
288,248,28131,2,0,B|256:200|168:160|112:288,2,200,2|2|2,0:0|0:0|0:0,0:0:0:0:
304,256,28773,5,0,0:0:0:0:
328,254,28844,1,8,0:0:0:0:
352,247,28915,1,0,0:0:0:0:
374,235,28987,1,0,0:0:0:0:
392,218,29058,1,0,0:0:0:0:
406,197,29130,1,8,0:0:0:0:
415,174,29201,1,0,0:0:0:0:
417,149,29273,1,0,0:0:0:0:
414,124,29344,1,0,0:0:0:0:
406,101,29415,1,8,0:0:0:0:
392,80,29487,1,0,0:0:0:0:
374,63,29558,1,0,0:0:0:0:
368,72,29631,1,0,0:0:0:0:
368,56,29702,1,8,0:0:0:0:
361,64,29775,1,0,0:0:0:0:
360,48,29845,6,0,B|288:32|200:48|152:96,1,200,6|0,0:0|0:0,0:0:0:0:
104,160,30273,1,0,0:0:0:0:
120,256,30416,2,0,B|144:344|176:352|176:352|248:360|280:344,2,200,2|2|2,0:0|0:0|0:0,0:0:0:0:
208,208,31131,1,0,0:0:0:0:
304,232,31273,1,8,0:0:0:0:
360,144,31416,1,0,0:0:0:0:
264,120,31558,1,0,0:0:0:0:
336,192,31702,1,0,0:0:0:0:
336,296,31845,1,8,0:0:0:0:
424,256,31988,1,0,0:0:0:0:
456,160,32131,6,8,L|464:104,16,50,8|8|8|8|8|8|8|8|8|8|8|8|8|8|8|8|8,0:0|0:0|0:0|0:0|0:0|0:0|0:0|0:0|0:0|0:0|0:0|0:0|0:0|0:0|0:0|0:0|3:0,0:0:0:0:
192,128,33988,1,0,0:0:0:0:
192,128,34131,1,0,0:0:0:0:
192,128,34273,1,0,0:0:0:0:
280,120,34416,6,0,B|320:112|344:120|375:138,2,100,6|0|0,0:0|0:0|0:0,0:0:0:0:
168,56,34845,1,0,0:0:0:0:
56,128,34988,1,2,0:0:0:0:
24,256,35131,2,0,L|24:356,2,100
136,320,35559,6,0,L|236:320,1,100,2|0,0:0|0:0,0:0:0:0:
368,320,35845,1,0,0:0:0:0:
472,240,35988,1,0,0:0:0:0:
472,112,36131,1,0,0:0:0:0:
368,184,36273,1,0,0:0:0:0:
296,296,36416,1,0,0:0:0:0:
296,296,36488,1,0,0:0:0:0:
296,296,36559,1,0,0:0:0:0:
296,168,36702,6,0,B|320:128|352:112|376:118,1,100
184,168,36988,2,0,B|189:121|212:93|235:89,1,100,8|0,0:0|0:0,0:0:0:0:
88,224,37273,2,0,B|73:179|82:145|101:130,1,100
32,320,37559,1,8,0:0:0:0:
32,320,37631,1,0,0:0:0:0:
32,320,37702,1,0,0:0:0:0:
232,360,37845,5,0,0:0:0:0:
176,280,37988,1,0,0:0:0:0:
272,272,38131,1,0,0:0:0:0:
232,360,38273,1,0,0:0:0:0:
136,368,38416,1,0,0:0:0:0:
176,280,38559,1,0,0:0:0:0:
80,288,38702,1,8,0:0:0:0:
136,368,38845,1,8,0:0:0:0:
284,229,38988,6,0,B|328:208|344:144|312:120,2,129.999994049073
280,232,39416,1,0,0:0:0:0:
190,38,39559,2,0,B|144:0|112:128|86:55,2,129.999994049073
208,64,39916,1,0,0:0:0:0:
208,64,39988,1,0,0:0:0:0:
392,136,40131,5,0,0:0:0:0:
376,328,40273,1,0,0:0:0:0:
184,312,40416,1,0,0:0:0:0:
200,120,40559,1,0,0:0:0:0:
264,176,40702,5,0,0:0:0:0:
248,368,40844,1,0,0:0:0:0:
56,352,40988,2,0,L|63:287,1,64.9999970245363
72,160,41131,2,0,B|96:128|88:88|88:88|73:69,2,100
168,200,41559,1,8,0:0:0:0:
168,96,41702,1,0,0:0:0:0:
168,200,41845,1,0,0:0:0:0:
256,160,41988,1,0,0:0:0:0:
168,200,42131,1,8,0:0:0:0:
240,264,42273,1,0,0:0:0:0:
296,344,42416,5,0,0:0:0:0:
320,328,42488,1,0,0:0:0:0:
344,344,42559,1,0,0:0:0:0:
368,328,42631,1,0,0:0:0:0:
392,344,42702,1,8,0:0:0:0:
464,232,42845,2,0,P|459:182|449:133,1,100
344,48,43131,1,0,0:0:0:0:
224,96,43273,1,0,0:0:0:0:
96,248,43559,5,12,0:0:0:0:
296,272,43702,1,8,0:0:0:0:
120,176,43845,1,0,0:0:0:0:
120,176,43916,1,0,0:0:0:0:
120,176,43988,1,0,0:0:0:0:
120,176,44059,1,0,0:0:0:0:
120,176,44131,5,12,0:0:0:0:
320,200,44273,1,8,0:0:0:0:
144,112,44416,1,0,0:0:0:0:
144,112,44488,1,0,0:0:0:0:
144,112,44559,1,0,0:0:0:0:
144,112,44631,1,0,0:0:0:0:
144,112,44702,5,12,0:0:0:0:
344,128,44845,1,8,0:0:0:0:
168,40,44988,1,0,0:0:0:0:
168,40,45059,1,0,0:0:0:0:
168,40,45131,1,0,0:0:0:0:
168,40,45202,1,0,0:0:0:0:
168,40,45273,5,12,0:0:0:0:
368,56,45416,1,8,0:0:0:0:
344,256,45559,1,12,0:0:0:0:
144,240,45702,1,8,0:0:0:0:
368,56,45845,5,12,0:0:0:0:
472,224,45988,1,0,0:0:0:0:
328,360,46131,1,0,0:0:0:0:
248,176,46273,1,0,0:0:0:0:
104,312,46416,5,12,0:0:0:0:
32,128,46559,1,0,0:0:0:0:
224,168,46702,1,0,0:0:0:0:
320,344,46845,1,0,0:0:0:0:
120,312,46988,5,12,0:0:0:0:
48,128,47131,1,0,0:0:0:0:
240,96,47273,5,0,0:0:0:0:
432,136,47416,1,0,0:0:0:0:
240,80,47559,5,12,0:0:0:0:
48,128,47702,1,0,0:0:0:0:
240,64,47845,5,0,0:0:0:0:
432,136,47988,1,0,0:0:0:0:
304,288,48131,5,8,0:0:0:0:
404,288,48202,1,8,0:0:0:0:
504,288,48273,1,0,0:0:0:0:
88,360,48416,5,12,0:0:0:0:
