osu file format v14

[General]
AudioFilename: LapFox Trax - He Has No Mittens.mp3
AudioLeadIn: 0
PreviewTime: 35892
Countdown: 0
SampleSet: Normal
StackLeniency: 0.7
Mode: 3
LetterboxInBreaks: 0
SpecialStyle: 0
WidescreenStoryboard: 0

[Editor]
DistanceSpacing: 0.8
BeatDivisor: 4
GridSize: 4
TimelineZoom: 1.5

[Metadata]
Title:He Has No Mittens
TitleUnicode:He Has No Mittens
Artist:Kitsune^2
ArtistUnicode:KitsuneĀ²
Creator:Dawnsday
Version:NM
Source:
Tags:lapfox renard queenston fast hardcore
BeatmapID:731200
BeatmapSetID:329821

[Difficulty]
HPDrainRate:7
CircleSize:4
OverallDifficulty:7
ApproachRate:5
SliderMultiplier:1.4
SliderTickRate:1

[Events]
//Background and Video events
0,0,"here.jpg",0,0
//Break Periods
//Storyboard Layer 0 (Background)
//Storyboard Layer 1 (Fail)
//Storyboard Layer 2 (Pass)
//Storyboard Layer 3 (Foreground)
//Storyboard Layer 4 (Overlay)
//Storyboard Sound Samples

[TimingPoints]
2035,285.714285714286,4,1,1,30,1,0
27177,-100,4,1,1,30,0,1
35249,-100,4,1,1,30,0,0

[HitObjects]
192,192,2035,5,8,0:0:0:0:
64,192,2035,1,0,0:0:0:0:
320,192,2177,1,8,0:0:0:0:
192,192,2320,1,8,0:0:0:0:
320,192,2463,1,8,0:0:0:0:
448,192,2606,1,8,0:0:0:0:
192,192,2606,1,0,0:0:0:0:
64,192,2749,1,8,0:0:0:0:
448,192,2892,1,8,0:0:0:0:
64,192,3035,1,8,0:0:0:0:
320,192,3177,1,8,0:0:0:0:
448,192,3177,1,0,0:0:0:0:
192,192,3320,1,8,0:0:0:0:
320,192,3463,1,8,0:0:0:0:
192,192,3606,1,8,0:0:0:0:
320,192,3749,1,8,0:0:0:0:
64,192,3749,1,0,0:0:0:0:
192,192,3892,128,2,4035:0:0:0:0:
320,192,4035,128,2,4177:0:0:0:0:
448,192,4177,128,2,4320:0:0:0:0:
64,192,4320,128,2,4463:0:0:0:0:
192,192,4463,1,8,0:0:0:0:
320,192,4606,128,2,4749:0:0:0:0:
448,192,4749,128,8,4892:0:0:0:0:
192,192,4892,128,2,5035:0:0:0:0:
64,192,5035,1,8,0:0:0:0:
448,192,5177,128,2,5320:0:0:0:0:
320,192,5320,128,8,5463:0:0:0:0:
64,192,5463,128,2,5606:0:0:0:0:
192,192,5749,128,2,5892:0:0:0:0:
320,192,5892,128,8,6035:0:0:0:0:
448,192,6035,128,2,6177:0:0:0:0:
192,192,6177,1,8,0:0:0:0:
64,192,6320,128,2,6463:0:0:0:0:
192,192,6463,128,8,6606:0:0:0:0:
448,192,6606,128,2,6749:0:0:0:0:
320,192,6749,1,8,0:0:0:0:
64,192,6892,128,2,7035:0:0:0:0:
320,192,7035,128,8,7177:0:0:0:0:
448,192,7177,128,2,7320:0:0:0:0:
64,192,7320,1,8,0:0:0:0:
192,192,7463,128,2,7606:0:0:0:0:
320,192,7606,128,8,7749:0:0:0:0:
448,192,7749,128,2,7892:0:0:0:0:
192,192,7892,1,8,0:0:0:0:
64,192,8035,128,2,8177:0:0:0:0:
192,192,8177,128,8,8320:0:0:0:0:
448,192,8320,128,2,8463:0:0:0:0:
320,192,8463,1,8,0:0:0:0:
192,192,8606,128,2,8749:0:0:0:0:
320,192,8749,1,8,0:0:0:0:
448,192,8892,128,0,9035:0:0:0:0:
64,192,9035,1,8,0:0:0:0:
192,192,9177,128,2,9320:0:0:0:0:
448,192,9320,128,8,9463:0:0:0:0:
320,192,9463,128,2,9606:0:0:0:0:
64,192,9606,1,8,0:0:0:0:
192,192,9749,128,2,9892:0:0:0:0:
320,192,9892,128,8,10035:0:0:0:0:
64,192,10035,128,2,10177:0:0:0:0:
448,192,10177,1,8,0:0:0:0:
320,192,10320,128,2,10463:0:0:0:0:
192,192,10463,128,8,10606:0:0:0:0:
448,192,10606,128,2,10749:0:0:0:0:
64,192,10749,1,8,0:0:0:0:
320,192,10892,128,2,11035:0:0:0:0:
64,192,11035,128,8,11177:0:0:0:0:
448,192,11177,128,2,11320:0:0:0:0:
192,192,11320,1,8,0:0:0:0:
64,192,11463,128,2,11606:0:0:0:0:
320,192,11606,1,8,0:0:0:0:
448,192,11749,128,2,11892:0:0:0:0:
192,192,11892,1,8,0:0:0:0:
64,192,12035,128,2,12177:0:0:0:0:
320,192,12177,1,8,0:0:0:0:
448,192,12320,5,2,0:0:0:0:
320,192,12392,1,2,0:0:0:0:
192,192,12463,1,2,0:0:0:0:
64,192,12535,1,2,0:0:0:0:
448,192,12606,1,2,0:0:0:0:
320,192,12749,128,8,12892:0:0:0:0:
192,192,12892,1,2,0:0:0:0:
64,192,13035,128,8,13177:0:0:0:0:
448,192,13177,1,0,0:0:0:0:
320,192,13463,128,4,13606:0:0:0:0:
64,192,13606,1,8,0:0:0:0:
192,192,13749,128,2,13892:0:0:0:0:
320,192,13892,128,8,14035:0:0:0:0:
448,192,14035,128,2,14177:0:0:0:0:
64,192,14177,1,8,0:0:0:0:
320,192,14320,128,2,14463:0:0:0:0:
448,192,14463,128,8,14606:0:0:0:0:
64,192,14606,128,2,14749:0:0:0:0:
320,192,14749,1,8,0:0:0:0:
192,192,14892,128,2,15035:0:0:0:0:
320,192,15035,128,8,15177:0:0:0:0:
448,192,15177,128,2,15320:0:0:0:0:
64,192,15320,1,8,0:0:0:0:
320,192,15463,128,2,15606:0:0:0:0:
192,192,15606,128,8,15749:0:0:0:0:
448,192,15749,128,2,15892:0:0:0:0:
64,192,15892,1,8,0:0:0:0:
192,192,16035,128,2,16177:0:0:0:0:
320,192,16177,128,8,16320:0:0:0:0:
448,192,16320,128,2,16463:0:0:0:0:
192,192,16463,1,8,0:0:0:0:
64,192,16606,128,2,16749:0:0:0:0:
320,192,16749,128,8,16892:0:0:0:0:
448,192,16892,128,2,17035:0:0:0:0:
192,192,17035,1,8,0:0:0:0:
64,192,17177,128,2,17320:0:0:0:0:
448,192,17320,128,8,17463:0:0:0:0:
320,192,17463,128,2,17606:0:0:0:0:
192,192,17606,1,8,0:0:0:0:
64,192,17749,128,2,17892:0:0:0:0:
448,192,17892,1,8,0:0:0:0:
320,192,18035,128,2,18177:0:0:0:0:
192,192,18177,1,8,0:0:0:0:
64,192,18320,128,2,18463:0:0:0:0:
320,192,18463,128,8,18606:0:0:0:0:
448,192,18606,128,2,18749:0:0:0:0:
192,192,18749,1,8,0:0:0:0:
320,192,18892,128,2,19035:0:0:0:0:
448,192,19035,128,8,19177:0:0:0:0:
192,192,19177,128,2,19320:0:0:0:0:
64,192,19320,1,8,0:0:0:0:
320,192,19463,128,2,19606:0:0:0:0:
192,192,19606,1,8,0:0:0:0:
64,192,19749,128,2,19892:0:0:0:0:
448,192,19892,1,8,0:0:0:0:
192,192,20035,128,2,20177:0:0:0:0:
320,192,20177,1,8,0:0:0:0:
448,192,20320,128,2,20463:0:0:0:0:
64,192,20463,1,8,0:0:0:0:
192,192,20606,128,2,20749:0:0:0:0:
320,192,20749,128,8,20892:0:0:0:0:
448,192,20892,128,2,21035:0:0:0:0:
64,192,21035,1,8,0:0:0:0:
192,192,21177,128,2,21320:0:0:0:0:
320,192,21320,128,8,21463:0:0:0:0:
64,192,21463,1,2,0:0:0:0:
448,192,21535,1,2,0:0:0:0:
64,192,21606,1,2,0:0:0:0:
448,192,21677,1,2,0:0:0:0:
64,192,21749,1,2,0:0:0:0:
320,192,21892,128,8,22035:0:0:0:0:
448,192,22035,1,2,0:0:0:0:
192,192,22177,128,8,22320:0:0:0:0:
64,192,22320,1,0,0:0:0:0:
448,192,22606,1,8,0:0:0:0:
320,192,22606,1,2,0:0:0:0:
320,192,22749,1,2,0:0:0:0:
448,192,22749,1,8,0:0:0:0:
64,192,22892,1,0,0:0:0:0:
192,192,22963,1,0,0:0:0:0:
320,192,23035,1,0,0:0:0:0:
448,192,23106,1,0,0:0:0:0:
64,192,23177,1,2,0:0:0:0:
192,192,23177,1,8,0:0:0:0:
192,192,23320,1,8,0:0:0:0:
64,192,23320,1,2,0:0:0:0:
448,192,23463,1,0,0:0:0:0:
320,192,23535,1,0,0:0:0:0:
192,192,23606,1,0,0:0:0:0:
64,192,23677,1,0,0:0:0:0:
448,192,23749,1,8,0:0:0:0:
320,192,23749,1,2,0:0:0:0:
320,192,23892,1,8,0:0:0:0:
448,192,23892,1,2,0:0:0:0:
64,192,24035,1,0,0:0:0:0:
192,192,24106,1,0,0:0:0:0:
320,192,24177,1,0,0:0:0:0:
448,192,24249,1,0,0:0:0:0:
64,192,24320,1,2,0:0:0:0:
192,192,24320,1,8,0:0:0:0:
192,192,24463,1,8,0:0:0:0:
64,192,24463,1,2,0:0:0:0:
448,192,24606,1,0,0:0:0:0:
320,192,24606,1,0,0:0:0:0:
192,192,24749,1,0,0:0:0:0:
64,192,24749,1,0,0:0:0:0:
448,192,24892,1,8,0:0:0:0:
320,192,24892,1,2,0:0:0:0:
320,192,25035,1,8,0:0:0:0:
448,192,25035,1,2,0:0:0:0:
64,192,25177,1,0,0:0:0:0:
192,192,25249,1,0,0:0:0:0:
320,192,25320,1,0,0:0:0:0:
448,192,25392,1,0,0:0:0:0:
64,192,25463,1,2,0:0:0:0:
192,192,25463,1,8,0:0:0:0:
192,192,25606,1,2,0:0:0:0:
64,192,25606,1,8,0:0:0:0:
448,192,25749,1,0,0:0:0:0:
320,192,25820,1,0,0:0:0:0:
192,192,25892,1,0,0:0:0:0:
64,192,25963,1,0,0:0:0:0:
448,192,26035,1,8,0:0:0:0:
320,192,26035,1,2,0:0:0:0:
320,192,26177,1,8,0:0:0:0:
448,192,26177,1,2,0:0:0:0:
64,192,26320,1,0,0:0:0:0:
192,192,26392,1,0,0:0:0:0:
320,192,26463,1,0,0:0:0:0:
448,192,26535,1,0,0:0:0:0:
64,192,26606,1,8,0:0:0:0:
192,192,26606,1,8,0:0:0:0:
192,192,26749,1,8,0:0:0:0:
64,192,26749,1,8,0:0:0:0:
448,192,26892,1,0,0:0:0:0:
320,192,26963,1,0,0:0:0:0:
192,192,27035,1,0,0:0:0:0:
64,192,27106,1,0,0:0:0:0:
448,192,27177,128,4,27463:0:0:0:0:
192,192,27463,128,0,27606:0:0:0:0:
64,192,27606,1,8,0:0:0:0:
320,192,27749,128,0,28035:0:0:0:0:
448,192,28035,128,0,28320:0:0:0:0:
64,192,28320,128,0,28463:0:0:0:0:
192,192,28463,128,8,28606:0:0:0:0:
320,192,28606,128,0,28749:0:0:0:0:
448,192,28749,128,8,28892:0:0:0:0:
192,192,28892,128,0,29177:0:0:0:0:
320,192,29177,128,0,29463:0:0:0:0:
64,192,29463,128,0,29606:0:0:0:0:
192,192,29606,128,8,29749:0:0:0:0:
320,192,29749,128,0,29892:0:0:0:0:
448,192,29892,128,8,30035:0:0:0:0:
192,192,30035,128,0,30320:0:0:0:0:
64,192,30320,128,0,30606:0:0:0:0:
320,192,30606,1,8,0:0:0:0:
192,192,30749,1,8,0:0:0:0:
320,192,30892,1,8,0:0:0:0:
192,192,31035,1,8,0:0:0:0:
320,192,31177,1,8,0:0:0:0:
192,192,31320,1,8,0:0:0:0:
448,192,31463,128,8,31749:0:0:0:0:
64,192,31749,128,0,32035:0:0:0:0:
192,192,32035,128,0,32177:0:0:0:0:
448,192,32177,1,8,0:0:0:0:
320,192,32320,128,0,32606:0:0:0:0:
448,192,32606,128,0,32892:0:0:0:0:
64,192,32892,128,0,33035:0:0:0:0:
192,192,33035,128,8,33177:0:0:0:0:
448,192,33177,128,0,33320:0:0:0:0:
320,192,33320,128,8,33463:0:0:0:0:
64,192,33463,128,0,33749:0:0:0:0:
192,192,33749,128,0,34035:0:0:0:0:
320,192,34035,128,4,35177:0:0:0:0:
192,192,35892,128,2,36035:0:0:0:0:
320,192,36035,128,2,36177:0:0:0:0:
448,192,36177,128,2,36320:0:0:0:0:
64,192,36320,128,4,36463:0:0:0:0:
192,192,36463,1,8,0:0:0:0:
320,192,36606,128,0,36749:0:0:0:0:
448,192,36749,128,8,36892:0:0:0:0:
320,192,36892,128,0,37035:0:0:0:0:
64,192,37035,1,8,0:0:0:0:
192,192,37177,128,0,37320:0:0:0:0:
320,192,37320,128,8,37463:0:0:0:0:
448,192,37463,128,0,37606:0:0:0:0:
64,192,37606,1,8,0:0:0:0:
192,192,37749,128,0,37892:0:0:0:0:
320,192,37892,128,8,38035:0:0:0:0:
448,192,38035,128,0,38177:0:0:0:0:
192,192,38177,1,8,0:0:0:0:
64,192,38320,128,0,38463:0:0:0:0:
192,192,38463,128,8,38606:0:0:0:0:
448,192,38606,128,0,38749:0:0:0:0:
320,192,38749,1,8,0:0:0:0:
64,192,38892,128,0,39035:0:0:0:0:
320,192,39035,128,8,39177:0:0:0:0:
448,192,39177,128,0,39320:0:0:0:0:
64,192,39320,1,8,0:0:0:0:
192,192,39463,128,0,39606:0:0:0:0:
320,192,39606,128,8,39749:0:0:0:0:
448,192,39749,128,0,39892:0:0:0:0:
192,192,39892,1,8,0:0:0:0:
64,192,40035,128,0,40177:0:0:0:0:
192,192,40177,128,8,40320:0:0:0:0:
448,192,40320,128,0,40463:0:0:0:0:
320,192,40463,1,8,0:0:0:0:
192,192,40606,128,0,40749:0:0:0:0:
320,192,40749,1,8,0:0:0:0:
448,192,40892,128,0,41035:0:0:0:0:
64,192,41035,1,8,0:0:0:0:
192,192,41177,128,0,41320:0:0:0:0:
448,192,41320,128,8,41463:0:0:0:0:
320,192,41463,128,0,41606:0:0:0:0:
64,192,41606,1,8,0:0:0:0:
192,192,41749,128,0,41892:0:0:0:0:
320,192,41892,128,8,42035:0:0:0:0:
64,192,42035,128,0,42177:0:0:0:0:
448,192,42177,1,8,0:0:0:0:
320,192,42320,128,0,42463:0:0:0:0:
192,192,42463,128,8,42606:0:0:0:0:
448,192,42606,128,0,42749:0:0:0:0:
64,192,42749,1,8,0:0:0:0:
320,192,42892,128,0,43035:0:0:0:0:
64,192,43035,128,8,43177:0:0:0:0:
448,192,43177,128,0,43320:0:0:0:0:
192,192,43320,1,8,0:0:0:0:
64,192,43463,128,0,43606:0:0:0:0:
320,192,43606,1,0,0:0:0:0:
448,192,43749,128,0,43892:0:0:0:0:
192,192,43892,1,8,0:0:0:0:
64,192,44035,128,0,44177:0:0:0:0:
320,192,44177,1,8,0:0:0:0:
448,192,44320,5,0,0:0:0:0:
320,192,44392,1,0,0:0:0:0:
192,192,44463,1,0,0:0:0:0:
64,192,44535,1,0,0:0:0:0:
448,192,44606,1,0,0:0:0:0:
320,192,44749,128,8,44892:0:0:0:0:
192,192,44892,1,0,0:0:0:0:
64,192,45035,128,8,45177:0:0:0:0:
448,192,45177,1,0,0:0:0:0:
64,192,45463,1,8,0:0:0:0:
192,192,45606,1,8,0:0:0:0:
448,192,45749,1,0,0:0:0:0:
320,192,45820,1,0,0:0:0:0:
192,192,45892,1,0,0:0:0:0:
64,192,45963,1,0,0:0:0:0:
448,192,46035,1,8,0:0:0:0:
320,192,46177,1,8,0:0:0:0:
64,192,46320,1,0,0:0:0:0:
192,192,46392,1,0,0:0:0:0:
320,192,46463,1,0,0:0:0:0:
448,192,46535,1,0,0:0:0:0:
64,192,46606,1,8,0:0:0:0:
192,192,46749,1,8,0:0:0:0:
448,192,46892,1,0,0:0:0:0:
320,192,46963,1,0,0:0:0:0:
192,192,47035,1,0,0:0:0:0:
64,192,47106,1,0,0:0:0:0:
320,192,47177,1,8,0:0:0:0:
448,192,47320,1,8,0:0:0:0:
192,192,47463,1,2,0:0:0:0:
64,192,47463,1,0,0:0:0:0:
320,192,47606,1,0,0:0:0:0:
448,192,47606,1,0,0:0:0:0:
64,192,47749,1,8,0:0:0:0:
192,192,47892,1,8,0:0:0:0:
448,192,48035,1,0,0:0:0:0:
320,192,48106,1,0,0:0:0:0:
192,192,48177,1,0,0:0:0:0:
64,192,48249,1,0,0:0:0:0:
448,192,48320,1,8,0:0:0:0:
320,192,48463,1,8,0:0:0:0:
64,192,48606,1,0,0:0:0:0:
192,192,48677,1,0,0:0:0:0:
320,192,48749,1,0,0:0:0:0:
448,192,48820,1,0,0:0:0:0:
64,192,48892,1,8,0:0:0:0:
192,192,49035,1,8,0:0:0:0:
448,192,49177,1,0,0:0:0:0:
320,192,49249,1,0,0:0:0:0:
192,192,49320,1,8,0:0:0:0:
64,192,49392,1,0,0:0:0:0:
448,192,49463,1,8,0:0:0:0:
320,192,49606,1,8,0:0:0:0:
64,192,49749,1,0,0:0:0:0:
192,192,49820,1,0,0:0:0:0:
320,192,49892,1,0,0:0:0:0:
448,192,49963,1,0,0:0:0:0:
192,192,50035,1,0,0:0:0:0:
320,192,50106,1,0,0:0:0:0:
64,192,50177,128,0,50320:0:0:0:0:
448,192,50320,128,4,50606:0:0:0:0:
