osu file format v14

[General]
AudioFilename: LapFox Trax - He Has No Mittens.mp3
AudioLeadIn: 0
PreviewTime: 35892
Countdown: 0
SampleSet: Normal
StackLeniency: 0.7
Mode: 3
LetterboxInBreaks: 0
SpecialStyle: 0
WidescreenStoryboard: 0

[Editor]
DistanceSpacing: 0.8
BeatDivisor: 4
GridSize: 4
TimelineZoom: 1.9

[Metadata]
Title:He Has No Mittens
TitleUnicode:He Has No Mittens
Artist:Kitsune^2
ArtistUnicode:KitsuneĀ²
Creator:Dawnsday
Version:MX
Source:
Tags:lapfox renard queenston fast hardcore
BeatmapID:731202
BeatmapSetID:329821

[Difficulty]
HPDrainRate:7
CircleSize:4
OverallDifficulty:8
ApproachRate:5
SliderMultiplier:1.4
SliderTickRate:1

[Events]
//Background and Video events
0,0,"here.jpg",0,0
//Break Periods
//Storyboard Layer 0 (Background)
//Storyboard Layer 1 (Fail)
//Storyboard Layer 2 (Pass)
//Storyboard Layer 3 (Foreground)
//Storyboard Layer 4 (Overlay)
//Storyboard Sound Samples

[TimingPoints]
2035,285.714285714286,4,1,1,30,1,0
27177,-100,4,1,1,30,0,1
35249,-100,4,1,1,30,0,0

[HitObjects]
448,192,2035,5,8,0:0:0:0:
320,192,2035,1,0,0:0:0:0:
192,192,2106,1,0,0:0:0:0:
64,192,2177,1,8,0:0:0:0:
320,192,2249,1,0,0:0:0:0:
192,192,2320,1,8,0:0:0:0:
448,192,2392,1,0,0:0:0:0:
64,192,2463,1,8,0:0:0:0:
192,192,2535,1,0,0:0:0:0:
320,192,2606,1,8,0:0:0:0:
448,192,2606,1,0,0:0:0:0:
448,192,2677,1,0,0:0:0:0:
192,192,2749,1,8,0:0:0:0:
64,192,2820,1,0,0:0:0:0:
320,192,2892,1,8,0:0:0:0:
192,192,2963,1,0,0:0:0:0:
64,192,3035,1,8,0:0:0:0:
320,192,3106,1,0,0:0:0:0:
448,192,3177,1,8,0:0:0:0:
320,192,3177,1,0,0:0:0:0:
192,192,3249,1,0,0:0:0:0:
320,192,3320,1,8,0:0:0:0:
448,192,3392,1,0,0:0:0:0:
192,192,3463,1,8,0:0:0:0:
64,192,3535,1,0,0:0:0:0:
320,192,3606,1,8,0:0:0:0:
192,192,3677,1,0,0:0:0:0:
448,192,3749,1,8,0:0:0:0:
64,192,3749,1,0,0:0:0:0:
192,192,3892,128,2,4035:0:0:0:0:
320,192,4035,128,2,4177:0:0:0:0:
448,192,4177,128,2,4320:0:0:0:0:
64,192,4320,1,2,0:0:0:0:
192,192,4320,1,4,0:0:0:0:
320,192,4463,1,8,0:0:0:0:
64,192,4463,1,0,0:0:0:0:
320,192,4606,1,2,0:0:0:0:
448,192,4606,1,0,0:0:0:0:
448,192,4749,1,8,0:0:0:0:
192,192,4749,1,0,0:0:0:0:
64,192,4892,1,2,0:0:0:0:
192,192,4892,1,0,0:0:0:0:
320,192,5035,1,8,0:0:0:0:
64,192,5035,1,0,0:0:0:0:
320,192,5177,1,2,0:0:0:0:
448,192,5177,1,0,0:0:0:0:
192,192,5249,1,0,0:0:0:0:
64,192,5320,1,8,0:0:0:0:
448,192,5320,1,0,0:0:0:0:
320,192,5463,1,2,0:0:0:0:
64,192,5463,1,0,0:0:0:0:
192,192,5606,1,8,0:0:0:0:
320,192,5606,1,0,0:0:0:0:
192,192,5749,1,2,0:0:0:0:
64,192,5749,1,0,0:0:0:0:
64,192,5892,1,8,0:0:0:0:
320,192,5892,1,0,0:0:0:0:
192,192,6035,1,2,0:0:0:0:
448,192,6035,1,0,0:0:0:0:
320,192,6177,1,8,0:0:0:0:
192,192,6177,1,0,0:0:0:0:
64,192,6320,1,2,0:0:0:0:
320,192,6320,1,0,0:0:0:0:
192,192,6392,1,0,0:0:0:0:
320,192,6463,1,8,0:0:0:0:
448,192,6463,1,0,0:0:0:0:
448,192,6606,1,2,0:0:0:0:
192,192,6606,1,0,0:0:0:0:
192,192,6749,1,8,0:0:0:0:
320,192,6749,1,0,0:0:0:0:
320,192,6892,1,2,0:0:0:0:
64,192,6892,1,0,0:0:0:0:
64,192,7035,1,8,0:0:0:0:
192,192,7035,1,0,0:0:0:0:
448,192,7177,1,2,0:0:0:0:
320,192,7177,1,0,0:0:0:0:
320,192,7320,1,8,0:0:0:0:
64,192,7320,1,0,0:0:0:0:
192,192,7463,1,2,0:0:0:0:
64,192,7463,1,0,0:0:0:0:
448,192,7535,1,0,0:0:0:0:
192,192,7606,1,8,0:0:0:0:
320,192,7606,1,0,0:0:0:0:
320,192,7749,1,2,0:0:0:0:
448,192,7749,1,0,0:0:0:0:
448,192,7892,1,8,0:0:0:0:
64,192,7892,1,0,0:0:0:0:
320,192,8035,1,2,0:0:0:0:
64,192,8035,1,0,0:0:0:0:
192,192,8177,1,8,0:0:0:0:
448,192,8177,1,0,0:0:0:0:
320,192,8320,1,2,0:0:0:0:
448,192,8320,1,0,0:0:0:0:
320,192,8463,1,8,0:0:0:0:
192,192,8463,1,0,0:0:0:0:
64,192,8606,1,2,0:0:0:0:
192,192,8606,1,0,0:0:0:0:
320,192,8749,1,8,0:0:0:0:
448,192,8749,1,0,0:0:0:0:
192,192,8820,1,0,0:0:0:0:
64,192,8892,1,0,0:0:0:0:
448,192,8892,1,0,0:0:0:0:
320,192,9035,1,8,0:0:0:0:
64,192,9035,1,0,0:0:0:0:
192,192,9177,1,2,0:0:0:0:
320,192,9177,1,0,0:0:0:0:
192,192,9320,1,8,0:0:0:0:
448,192,9320,1,0,0:0:0:0:
64,192,9463,1,2,0:0:0:0:
448,192,9463,1,0,0:0:0:0:
320,192,9606,1,8,0:0:0:0:
192,192,9606,1,0,0:0:0:0:
192,192,9749,1,2,0:0:0:0:
64,192,9749,1,0,0:0:0:0:
320,192,9820,1,0,0:0:0:0:
448,192,9892,1,8,0:0:0:0:
64,192,9892,1,0,0:0:0:0:
192,192,10035,1,2,0:0:0:0:
448,192,10035,1,0,0:0:0:0:
64,192,10177,1,8,0:0:0:0:
320,192,10177,1,0,0:0:0:0:
192,192,10320,1,2,0:0:0:0:
64,192,10320,1,0,0:0:0:0:
192,192,10463,1,8,0:0:0:0:
320,192,10463,1,0,0:0:0:0:
448,192,10606,1,2,0:0:0:0:
64,192,10606,1,0,0:0:0:0:
192,192,10749,1,8,0:0:0:0:
320,192,10749,1,0,0:0:0:0:
320,192,10892,1,2,0:0:0:0:
448,192,10892,1,0,0:0:0:0:
192,192,10963,1,0,0:0:0:0:
64,192,11035,1,8,0:0:0:0:
448,192,11035,1,0,0:0:0:0:
320,192,11177,5,2,0:0:0:0:
64,192,11177,1,0,0:0:0:0:
320,192,11320,1,8,0:0:0:0:
192,192,11320,1,0,0:0:0:0:
192,192,11463,1,2,0:0:0:0:
64,192,11463,1,0,0:0:0:0:
64,192,11606,1,8,0:0:0:0:
320,192,11606,1,0,0:0:0:0:
320,192,11749,1,2,0:0:0:0:
448,192,11749,1,0,0:0:0:0:
448,192,11892,1,8,0:0:0:0:
192,192,11892,1,0,0:0:0:0:
192,192,12035,1,2,0:0:0:0:
320,192,12035,1,0,0:0:0:0:
448,192,12106,1,0,0:0:0:0:
192,192,12177,1,8,0:0:0:0:
64,192,12177,1,0,0:0:0:0:
320,192,12320,5,2,0:0:0:0:
448,192,12320,1,0,0:0:0:0:
192,192,12392,1,2,0:0:0:0:
64,192,12463,1,2,0:0:0:0:
448,192,12463,1,0,0:0:0:0:
320,192,12535,1,2,0:0:0:0:
192,192,12606,1,2,0:0:0:0:
64,192,12606,1,0,0:0:0:0:
320,192,12749,1,8,0:0:0:0:
448,192,12749,1,0,0:0:0:0:
64,192,12892,1,2,0:0:0:0:
192,192,12892,1,0,0:0:0:0:
320,192,13035,1,8,0:0:0:0:
448,192,13035,1,0,0:0:0:0:
64,192,13177,128,0,13320:0:0:0:0:
192,192,13177,128,0,13320:0:0:0:0:
448,192,13463,1,4,0:0:0:0:
320,192,13463,1,2,0:0:0:0:
64,192,13606,1,8,0:0:0:0:
320,192,13606,1,0,0:0:0:0:
64,192,13749,1,2,0:0:0:0:
192,192,13749,1,0,0:0:0:0:
192,192,13892,1,8,0:0:0:0:
448,192,13892,1,0,0:0:0:0:
320,192,14035,1,2,0:0:0:0:
64,192,14035,1,0,0:0:0:0:
64,192,14177,1,8,0:0:0:0:
192,192,14177,1,0,0:0:0:0:
192,192,14320,1,2,0:0:0:0:
448,192,14320,1,0,0:0:0:0:
64,192,14392,1,0,0:0:0:0:
320,192,14463,1,8,0:0:0:0:
448,192,14463,1,0,0:0:0:0:
320,192,14606,1,2,0:0:0:0:
192,192,14606,1,0,0:0:0:0:
192,192,14749,1,8,0:0:0:0:
448,192,14749,1,0,0:0:0:0:
320,192,14892,1,2,0:0:0:0:
64,192,14892,1,0,0:0:0:0:
64,192,15035,1,8,0:0:0:0:
192,192,15035,1,0,0:0:0:0:
192,192,15177,1,2,0:0:0:0:
448,192,15177,1,0,0:0:0:0:
448,192,15320,1,8,0:0:0:0:
64,192,15320,1,0,0:0:0:0:
64,192,15463,1,2,0:0:0:0:
192,192,15463,1,0,0:0:0:0:
320,192,15535,1,0,0:0:0:0:
192,192,15606,1,8,0:0:0:0:
448,192,15606,1,0,0:0:0:0:
320,192,15749,1,2,0:0:0:0:
448,192,15749,1,0,0:0:0:0:
320,192,15892,1,8,0:0:0:0:
64,192,15892,1,0,0:0:0:0:
64,192,16035,1,2,0:0:0:0:
192,192,16035,1,0,0:0:0:0:
192,192,16177,1,8,0:0:0:0:
448,192,16177,1,0,0:0:0:0:
320,192,16320,1,2,0:0:0:0:
448,192,16320,1,0,0:0:0:0:
320,192,16463,1,8,0:0:0:0:
64,192,16463,1,0,0:0:0:0:
64,192,16606,1,2,0:0:0:0:
192,192,16606,1,0,0:0:0:0:
320,192,16677,1,0,0:0:0:0:
192,192,16749,1,8,0:0:0:0:
448,192,16749,1,0,0:0:0:0:
320,192,16892,1,2,0:0:0:0:
448,192,16892,1,0,0:0:0:0:
320,192,17035,1,8,0:0:0:0:
64,192,17035,1,0,0:0:0:0:
64,192,17177,1,2,0:0:0:0:
192,192,17177,1,0,0:0:0:0:
192,192,17320,1,8,0:0:0:0:
320,192,17320,1,0,0:0:0:0:
64,192,17463,1,2,0:0:0:0:
448,192,17463,1,0,0:0:0:0:
320,192,17606,1,8,0:0:0:0:
64,192,17606,1,0,0:0:0:0:
192,192,17749,1,2,0:0:0:0:
320,192,17749,1,0,0:0:0:0:
448,192,17820,1,0,0:0:0:0:
64,192,17892,1,8,0:0:0:0:
192,192,17892,1,0,0:0:0:0:
320,192,18035,1,2,0:0:0:0:
448,192,18035,1,0,0:0:0:0:
320,192,18177,1,8,0:0:0:0:
64,192,18177,1,0,0:0:0:0:
64,192,18320,1,2,0:0:0:0:
192,192,18320,1,0,0:0:0:0:
192,192,18463,1,8,0:0:0:0:
448,192,18463,1,0,0:0:0:0:
320,192,18606,1,2,0:0:0:0:
448,192,18606,1,0,0:0:0:0:
320,192,18749,1,8,0:0:0:0:
192,192,18749,1,0,0:0:0:0:
192,192,18892,1,2,0:0:0:0:
64,192,18892,1,0,0:0:0:0:
320,192,18963,1,0,0:0:0:0:
448,192,19035,1,8,0:0:0:0:
64,192,19035,1,0,0:0:0:0:
320,192,19177,1,2,0:0:0:0:
448,192,19177,1,0,0:0:0:0:
320,192,19320,1,8,0:0:0:0:
64,192,19320,1,0,0:0:0:0:
192,192,19463,1,2,0:0:0:0:
64,192,19463,1,0,0:0:0:0:
192,192,19606,1,8,0:0:0:0:
320,192,19606,1,0,0:0:0:0:
64,192,19749,1,2,0:0:0:0:
320,192,19749,1,0,0:0:0:0:
64,192,19892,1,8,0:0:0:0:
448,192,19892,1,0,0:0:0:0:
320,192,20035,1,2,0:0:0:0:
448,192,20035,1,0,0:0:0:0:
192,192,20106,1,0,0:0:0:0:
64,192,20177,1,8,0:0:0:0:
320,192,20177,1,0,0:0:0:0:
192,192,20320,5,2,0:0:0:0:
448,192,20320,1,0,0:0:0:0:
320,192,20463,1,8,0:0:0:0:
64,192,20463,1,0,0:0:0:0:
64,192,20606,1,2,0:0:0:0:
192,192,20606,1,0,0:0:0:0:
192,192,20749,1,8,0:0:0:0:
448,192,20749,1,0,0:0:0:0:
320,192,20892,1,2,0:0:0:0:
448,192,20892,1,0,0:0:0:0:
192,192,21035,1,8,0:0:0:0:
64,192,21035,1,0,0:0:0:0:
64,192,21177,1,2,0:0:0:0:
320,192,21177,1,0,0:0:0:0:
320,192,21320,1,8,0:0:0:0:
448,192,21320,1,0,0:0:0:0:
192,192,21463,5,2,0:0:0:0:
64,192,21463,1,0,0:0:0:0:
320,192,21535,1,2,0:0:0:0:
448,192,21606,1,2,0:0:0:0:
64,192,21606,1,0,0:0:0:0:
192,192,21677,1,2,0:0:0:0:
320,192,21749,1,2,0:0:0:0:
448,192,21749,1,0,0:0:0:0:
64,192,21892,1,8,0:0:0:0:
192,192,21892,1,0,0:0:0:0:
320,192,22035,1,2,0:0:0:0:
448,192,22035,1,0,0:0:0:0:
64,192,22177,1,8,0:0:0:0:
192,192,22177,1,0,0:0:0:0:
320,192,22320,128,0,22463:0:0:0:0:
448,192,22320,128,0,22463:0:0:0:0:
64,192,22606,1,8,0:0:0:0:
192,192,22606,1,2,0:0:0:0:
64,192,22749,1,2,0:0:0:0:
192,192,22749,1,8,0:0:0:0:
448,192,22892,1,0,0:0:0:0:
320,192,22963,1,0,0:0:0:0:
192,192,23035,1,0,0:0:0:0:
64,192,23106,1,0,0:0:0:0:
448,192,23177,1,2,0:0:0:0:
320,192,23177,1,8,0:0:0:0:
320,192,23320,1,8,0:0:0:0:
448,192,23320,1,2,0:0:0:0:
64,192,23463,1,0,0:0:0:0:
192,192,23535,1,0,0:0:0:0:
320,192,23606,1,0,0:0:0:0:
448,192,23677,1,0,0:0:0:0:
64,192,23749,1,8,0:0:0:0:
192,192,23749,1,2,0:0:0:0:
64,192,23892,1,8,0:0:0:0:
192,192,23892,1,2,0:0:0:0:
448,192,24035,1,0,0:0:0:0:
320,192,24106,1,0,0:0:0:0:
192,192,24177,1,0,0:0:0:0:
64,192,24249,1,0,0:0:0:0:
320,192,24320,1,2,0:0:0:0:
448,192,24320,1,8,0:0:0:0:
320,192,24463,1,8,0:0:0:0:
448,192,24463,1,2,0:0:0:0:
64,192,24606,1,0,0:0:0:0:
192,192,24606,1,0,0:0:0:0:
320,192,24606,1,0,0:0:0:0:
320,192,24749,1,0,0:0:0:0:
448,192,24749,1,0,0:0:0:0:
64,192,24749,1,0,0:0:0:0:
192,192,24892,1,8,0:0:0:0:
64,192,24892,1,2,0:0:0:0:
64,192,25035,1,8,0:0:0:0:
192,192,25035,1,2,0:0:0:0:
448,192,25177,1,0,0:0:0:0:
320,192,25249,1,0,0:0:0:0:
192,192,25320,1,0,0:0:0:0:
64,192,25392,1,0,0:0:0:0:
320,192,25463,1,2,0:0:0:0:
448,192,25463,1,8,0:0:0:0:
320,192,25606,1,2,0:0:0:0:
448,192,25606,1,8,0:0:0:0:
64,192,25749,1,0,0:0:0:0:
192,192,25820,1,0,0:0:0:0:
320,192,25892,1,0,0:0:0:0:
448,192,25963,1,0,0:0:0:0:
64,192,26035,1,8,0:0:0:0:
192,192,26035,1,2,0:0:0:0:
192,192,26177,1,8,0:0:0:0:
64,192,26177,1,2,0:0:0:0:
448,192,26320,1,0,0:0:0:0:
320,192,26392,1,0,0:0:0:0:
192,192,26463,1,0,0:0:0:0:
64,192,26535,1,0,0:0:0:0:
320,192,26606,1,8,0:0:0:0:
448,192,26606,1,8,0:0:0:0:
192,192,26677,1,8,0:0:0:0:
64,192,26749,1,8,0:0:0:0:
448,192,26749,1,8,0:0:0:0:
320,192,26820,1,0,0:0:0:0:
192,192,26892,1,0,0:0:0:0:
64,192,26892,1,0,0:0:0:0:
320,192,27035,1,0,0:0:0:0:
448,192,27035,1,0,0:0:0:0:
64,192,27177,1,4,0:0:0:0:
192,192,27177,1,0,0:0:0:0:
320,192,27249,1,0,0:0:0:0:
448,192,27320,1,8,0:0:0:0:
192,192,27392,1,0,0:0:0:0:
320,192,27463,1,0,0:0:0:0:
64,192,27535,1,0,0:0:0:0:
448,192,27606,1,8,0:0:0:0:
320,192,27677,1,0,0:0:0:0:
192,192,27749,1,0,0:0:0:0:
64,192,27749,1,0,0:0:0:0:
448,192,27820,1,0,0:0:0:0:
320,192,27892,1,8,0:0:0:0:
192,192,27963,1,0,0:0:0:0:
64,192,28035,1,0,0:0:0:0:
448,192,28035,1,0,0:0:0:0:
320,192,28106,1,0,0:0:0:0:
64,192,28177,1,8,0:0:0:0:
192,192,28249,1,0,0:0:0:0:
320,192,28320,1,0,0:0:0:0:
448,192,28320,1,0,0:0:0:0:
64,192,28392,1,0,0:0:0:0:
192,192,28463,1,8,0:0:0:0:
320,192,28535,1,0,0:0:0:0:
64,192,28606,1,0,0:0:0:0:
448,192,28677,1,0,0:0:0:0:
192,192,28749,1,8,0:0:0:0:
320,192,28820,1,0,0:0:0:0:
64,192,28892,1,0,0:0:0:0:
448,192,28892,1,0,0:0:0:0:
192,192,28963,1,0,0:0:0:0:
320,192,29035,1,8,0:0:0:0:
64,192,29106,1,0,0:0:0:0:
448,192,29177,1,0,0:0:0:0:
192,192,29177,1,0,0:0:0:0:
320,192,29249,1,0,0:0:0:0:
64,192,29320,1,8,0:0:0:0:
448,192,29392,1,0,0:0:0:0:
320,192,29463,1,0,0:0:0:0:
192,192,29463,1,0,0:0:0:0:
64,192,29535,1,0,0:0:0:0:
448,192,29606,1,8,0:0:0:0:
320,192,29677,1,0,0:0:0:0:
192,192,29749,1,0,0:0:0:0:
448,192,29820,1,0,0:0:0:0:
320,192,29892,1,8,0:0:0:0:
64,192,29963,1,0,0:0:0:0:
192,192,30035,1,0,0:0:0:0:
448,192,30035,1,0,0:0:0:0:
320,192,30106,1,0,0:0:0:0:
64,192,30177,1,8,0:0:0:0:
192,192,30249,1,0,0:0:0:0:
320,192,30320,1,0,0:0:0:0:
448,192,30320,1,0,0:0:0:0:
64,192,30392,1,0,0:0:0:0:
192,192,30463,1,8,0:0:0:0:
320,192,30535,1,0,0:0:0:0:
64,192,30606,1,8,0:0:0:0:
192,192,30606,1,0,0:0:0:0:
448,192,30677,1,8,0:0:0:0:
320,192,30749,1,8,0:0:0:0:
192,192,30820,1,8,0:0:0:0:
64,192,30892,1,8,0:0:0:0:
448,192,30892,1,0,0:0:0:0:
320,192,30963,1,8,0:0:0:0:
192,192,31035,1,8,0:0:0:0:
448,192,31106,1,8,0:0:0:0:
320,192,31177,1,8,0:0:0:0:
64,192,31177,1,0,0:0:0:0:
192,192,31249,1,8,0:0:0:0:
448,192,31320,1,8,0:0:0:0:
320,192,31392,1,8,0:0:0:0:
192,192,31463,128,8,31749:0:0:0:0:
64,192,31463,1,0,0:0:0:0:
320,192,31749,1,0,0:0:0:0:
448,192,31749,1,0,0:0:0:0:
64,192,31820,1,0,0:0:0:0:
192,192,31892,1,8,0:0:0:0:
320,192,31963,1,0,0:0:0:0:
64,192,32035,1,0,0:0:0:0:
192,192,32035,1,0,0:0:0:0:
448,192,32106,1,0,0:0:0:0:
320,192,32177,1,8,0:0:0:0:
192,192,32249,1,0,0:0:0:0:
64,192,32320,1,0,0:0:0:0:
448,192,32320,1,0,0:0:0:0:
320,192,32392,1,0,0:0:0:0:
192,192,32463,1,8,0:0:0:0:
448,192,32535,1,0,0:0:0:0:
320,192,32606,1,0,0:0:0:0:
64,192,32606,1,0,0:0:0:0:
192,192,32677,1,0,0:0:0:0:
448,192,32749,1,8,0:0:0:0:
320,192,32820,1,0,0:0:0:0:
192,192,32892,1,0,0:0:0:0:
64,192,32892,1,0,0:0:0:0:
448,192,32963,1,0,0:0:0:0:
320,192,33035,1,8,0:0:0:0:
64,192,33106,1,0,0:0:0:0:
192,192,33177,1,0,0:0:0:0:
320,192,33249,1,0,0:0:0:0:
64,192,33320,1,8,0:0:0:0:
192,192,33392,1,0,0:0:0:0:
320,192,33463,1,0,0:0:0:0:
448,192,33463,1,0,0:0:0:0:
64,192,33535,1,0,0:0:0:0:
192,192,33606,1,8,0:0:0:0:
320,192,33677,1,0,0:0:0:0:
192,192,33749,1,0,0:0:0:0:
64,192,33749,1,0,0:0:0:0:
448,192,33820,1,0,0:0:0:0:
320,192,33892,1,8,0:0:0:0:
192,192,33963,1,0,0:0:0:0:
64,192,34035,128,4,35177:0:0:0:0:
320,192,34035,128,0,35177:0:0:0:0:
192,192,35177,1,2,0:0:0:0:
192,192,35892,128,2,36035:0:0:0:0:
320,192,36035,128,2,36177:0:0:0:0:
448,192,36177,128,2,36320:0:0:0:0:
192,192,36320,1,4,0:0:0:0:
64,192,36320,1,0,0:0:0:0:
64,192,36463,1,8,0:0:0:0:
320,192,36463,1,0,0:0:0:0:
448,192,36606,1,0,0:0:0:0:
320,192,36606,1,0,0:0:0:0:
192,192,36749,1,8,0:0:0:0:
448,192,36749,1,0,0:0:0:0:
192,192,36892,1,0,0:0:0:0:
64,192,36892,1,0,0:0:0:0:
64,192,37035,1,8,0:0:0:0:
320,192,37035,1,0,0:0:0:0:
448,192,37177,1,0,0:0:0:0:
320,192,37177,1,0,0:0:0:0:
192,192,37249,1,0,0:0:0:0:
448,192,37320,1,8,0:0:0:0:
64,192,37320,1,0,0:0:0:0:
64,192,37463,1,0,0:0:0:0:
320,192,37463,1,0,0:0:0:0:
320,192,37606,1,8,0:0:0:0:
192,192,37606,1,0,0:0:0:0:
64,192,37749,1,0,0:0:0:0:
192,192,37749,1,0,0:0:0:0:
320,192,37892,1,8,0:0:0:0:
64,192,37892,1,0,0:0:0:0:
448,192,38035,1,0,0:0:0:0:
192,192,38035,1,0,0:0:0:0:
192,192,38177,1,8,0:0:0:0:
320,192,38177,1,0,0:0:0:0:
320,192,38320,1,0,0:0:0:0:
64,192,38320,1,0,0:0:0:0:
192,192,38392,1,0,0:0:0:0:
448,192,38463,1,8,0:0:0:0:
320,192,38463,1,0,0:0:0:0:
192,192,38606,1,0,0:0:0:0:
448,192,38606,1,0,0:0:0:0:
320,192,38749,1,8,0:0:0:0:
192,192,38749,1,0,0:0:0:0:
64,192,38892,1,0,0:0:0:0:
320,192,38892,1,0,0:0:0:0:
192,192,39035,1,8,0:0:0:0:
64,192,39035,1,0,0:0:0:0:
320,192,39177,1,0,0:0:0:0:
448,192,39177,1,0,0:0:0:0:
64,192,39320,1,8,0:0:0:0:
320,192,39320,1,0,0:0:0:0:
64,192,39463,1,0,0:0:0:0:
192,192,39463,1,0,0:0:0:0:
448,192,39535,1,0,0:0:0:0:
320,192,39606,1,8,0:0:0:0:
192,192,39606,1,0,0:0:0:0:
448,192,39749,1,0,0:0:0:0:
320,192,39749,1,0,0:0:0:0:
64,192,39892,1,8,0:0:0:0:
448,192,39892,1,0,0:0:0:0:
64,192,40035,1,0,0:0:0:0:
320,192,40035,1,0,0:0:0:0:
448,192,40177,1,8,0:0:0:0:
192,192,40177,1,0,0:0:0:0:
448,192,40320,1,0,0:0:0:0:
320,192,40320,1,0,0:0:0:0:
192,192,40463,1,8,0:0:0:0:
320,192,40463,1,0,0:0:0:0:
192,192,40606,1,0,0:0:0:0:
64,192,40606,1,0,0:0:0:0:
320,192,40677,1,0,0:0:0:0:
448,192,40749,1,8,0:0:0:0:
320,192,40749,1,0,0:0:0:0:
192,192,40820,1,0,0:0:0:0:
448,192,40892,1,0,0:0:0:0:
64,192,40892,1,0,0:0:0:0:
64,192,41035,1,8,0:0:0:0:
320,192,41035,1,0,0:0:0:0:
320,192,41177,1,0,0:0:0:0:
192,192,41177,1,0,0:0:0:0:
448,192,41320,1,8,0:0:0:0:
192,192,41320,1,0,0:0:0:0:
448,192,41463,1,0,0:0:0:0:
64,192,41463,1,0,0:0:0:0:
192,192,41606,1,8,0:0:0:0:
320,192,41606,1,0,0:0:0:0:
64,192,41749,1,0,0:0:0:0:
192,192,41749,1,0,0:0:0:0:
320,192,41820,1,0,0:0:0:0:
64,192,41892,1,8,0:0:0:0:
448,192,41892,1,0,0:0:0:0:
448,192,42035,1,0,0:0:0:0:
192,192,42035,1,0,0:0:0:0:
320,192,42177,1,8,0:0:0:0:
64,192,42177,1,0,0:0:0:0:
64,192,42320,1,0,0:0:0:0:
192,192,42320,1,0,0:0:0:0:
320,192,42463,1,8,0:0:0:0:
192,192,42463,1,0,0:0:0:0:
64,192,42606,1,0,0:0:0:0:
448,192,42606,1,0,0:0:0:0:
320,192,42749,1,8,0:0:0:0:
192,192,42749,1,0,0:0:0:0:
448,192,42892,1,0,0:0:0:0:
320,192,42892,1,0,0:0:0:0:
192,192,42963,1,0,0:0:0:0:
448,192,43035,1,8,0:0:0:0:
64,192,43035,1,0,0:0:0:0:
320,192,43177,5,0,0:0:0:0:
64,192,43177,1,0,0:0:0:0:
192,192,43320,1,8,0:0:0:0:
320,192,43320,1,0,0:0:0:0:
64,192,43463,1,0,0:0:0:0:
192,192,43463,1,0,0:0:0:0:
320,192,43606,1,0,0:0:0:0:
64,192,43606,1,0,0:0:0:0:
448,192,43749,1,0,0:0:0:0:
320,192,43749,1,0,0:0:0:0:
192,192,43892,1,8,0:0:0:0:
448,192,43892,1,0,0:0:0:0:
320,192,44035,1,0,0:0:0:0:
192,192,44035,1,0,0:0:0:0:
448,192,44106,1,0,0:0:0:0:
64,192,44177,1,8,0:0:0:0:
192,192,44177,1,0,0:0:0:0:
320,192,44320,5,0,0:0:0:0:
448,192,44320,1,0,0:0:0:0:
192,192,44392,1,0,0:0:0:0:
448,192,44463,1,0,0:0:0:0:
64,192,44463,1,0,0:0:0:0:
320,192,44535,1,0,0:0:0:0:
64,192,44606,1,0,0:0:0:0:
192,192,44606,1,0,0:0:0:0:
448,192,44749,1,8,0:0:0:0:
320,192,44749,1,0,0:0:0:0:
192,192,44892,1,0,0:0:0:0:
448,192,44892,1,0,0:0:0:0:
320,192,45035,1,8,0:0:0:0:
64,192,45035,1,0,0:0:0:0:
192,192,45177,128,0,45320:0:0:0:0:
64,192,45177,128,0,45320:0:0:0:0:
320,192,45463,5,8,0:0:0:0:
448,192,45463,1,0,0:0:0:0:
320,192,45606,1,8,0:0:0:0:
448,192,45606,1,0,0:0:0:0:
64,192,45749,1,0,0:0:0:0:
192,192,45820,1,0,0:0:0:0:
320,192,45892,1,0,0:0:0:0:
448,192,45963,1,0,0:0:0:0:
64,192,46035,1,8,0:0:0:0:
192,192,46035,1,0,0:0:0:0:
192,192,46177,1,8,0:0:0:0:
64,192,46177,1,0,0:0:0:0:
448,192,46320,1,0,0:0:0:0:
320,192,46392,1,0,0:0:0:0:
192,192,46463,1,0,0:0:0:0:
64,192,46535,1,0,0:0:0:0:
448,192,46606,1,8,0:0:0:0:
320,192,46606,1,0,0:0:0:0:
320,192,46749,1,8,0:0:0:0:
448,192,46749,1,0,0:0:0:0:
64,192,46892,1,0,0:0:0:0:
192,192,46963,1,0,0:0:0:0:
320,192,47035,1,0,0:0:0:0:
448,192,47106,1,0,0:0:0:0:
192,192,47177,1,8,0:0:0:0:
64,192,47177,1,0,0:0:0:0:
192,192,47320,1,8,0:0:0:0:
64,192,47320,1,0,0:0:0:0:
192,192,47463,1,2,0:0:0:0:
320,192,47463,1,0,0:0:0:0:
448,192,47463,1,0,0:0:0:0:
320,192,47606,1,0,0:0:0:0:
192,192,47606,1,0,0:0:0:0:
64,192,47606,1,0,0:0:0:0:
320,192,47749,1,8,0:0:0:0:
448,192,47749,1,0,0:0:0:0:
448,192,47892,1,8,0:0:0:0:
320,192,47892,1,0,0:0:0:0:
64,192,48035,1,0,0:0:0:0:
192,192,48106,1,0,0:0:0:0:
320,192,48177,1,0,0:0:0:0:
448,192,48249,1,0,0:0:0:0:
192,192,48320,1,8,0:0:0:0:
64,192,48320,1,0,0:0:0:0:
64,192,48463,1,8,0:0:0:0:
192,192,48463,1,0,0:0:0:0:
448,192,48606,1,0,0:0:0:0:
320,192,48677,1,0,0:0:0:0:
192,192,48749,1,0,0:0:0:0:
64,192,48820,1,0,0:0:0:0:
320,192,48892,1,8,0:0:0:0:
448,192,48892,1,0,0:0:0:0:
448,192,49035,1,8,0:0:0:0:
320,192,49035,1,0,0:0:0:0:
64,192,49177,1,0,0:0:0:0:
192,192,49249,1,0,0:0:0:0:
320,192,49320,1,8,0:0:0:0:
448,192,49392,1,0,0:0:0:0:
64,192,49463,1,8,0:0:0:0:
192,192,49463,1,0,0:0:0:0:
320,192,49535,1,8,0:0:0:0:
448,192,49606,1,8,0:0:0:0:
64,192,49606,1,0,0:0:0:0:
192,192,49677,1,8,0:0:0:0:
320,192,49749,1,0,0:0:0:0:
448,192,49749,1,0,0:0:0:0:
64,192,49892,1,0,0:0:0:0:
192,192,49892,1,0,0:0:0:0:
320,192,50035,1,0,0:0:0:0:
448,192,50035,1,0,0:0:0:0:
192,192,50106,1,0,0:0:0:0:
64,192,50177,128,0,50320:0:0:0:0:
448,192,50320,128,4,50677:0:0:0:0:
