osu file format v14

[General]
AudioFilename: Kitsune - Everybody Rush.mp3
AudioLeadIn: 0
PreviewTime: 100660
Countdown: 1
SampleSet: Normal
StackLeniency: 0.7
Mode: 0
LetterboxInBreaks: 0
WidescreenStoryboard: 0

[Editor]
Bookmarks: 45847,64122,82399
DistanceSpacing: 0.8
BeatDivisor: 2
GridSize: 4
TimelineZoom: 1

[Metadata]
Title:Everybody Rush
TitleUnicode:Everybody Rush
Artist:Kitsune^2
ArtistUnicode:Kitsune^2
Creator:Pruz
Version:Basic
Source:
Tags:
BeatmapID:877882
BeatmapSetID:403754

[Difficulty]
HPDrainRate:5
CircleSize:4
OverallDifficulty:5
ApproachRate:6
SliderMultiplier:1.2
SliderTickRate:1

[Events]
//Background and Video events
0,0,"trafficj.jpg",0,0
//Break Periods
2,64408,81257
//Storyboard Layer 0 (Background)
//Storyboard Layer 1 (Fail)
//Storyboard Layer 2 (Pass)
//Storyboard Layer 3 (Foreground)
//Storyboard Sound Samples

[TimingPoints]
9277,285.5782960495,4,1,0,100,1,0
18415,-83.3333333333333,4,1,0,100,0,0
52684,571.156592099,4,1,0,100,1,0
54968,285.646274696501,4,1,0,100,1,0
54968,-83.3333333333333,4,1,0,100,0,0
100671,-100,4,1,0,100,0,0
118952,-83.3333333333333,4,1,0,100,0,0
125808,571.156592099,4,1,0,100,1,0
128092,285.5782960495,4,1,0,100,1,0
128092,-83.3333333333333,4,1,0,100,0,0

[Colours]
Combo1 : 129,188,130
Combo2 : 176,188,169
Combo3 : 141,141,141

[HitObjects]
176,224,9277,5,0,0:0:0:0:
144,140,9562,1,0,0:0:0:0:
192,64,9848,6,0,P|228:44|320:80,1,120
364,148,10419,2,0,B|392:212|392:212|328:276,1,120
304,336,10990,1,0,0:0:0:0:
220,304,11276,1,0,0:0:0:0:
148,248,11561,6,0,P|128:184|152:24,2,180
164,328,12703,2,0,P|120:324|64:232,1,120
144,248,13275,2,0,P|188:236|284:264,1,120
360,296,13846,5,0,0:0:0:0:
404,232,14131,2,0,P|364:168|408:88,1,120
416,28,14702,1,0,0:0:0:0:
328,40,14988,2,0,P|280:52|48:24,1,240
28,108,15845,1,0,0:0:0:0:
72,184,16130,5,0,0:0:0:0:
72,184,16416,1,0,0:0:0:0:
128,116,16702,2,0,P|172:120|224:208,1,120
304,164,17273,1,0,0:0:0:0:
304,164,17558,1,0,0:0:0:0:
348,240,17844,2,0,P|344:296|248:328,1,120
196,296,18415,6,0,L|152:144,1,143.999995605469,0|0,0:0|0:0,0:0:0:0:
120,140,18843,1,0,0:0:0:0:
112,32,19129,1,0,0:0:0:0:
224,68,19557,2,0,P|304:100|420:88,1,143.999995605469
448,144,20128,2,0,B|380:176|380:176|420:188|452:240,1,143.999995605469
456,296,20700,5,0,0:0:0:0:
372,304,20985,2,0,P|332:284|304:176,1,143.999995605469
240,252,21556,2,0,P|176:280|88:112,1,287.999991210938
148,188,22413,1,0,0:0:0:0:
156,96,22699,5,0,0:0:0:0:
240,160,22984,2,0,L|340:156,1,71.9999978027344
332,180,23270,2,0,L|412:180,1,71.9999978027344
428,204,23555,2,0,P|480:176|408:92,1,143.999995605469
384,56,24127,1,0,0:0:0:0:
308,92,24412,2,0,B|260:104|240:96|240:96|228:112|160:116,1,143.999995605469
80,136,24983,5,0,0:0:0:0:
128,216,25269,1,0,0:0:0:0:
228,204,25554,1,0,0:0:0:0:
276,284,25840,1,0,0:0:0:0:
376,268,26126,1,0,0:0:0:0:
256,192,26411,12,0,27268,0:0:0:0:
336,204,27554,6,0,P|384:184|400:80,1,143.999995605469
424,24,28125,2,0,P|464:40|460:164,1,143.999995605469
404,96,28696,1,0,0:0:0:0:
324,64,28981,1,0,0:0:0:0:
284,136,29267,1,0,0:0:0:0:
236,64,29838,6,0,P|212:88|232:204,1,143.999995605469
292,172,30409,2,0,L|100:168,1,143.999995605469
156,248,30980,1,0,0:0:0:0:
144,168,31266,1,0,0:0:0:0:
164,92,31552,2,0,P|212:52|304:72,1,143.999995605469
240,128,32123,6,0,L|296:280,1,143.999995605469
220,300,32694,2,0,B|164:344|164:344|132:304|56:300,1,143.999995605469
108,228,33265,2,0,P|76:196|216:96,1,287.999991210938
228,164,34122,1,0,0:0:0:0:
264,32,34407,6,0,P|300:24|400:68,1,143.999995605469
448,128,34979,2,0,P|464:176|432:272,1,143.999995605469
376,324,35550,5,0,0:0:0:0:
304,264,35835,1,0,0:0:0:0:
244,328,36121,1,0,0:0:0:0:
244,328,36406,1,0,0:0:0:0:
96,280,36978,6,0,P|112:240|216:240,1,143.999995605469
260,280,37549,1,0,0:0:0:0:
176,296,37834,1,0,0:0:0:0:
208,224,38120,2,0,P|232:196|344:208,2,143.999995605469
108,316,39262,5,0,0:0:0:0:
108,316,39548,1,0,0:0:0:0:
60,240,39833,2,0,P|32:184|72:104,1,143.999995605469
112,172,40405,2,0,L|248:104,1,143.999995605469
276,32,40976,1,0,0:0:0:0:
212,168,41547,6,0,P|280:180|376:156,2,143.999995605469
140,128,42404,2,0,L|168:280,2,143.999995605469
168,48,43260,1,0,0:0:0:0:
136,128,43546,6,0,P|100:88|108:-8,1,143.999995605469
164,52,44117,2,0,B|216:108|216:108|184:212,1,143.999995605469
256,192,44688,12,0,45545,0:0:0:0:
256,192,45831,5,0,0:0:0:0:
288,288,46402,6,0,P|360:188|208:104,1,287.999991210938
258,90,47544,1,0,0:0:0:0:
180,196,48115,6,0,B|124:184|124:184|96:80,1,143.999995605469
156,32,48686,2,0,B|213:6|249:46|249:46|289:30,1,143.999995605469
372,24,49257,1,0,0:0:0:0:
428,92,49543,1,0,0:0:0:0:
432,180,49829,2,0,P|404:224|416:328,1,143.999995605469
464,256,50400,5,0,0:0:0:0:
356,188,50685,2,0,L|204:208,1,143.999995605469
256,272,51257,1,0,0:0:0:0:
272,128,51542,2,0,B|284:56|284:56|176:80,3,143.999995605469
152,128,52684,6,0,P|96:128|140:52,1,180
212,72,53826,6,0,P|240:88|224:4,1,180
212,72,54968,6,0,L|224:216,1,143.999995605469
308,136,55539,2,0,L|284:280,1,143.999995605469
384,232,56110,2,0,L|316:368,1,143.999995605469
408,348,56681,2,0,B|468:336|468:336|432:296|432:236,1,143.999995605469
492,204,57252,5,0,0:0:0:0:
404,136,57823,1,0,0:0:0:0:
404,136,58109,1,0,0:0:0:0:
348,204,58395,2,0,B|296:236|296:236|260:152,1,143.999995605469
312,116,58967,2,0,P|316:76|196:148,1,287.999991210938
188,204,59823,5,0,0:0:0:0:
256,148,60109,2,0,P|312:164|364:104,1,143.999995605469
448,104,60680,2,0,L|408:244,1,143.999995605469
456,304,61252,1,0,0:0:0:0:
372,312,61537,1,0,0:0:0:0:
304,264,61823,6,0,P|256:232|176:280,1,143.999995605469
200,344,62394,2,0,B|272:328|272:328|311:260,1,143.999995605469
384,304,62966,5,0,0:0:0:0:
344,196,63251,1,0,0:0:0:0:
207,186,63537,2,0,B|293:260|293:260|348:268,1,143.999995605469
284,152,64108,5,0,0:0:0:0:
172,176,82390,6,0,P|240:208|328:168,1,143.999995605469
240,128,82961,2,0,L|344:24,1,143.999995605469
424,48,83532,1,0,0:0:0:0:
472,116,83818,1,0,0:0:0:0:
416,184,84103,2,0,B|397:195|389:227|389:227|328:304,1,143.999995605469
424,300,84675,5,0,0:0:0:0:
472,240,84960,2,0,P|492:204|427:111,1,143.999995605469
472,240,85532,1,0,0:0:0:0:
408,184,85817,2,0,B|376:132|376:132|376:76|320:60,1,143.999995605469
288,136,86389,2,0,P|232:152|152:96,1,143.999995605469
232,80,86960,6,0,B|216:200|216:200|100:200|100:308,1,287.999991210938
184,284,88102,2,0,B|340:260|340:260,1,143.999995605469
404,304,88674,1,0,0:0:0:0:
404,224,88959,1,0,0:0:0:0:
476,264,89245,6,0,P|488:216|408:144,1,143.999995605469
404,224,89816,2,0,L|252:212,1,143.999995605469
192,264,90388,5,0,0:0:0:0:
184,176,90673,1,0,0:0:0:0:
112,224,90959,2,0,P|72:252|80:348,1,143.999995605469
140,296,91530,6,0,L|276:352,1,143.999995605469
276,252,92102,2,0,L|424:284,1,143.999995605469
392,192,92673,1,0,0:0:0:0:
392,192,92958,1,0,0:0:0:0:
472,232,93244,2,0,P|480:184|396:100,1,143.999995605469
360,104,93815,6,0,L|216:108,1,143.999995605469
224,184,94387,2,0,L|79:187,1,143.999995605469
144,256,94958,1,0,0:0:0:0:
220,188,95244,1,0,0:0:0:0:
284,248,95529,1,0,0:0:0:0:
284,248,95815,1,0,0:0:0:0:
256,328,96101,6,0,P|312:328|328:172,1,215.999993408203
296,248,97243,2,0,P|256:192|376:108,1,215.999993408203
416,220,98100,1,0,0:0:0:0:
340,180,98386,6,0,P|264:172|192:224,1,143.999995605469
160,268,98957,2,0,P|156:332|244:360,1,143.999995605469
256,192,99528,12,0,100384,0:0:0:0:
176,224,100671,5,0,0:0:0:0:
144,140,100957,1,0,0:0:0:0:
192,64,101242,2,0,P|228:44|320:80,1,120
364,148,101813,2,0,B|392:212|392:212|328:276,1,120
304,336,102385,1,0,0:0:0:0:
220,304,102670,1,0,0:0:0:0:
148,248,102956,6,0,P|128:184|152:24,2,180
164,328,104099,2,0,P|120:324|64:236,1,120
144,248,104670,2,0,P|188:236|284:264,1,120
360,296,105241,5,0,0:0:0:0:
404,232,105527,2,0,P|364:168|408:88,1,120
416,28,106098,1,0,0:0:0:0:
328,40,106384,2,0,P|280:52|48:24,1,240
28,108,107241,1,0,0:0:0:0:
72,184,107526,5,0,0:0:0:0:
72,184,107812,1,0,0:0:0:0:
128,116,108098,2,0,P|172:120|224:208,1,120
304,164,108669,5,0,0:0:0:0:
304,164,108955,1,0,0:0:0:0:
348,240,109240,2,0,P|344:296|248:328,1,120
256,256,109812,6,0,B|176:232|152:296|152:296|216:316,1,180
203,312,110526,1,0,0:0:0:0:
296,328,110954,2,0,B|380:332|376:260|376:260|348:200,1,180
348,208,111668,1,0,0:0:0:0:
260,172,112097,2,0,B|320:140|312:76|312:76|232:68,1,180
248,68,112811,1,0,0:0:0:0:
184,132,113239,2,0,P|128:144|80:36,1,180
72,48,113953,1,0,0:0:0:0:
160,52,114382,5,0,0:0:0:0:
248,48,114668,1,0,0:0:0:0:
160,52,114953,2,0,L|128:188,1,120
144,168,115525,1,0,0:0:0:0:
232,164,115810,1,0,0:0:0:0:
144,168,116096,2,0,L|112:304,1,120
192,320,116667,6,0,P|248:336|308:312,1,120
252,252,117238,2,0,B|304:216|304:216|400:252,1,120
256,192,117810,12,0,118666,0:0:0:0:
256,192,118952,5,0,0:0:0:0:
152,212,119524,2,0,P|272:280|368:172,1,287.999991210938
358,194,120666,1,0,0:0:0:0:
252,116,121237,6,0,B|264:60|264:60|368:32,1,143.999995605469
416,92,121809,2,0,B|441:149|401:185|401:185|417:225,1,143.999995605469
424,308,122380,1,0,0:0:0:0:
356,364,122666,1,0,0:0:0:0:
268,368,122951,2,0,P|224:340|120:352,1,143.999995605469
48,352,123523,5,0,0:0:0:0:
144,348,124094,2,0,P|128:280|304:280,1,287.999991210938
284,328,124951,1,0,0:0:0:0:
216,280,125236,2,0,B|232:240|316:252|344:192,1,143.999995605469
368,136,125808,6,0,P|356:84|300:32,1,120
224,24,126664,1,0,0:0:0:0:
168,88,126950,5,0,0:0:0:0:
216,156,127235,1,0,0:0:0:0:
296,132,127521,1,0,0:0:0:0:
280,216,127807,2,0,L|296:280,1,60
228,328,128663,6,0,P|184:280|224:192,1,143.999995605469
280,232,129234,2,0,B|348:256|348:256|356:220|408:192,1,143.999995605469
432,128,129805,2,0,B|460:64|460:64|408:60|380:28,1,143.999995605469
320,92,130376,6,0,L|300:244,3,143.999995605469
232,288,131518,5,0,0:0:0:0:
164,240,131804,1,0,0:0:0:0:
92,280,132090,1,0,0:0:0:0:
32,224,132375,2,0,P|24:188|104:112,1,143.999995605469
212,188,133232,6,0,P|272:188|360:280,1,143.999995605469
400,288,133803,2,0,B|432:248|412:208|412:208|476:160,1,143.999995605469
464,96,134374,1,0,0:0:0:0:
388,124,134660,1,0,0:0:0:0:
336,192,134945,5,0,0:0:0:0:
256,128,135231,1,0,0:0:0:0:
176,192,135517,1,0,0:0:0:0:
256,128,135802,1,0,0:0:0:0:
336,192,136088,6,0,P|388:192|472:136,1,143.999995605469
460,248,136659,2,0,B|376:288|380:360|380:360,1,143.999995605469
