osu file format v14

[General]
AudioFilename: audio.mp3
AudioLeadIn: 0
PreviewTime: 56692
Countdown: 0
SampleSet: Soft
StackLeniency: 0.7
Mode: 0
LetterboxInBreaks: 0
WidescreenStoryboard: 1

[Editor]
Bookmarks: 118,7677,15236,26574,41692,56810,71929,79488,83267
DistanceSpacing: 1
BeatDivisor: 12
GridSize: 32
TimelineZoom: 2.699999

[Metadata]
Title:Kokorone (TV Size)
TitleUnicode:ココロネ (TV Size)
Artist:Kitri
ArtistUnicode:Kitri
Creator:Sagu
Version:Normal
Source:事情を知らない転校生がグイグイくる。
Tags:japanese pop j-pop jpop anime ending ed my clueless first friend the transfer student is assertive jijyou o Jijou wo Shiranai Tenkousei ga Guigui Kuru. Mona Hina 網守将平 Shohei AMIMORI CENSOLED Sayama Kaede Suzuaki_Rin __Ag
BeatmapID:4328735
BeatmapSetID:2063646

[Difficulty]
HPDrainRate:3
CircleSize:3.5
OverallDifficulty:4
ApproachRate:5
SliderMultiplier:1.35999990463257
SliderTickRate:1

[Events]
//Background and Video events
0,0,"bg.jpg",0,0
//Break Periods
//Storyboard Layer 0 (Background)
//Storyboard Layer 1 (Fail)
//Storyboard Layer 2 (Pass)
//Storyboard Layer 3 (Foreground)
//Storyboard Layer 4 (Overlay)
//Storyboard Sound Samples

[TimingPoints]
118,472.44094488189,4,2,1,50,1,0
118,-111.111111111111,4,2,1,50,0,0
7677,-105.263157894737,4,2,1,50,0,0
13346,-117.647058823529,4,2,1,50,0,0
14527,-100,4,2,1,50,0,0
14763,-100,4,2,1,65,0,0
26574,-111.111111111111,4,2,1,65,0,0
27755,-111.111111111111,4,2,1,62,0,0
30118,-100,4,2,1,62,0,0
41692,-105.263157894737,4,2,1,50,0,0
51141,-100,4,2,1,60,0,0
56810,-90.9090909090909,4,2,1,70,0,0
79488,-100,4,2,1,65,0,0
81850,-100,4,2,1,55,0,0

[Colours]
Combo1 : 244,181,244
Combo2 : 181,213,244
Combo3 : 170,170,255
Combo4 : 248,177,213

[HitObjects]
164,339,118,6,0,P|215:351|268:379,2,91.7999907611851,2|2|0,0:0|0:0|0:0,0:0:0:0:
53,300,1299,1,2,0:0:0:0:
53,300,1535,2,0,P|52:254|39:223,1,61.1999938407901,2|2,0:0|0:0,0:0:0:0:
28,181,2007,2,0,P|42:137|68:99,2,91.7999907611851,0|0|2,0:0|0:0|0:0,0:0:0:0:
187,88,3425,2,0,P|230:91|268:115,1,61.1999938407901,2|2,0:0|0:0,0:0:0:0:
306,108,3897,6,0,P|331:71|322:27,2,91.7999907611851,2|2|2,0:0|0:0|0:0,0:0:0:0:
215,190,5078,1,2,0:0:0:0:
215,190,5314,2,0,P|219:237|221:265,1,61.1999938407901,2|0,0:0|0:0,0:0:0:0:
254,301,5787,2,0,P|305:314|354:335,2,91.7999907611851,2|0|2,0:0|0:0|0:0,0:0:0:0:
82,367,7204,2,0,P|51:363|20:350,1,61.1999938407901,0|2,0:0|0:0,0:0:0:0:
20,287,7677,6,0,P|10:238|-2:186,2,96.8999906175617,2|2|0,0:0|0:0|0:0,0:0:0:0:
107,175,8858,2,0,P|157:185|183:204,1,64.5999937450411,2|2,0:0|0:0,0:0:0:0:
222,227,9330,1,2,0:0:0:0:
266,180,9566,2,0,P|249:130|244:73,2,96.8999906175617
322,148,10511,2,0,P|375:146|430:219,1,129.199987490082,2|0,0:0|0:0,0:0:0:0:
463,250,11220,1,2,0:0:0:0:
413,288,11456,6,0,P|399:338|386:399,2,96.8999906175617,2|2|2,0:0|0:0|0:0,0:0:0:0:
285,308,12637,2,0,P|247:292|209:289,2,64.5999937450411,0|0|2,0:0|0:0|0:0,0:0:0:0:
260,360,13346,6,0,L|227:165,1,173.399991147995,2|0,0:0|0:0,0:0:0:0:
271,42,14527,1,0,0:0:0:0:
213,63,14763,2,0,P|179:47|118:42,1,67.9999952316285,8|0,0:0|0:0,0:0:0:0:
71,15,15236,6,0,P|39:39|48:115,1,101.999992847443,4|10,1:2|0:0,0:0:0:0:
155,140,15944,1,10,0:2:0:0:
155,140,16180,2,0,L|168:216,1,67.9999952316285,0|2,0:0|1:2,0:0:0:0:
223,264,16653,1,10,0:2:0:0:
93,384,17125,2,0,P|56:378|-9:341,2,101.999992847443,2|10|8,1:2|0:2|0:0,0:0:0:0:
156,335,18070,1,0,0:0:0:0:
225,377,18306,1,2,1:2:0:0:
288,327,18543,2,0,P|303:274|311:250,1,67.9999952316285,8|2,0:0|1:2,0:0:0:0:
349,192,19015,6,0,P|324:153|292:146,1,67.9999952316285,2|2,1:2|1:2,0:0:0:0:
229,172,19488,2,0,P|178:150|119:139,2,101.999992847443,2|2|2,1:2|1:2|1:2,0:0:0:0:
299,133,20432,1,10,0:2:0:0:
441,55,20905,2,0,P|425:24|352:21,2,101.999992847443,2|10|10,1:2|0:2|0:2,0:0:0:0:
498,112,21850,2,0,L|513:183,1,67.9999952316285,2|2,1:2|1:2,0:0:0:0:
473,249,22322,1,10,0:2:0:0:
356,364,22795,6,0,P|313:357|229:347,2,101.999992847443,2|10|8,1:2|0:2|0:0,0:0:0:0:
255,242,23976,1,2,1:2:0:0:
255,242,24212,2,0,P|248:201|241:162,1,67.9999952316285,10|2,0:2|1:2,0:0:0:0:
304,122,24684,2,0,P|251:135|198:137,1,101.999992847443,2|10,1:2|0:2,0:0:0:0:
95,85,25393,1,4,0:2:0:0:
48,150,25629,2,0,P|42:174|32:220,1,67.9999952316285,8|8,0:3|0:3,0:0:0:0:
105,252,26102,2,0,P|112:287|120:321,1,67.9999952316285,4|4,0:3|0:3,0:0:0:0:
55,372,26574,5,4,1:2:0:0:
261,147,27755,1,2,1:2:0:0:
319,254,28228,1,2,1:2:0:0:
386,355,28700,1,2,1:2:0:0:
461,326,28936,2,0,P|472:260|494:188,1,122.39998768158,12|0,0:0|1:0,0:0:0:0:
437,145,29645,2,0,P|433:110|435:75,1,61.1999938407901,0|8,1:0|0:0,0:0:0:0:
490,23,30118,5,0,0:0:0:0:
490,23,30354,2,0,P|409:31|349:50,1,135.999990463257,2|8,1:2|0:0,0:0:0:0:
310,112,31062,1,2,1:2:0:0:
238,75,31299,2,0,P|231:29|224:2,2,67.9999952316285,2|2|10,1:2|1:2|0:2,0:0:0:0:
342,197,32243,2,0,P|332:244|315:355,1,135.999990463257,2|10,1:2|0:2,0:0:0:0:
250,371,32952,1,0,1:0:0:0:
250,371,33188,2,0,P|211:344|151:334,2,101.999992847443,0|0|0,1:0|0:0|1:0,0:0:0:0:
324,338,34133,5,4,1:2:0:0:
395,376,34369,2,0,P|413:334|441:293,1,67.9999952316285,2|10,0:2|0:2,0:0:0:0:
397,239,34842,2,0,B|418:166|440:200|453:103,1,135.999990463257,0|2,1:2|1:2,0:0:0:0:
487,44,35551,1,10,0:2:0:0:
418,2,35787,1,4,1:2:0:0:
272,74,36259,1,2,1:2:0:0:
214,18,36495,2,0,B|124:26|185:57|71:79,1,135.999990463257,12|0,0:0|1:0,0:0:0:0:
35,19,37204,2,0,P|12:61|14:94,1,67.9999952316285,0|8,1:0|0:0,0:0:0:0:
152,161,37913,6,0,P|197:211|193:300,1,135.999990463257,2|8,1:2|0:0,0:0:0:0:
166,351,38621,1,2,1:2:0:0:
166,351,38857,2,0,P|216:306|304:301,1,135.999990463257,0|10,0:0|0:2,0:0:0:0:
352,336,39566,1,2,1:2:0:0:
427,307,39803,2,0,P|434:355|434:377,2,67.9999952316285,2|2|10,1:2|1:2|0:2,0:0:0:0:
391,235,40511,2,0,P|377:136|376:76,1,135.999990463257,2|2,0:2|1:2,0:0:0:0:
418,32,41220,1,8,0:0:0:0:
265,4,41692,6,0,P|213:5|165:36,1,96.8999906175617,4|10,1:2|0:2,0:0:0:0:
93,76,42401,1,2,1:2:0:0:
93,76,42637,2,0,P|84:124|81:145,1,64.5999937450411,8|0,0:3|1:0,0:0:0:0:
36,186,43110,2,0,B|50:241|70:205|84:278|55:257|83:326,1,129.199987490082,10|0,0:2|1:0,0:0:0:0:
110,359,43818,2,0,P|150:342|188:336,1,64.5999937450411,2|8,1:2|0:3,0:0:0:0:
238,332,44291,1,4,0:3:0:0:
238,332,44527,2,0,P|242:279|169:226,1,129.199987490082,2|10,1:2|0:2,0:0:0:0:
130,120,45472,5,0,1:0:0:0:
130,120,45708,2,0,P|86:129|50:144,2,64.5999937450411,2|2|4,1:2|1:2|0:3,0:0:0:0:
181,159,46417,2,0,P|176:102|189:8,1,129.199987490082,2|10,1:2|0:2,0:0:0:0:
241,1,47125,1,2,0:2:0:0:
290,43,47362,2,0,P|384:52|463:0,2,193.799981235123,2|4|8,1:2|0:3|0:0,0:0:0:0:
362,156,49251,5,0,1:0:0:0:
362,156,49488,2,0,P|375:222|377:248,1,64.5999937450411,2|10,1:2|0:2,0:0:0:0:
324,259,49960,1,2,1:2:0:0:
351,317,50196,2,0,P|386:326|431:346,2,64.5999937450411,2|4|8,1:2|1:3|0:0,0:0:0:0:
215,301,51141,6,0,P|188:260|198:216,1,67.9999952316285,4|0,1:2|0:0,0:0:0:0:
136,201,51614,2,0,P|153:156|195:138,1,67.9999952316285,4|2,1:2|0:2,0:0:0:0:
230,116,52086,2,0,P|175:95|163:-2,1,135.999990463257,4|8,1:2|0:0,0:0:0:0:
53,120,53031,6,0,P|9:138|-5:180,1,67.9999952316285,0|2,1:0|0:2,0:0:0:0:
25,213,53503,2,0,P|32:273|41:328,1,101.999992847443,8|2,0:0|1:2,0:0:0:0:
139,296,54212,2,0,P|179:310|202:325,2,67.9999952316285,2|10|2,1:2|0:2|1:2,0:0:0:0:
130,228,54921,5,2,1:2:0:0:
175,99,55393,1,2,1:2:0:0:
61,24,55866,1,2,1:2:0:0:
7,314,56810,6,0,P|48:311|80:290,1,74.7999970375061,4|2,1:2|0:2,0:0:0:0:
152,321,57283,1,10,0:2:0:0:
210,265,57519,2,0,P|251:262|283:241,1,74.7999970375061,2|2,0:2|1:2,0:0:0:0:
353,278,57992,1,2,1:2:0:0:
408,219,58228,2,0,P|420:173|428:137,1,74.7999970375061,10|2,0:2|0:2,0:0:0:0:
505,130,58700,2,0,P|521:64|393:4,1,224.399991112518,2|4,1:2|0:3,0:0:0:0:
338,47,59645,1,2,1:2:0:0:
196,131,60118,2,0,B|131:118|156:91|67:85,1,112.199995556259,10|0,0:2|0:0,0:0:0:0:
52,86,60590,6,0,P|40:54|20:12,2,74.7999970375061,2|2|10,1:2|0:2|0:2,0:0:0:0:
6,153,61299,1,2,0:2:0:0:
52,219,61535,2,0,P|34:277|28:325,2,74.7999970375061,2|2|10,1:2|0:2|0:2,0:0:0:0:
125,185,62243,1,2,0:2:0:0:
132,105,62480,2,0,P|207:109|252:168,1,149.599994075012,2|10,1:2|0:2,0:0:0:0:
301,226,63188,1,2,0:2:0:0:
247,285,63425,2,0,P|172:289|127:348,1,149.599994075012,2|10,1:2|0:0,0:0:0:0:
43,203,64369,6,0,P|43:165|69:138,1,74.7999970375061,4|2,1:2|0:2,0:0:0:0:
142,169,64842,1,8,0:0:0:0:
219,192,65078,2,0,P|257:192|284:166,1,74.7999970375061,2|2,0:2|1:2,0:0:0:0:
253,93,65551,1,2,0:2:0:0:
222,19,65787,2,0,P|262:12|307:6,1,74.7999970375061,10|2,0:2|0:2,0:0:0:0:
376,0,66259,2,0,P|449:18|454:173,1,224.399991112518,2|4,1:2|0:3,0:0:0:0:
406,193,67204,1,2,1:2:0:0:
506,322,67677,2,0,B|483:378|406:337|405:410,1,112.199995556259,10|0,0:2|0:0,0:0:0:0:
372,379,68149,6,0,P|337:362|282:350,1,74.7999970375061,2|2,1:2|0:2,0:0:0:0:
225,375,68621,1,10,0:2:0:0:
164,327,68858,1,2,0:2:0:0:
164,327,69094,2,0,P|156:247|150:221,1,74.7999970375061,2|2,1:2|1:2,0:0:0:0:
227,213,69566,2,0,P|235:133|241:107,1,74.7999970375061,10|2,0:2|0:2,0:0:0:0:
220,59,70039,2,0,P|263:97|373:72,2,149.599994075012,6|10|10,1:2|0:0|1:2,0:0:0:0:
374,0,71456,1,10,0:2:0:0:
496,110,71929,6,0,P|458:116|423:153,1,74.7999970375061,4|2,1:2|0:2,0:0:0:0:
354,114,72401,1,10,0:2:0:0:
296,170,72637,2,0,P|258:176|223:213,1,74.7999970375061,2|2,0:2|1:2,0:0:0:0:
152,180,73109,1,2,1:2:0:0:
98,240,73346,2,0,P|52:220|18:207,1,74.7999970375061,10|2,0:2|0:2,0:0:0:0:
42,132,73818,2,0,P|-18:219|37:308,1,224.399991112518,4|4,1:2|0:3,0:0:0:0:
117,324,74763,1,2,1:2:0:0:
271,280,75236,2,0,P|337:307|405:341,1,112.199995556259,10|0,0:2|0:0,0:0:0:0:
406,349,75708,6,0,P|421:307|441:272,1,74.7999970375061,2|2,1:2|0:2,0:0:0:0:
497,231,76180,1,10,0:2:0:0:
465,157,76417,2,0,P|430:142|398:115,1,74.7999970375061,2|2,0:2|1:2,0:0:0:0:
329,85,76889,2,0,P|294:100|262:127,1,74.7999970375061,2|10,0:2|0:2,0:0:0:0:
224,192,77362,2,0,P|226:112|210:17,1,149.599994075012,2|2,0:2|0:2,0:0:0:0:
145,6,78070,1,10,0:2:0:0:
72,39,78306,1,2,0:2:0:0:
40,113,78543,2,0,P|63:156|73:189,2,74.7999970375061,2|0|10,1:2|0:0|0:2,0:0:0:0:
189,119,79488,6,0,P|181:176|172:267,1,135.999990463257,2|2,1:2|1:2,0:0:0:0:
127,304,80196,1,2,0:2:0:0:
127,304,80432,2,0,P|166:323|196:343,1,67.9999952316285,2|2,1:2|0:2,0:0:0:0:
238,380,80905,2,0,P|268:361|299:347,1,67.9999952316285,2|0,1:2|0:0,0:0:0:0:
330,287,81377,2,0,P|379:294|434:364,2,135.999990463257,2|2|2,1:2|1:2|1:2,0:0:0:0:
455,232,82795,1,2,1:2:0:0:
421,100,83267,5,2,0:2:0:0:
404,78,84212,5,2,0:0:0:0:
421,56,85157,5,2,0:0:0:0:
