osu file format v14

[General]
AudioFilename: audio.mp3
AudioLeadIn: 0
PreviewTime: 56692
Countdown: 0
SampleSet: Soft
StackLeniency: 0.3
Mode: 0
LetterboxInBreaks: 0
WidescreenStoryboard: 1

[Editor]
Bookmarks: 118,7677,15236,26574,41692,56810,71929,79488,83267
DistanceSpacing: 0.4
BeatDivisor: 8
GridSize: 32
TimelineZoom: 1.7

[Metadata]
Title:Kokorone (TV Size)
TitleUnicode:ココロネ (TV Size)
Artist:Kitri
ArtistUnicode:Kitri
Creator:Sagu
Version:Insane
Source:事情を知らない転校生がグイグイくる。
Tags:japanese pop j-pop jpop anime ending ed my clueless first friend the transfer student is assertive jijyou o Jijou wo Shiranai Tenkousei ga Guigui Kuru. Mona Hina 網守将平 Shohei AMIMORI CENSOLED Sayama Kaede Suzuaki_Rin __Ag
BeatmapID:4337846
BeatmapSetID:2063646

[Difficulty]
HPDrainRate:5
CircleSize:4
OverallDifficulty:7.8
ApproachRate:9
SliderMultiplier:2.99999990463257
SliderTickRate:1

[Events]
//Background and Video events
0,0,"bg.jpg",0,0
//Break Periods
//Storyboard Layer 0 (Background)
//Storyboard Layer 1 (Fail)
//Storyboard Layer 2 (Pass)
//Storyboard Layer 3 (Foreground)
//Storyboard Layer 4 (Overlay)
//Storyboard Sound Samples

[TimingPoints]
118,472.44094488189,4,2,1,50,1,0
118,-200,4,2,1,50,0,0
7677,-166.666666666667,4,2,1,50,0,0
14763,-100,4,2,1,65,0,0
21377,-125,4,2,1,65,0,0
22795,-100,4,2,1,65,0,0
25393,-83.3333333333333,4,2,1,65,0,0
25866,-90.9090909090909,4,2,1,65,0,0
26102,-111.111111111111,4,2,1,65,0,0
27755,-111.111111111111,4,2,1,62,0,0
41692,-125,4,2,1,50,0,0
43110,-111.111111111111,4,2,1,50,0,0
43818,-125,4,2,1,50,0,0
46417,-111.111111111111,4,2,1,50,0,0
47362,-125,4,2,1,50,0,0
48779,-111.111111111111,4,2,1,50,0,0
49488,-125,4,2,1,50,0,0
50432,-111.111111111111,4,2,1,50,0,0
51141,-111.111111111111,4,2,1,60,0,0
51614,-99.9999999999999,4,2,1,60,0,0
52086,-125,4,2,1,60,0,0
53031,-111.111111111111,4,2,1,60,0,0
56810,-90.9090909090908,4,2,1,70,0,0
62952,-100,4,2,1,70,0,0
63306,-166.666666666666,4,2,1,70,0,0
63897,-111.111111111111,4,2,1,70,0,0
64369,-90.9090909090908,4,2,1,70,0,0
71929,-83.3333333333333,4,2,1,70,0,0
78661,-90.9090909090909,4,2,1,70,0,0
79251,-100,4,2,1,70,0,0
79488,-100,4,2,1,65,0,0
81850,-100,4,2,1,55,0,0

[Colours]
Combo1 : 244,181,244
Combo2 : 181,213,244
Combo3 : 170,170,255
Combo4 : 248,177,213

[HitObjects]
237,336,118,6,0,P|238:301|213:254,1,74.9999976158143,2|2,0:0|0:0,0:0:0:0:
156,197,472,1,2,0:0:0:0:
156,207,590,2,0,P|205:220|239:227,1,74.9999976158143,2|0,0:0|0:0,0:0:0:0:
261,204,944,1,2,0:0:0:0:
373,57,1299,6,0,P|392:52|410:46,1,37.4999988079071,2|0,0:0|0:0,0:0:0:0:
466,0,1535,2,0,P|439:18|440:65,1,74.9999976158143,2|2,0:0|0:0,0:0:0:0:
498,135,2007,6,0,P|491:162|484:210,1,74.9999976158143,0|2,0:0|0:0,0:0:0:0:
418,249,2362,2,0,P|412:286|404:322,1,74.9999976158143
384,341,2716,1,2,0:0:0:0:
428,330,2834,1,0,0:0:0:0:
463,365,2952,1,0,0:0:0:0:
368,159,3306,5,2,0:0:0:0:
348,161,3425,2,0,P|323:153|305:147,1,37.4999988079071,2|0,0:0|0:0,0:0:0:0:
237,134,3661,2,0,P|249:110|297:111,1,74.9999976158143,2|2,0:0|0:0,0:0:0:0:
259,244,4133,5,0,0:0:0:0:
247,259,4251,2,0,P|248:290|253:337,1,74.9999976158143,2|0,0:0|0:0,0:0:0:0:
268,368,4606,2,0,P|246:346|195:350,1,74.9999976158143,2|2,0:0|0:0,0:0:0:0:
72,324,5078,2,0,P|43:329|-3:343,2,74.9999976158143,2|2|0,0:0|0:0|0:0,0:0:0:0:
157,365,5787,6,0,P|162:334|174:288,1,74.9999976158143,2|0,0:0|0:0,0:0:0:0:
123,233,6141,2,0,P|132:196|138:159,1,74.9999976158143
151,137,6495,1,2,0:0:0:0:
172,89,6614,1,0,0:0:0:0:
135,52,6732,1,0,0:0:0:0:
17,207,7086,5,2,0:0:0:0:
20,218,7204,2,0,P|49:228|63:224,1,37.4999988079071
135,211,7440,2,0,P|106:201|92:205,1,37.4999988079071,2|0,0:0|0:0,0:0:0:0:
79,308,7677,6,0,B|101:348|133:321|169:342,1,89.9999943923952,2|2,0:0|0:0,0:0:0:0:
209,362,8031,1,2,0:0:0:0:
196,367,8149,2,0,P|178:337|192:286,1,89.9999943923952,2|0,0:0|0:0,0:0:0:0:
226,260,8503,1,2,0:0:0:0:
221,213,8621,1,0,0:0:0:0:
275,134,8858,5,2,0:0:0:0:
234,65,9094,1,2,0:0:0:0:
156,79,9330,2,0,P|134:46|163:4,1,89.9999943923952,2|0,0:0|0:0,0:0:0:0:
349,97,9803,6,0,P|379:91|399:88,1,44.9999971961976,2|0,0:0|0:0,0:0:0:0:
430,56,10039,2,0,P|424:87|472:114,1,89.9999943923952,2|0,0:0|0:0,0:0:0:0:
499,134,10393,1,0,0:0:0:0:
494,161,10511,1,2,0:0:0:0:
406,296,10866,5,0,0:0:0:0:
395,313,10984,2,0,P|362:302|334:297,1,44.9999971961976
270,340,11220,5,2,0:0:0:0:
299,353,11338,1,0,0:0:0:0:
319,329,11456,2,0,P|315:291|296:240,1,89.9999943923952,2|0,0:0|0:0,0:0:0:0:
303,227,11810,1,2,0:0:0:0:
309,139,12165,5,2,0:0:0:0:
270,140,12283,1,2,0:0:0:0:
253,100,12401,2,0,P|257:67|274:11,1,89.9999943923952
266,1,12755,5,2,0:0:0:0:
256,3,12873,2,0,P|220:2|204:-3,1,44.9999971961976
150,51,13110,2,0,P|112:57|46:87,1,89.9999943923952,2|2,0:0|0:0,0:0:0:0:
64,75,14645,6,0,L|61:47,1,22.4999985980988,0|0,1:0|1:0,0:0:0:0:
63,90,14763,2,0,P|53:148|193:149,1,224.999992847443,8|0,0:0|0:0,0:0:0:0:
203,91,15236,6,0,B|209:169|237:152|233:257,1,149.999995231629,4|0,1:2|1:0,0:0:0:0:
246,258,15590,2,0,P|211:258|178:283,1,74.9999976158143,10|0,0:0|0:0,0:0:0:0:
32,320,15826,1,2,1:2:0:0:
74,298,15944,2,0,P|116:300|183:389,1,149.999995231629,10|0,0:2|0:0,0:0:0:0:
409,268,16417,6,0,P|429:237|432:191,1,74.9999976158143,2|0,1:2|0:0,0:0:0:0:
512,271,16653,1,10,0:2:0:0:
488,318,16771,1,0,0:0:0:0:
458,326,16889,2,0,P|380:311|306:241,1,149.999995231629,2|2,0:2|1:2,0:0:0:0:
481,80,17362,5,2,1:2:0:0:
421,29,17480,2,0,P|366:40|361:131,1,149.999995231629,10|2,0:2|1:2,0:0:0:0:
435,153,17834,1,8,0:0:0:0:
419,161,17952,2,0,B|334:160|361:123|234:132,1,149.999995231629,2|0,1:2|1:0,0:0:0:0:
199,154,18306,5,2,1:2:0:0:
198,202,18425,1,2,0:2:0:0:
237,212,18543,2,0,P|230:96|206:52,1,149.999995231629,8|2,0:0|1:2,0:0:0:0:
1,12,19015,6,0,B|8:62|94:66|144:22,1,149.999995231629,2|2,1:2|1:2,0:0:0:0:
148,14,19370,1,10,0:2:0:0:
142,1,19488,1,2,1:2:0:0:
51,109,19724,5,10,0:2:0:0:
59,98,19842,2,0,P|107:175|106:243,1,149.999995231629,2|2,1:2|0:2,0:0:0:0:
93,227,20196,2,0,P|64:237|31:269,1,74.9999976158143,2|0,1:2|0:0,0:0:0:0:
32,287,20432,5,10,0:2:0:0:
72,317,20550,1,2,0:2:0:0:
64,369,20669,1,2,1:2:0:0:
162,277,20905,5,2,1:2:0:0:
231,259,21023,1,2,0:2:0:0:
289,302,21141,5,2,1:2:0:0:
325,304,21259,1,10,0:2:0:0:
349,325,21377,6,0,L|357:388,1,59.9999980926514,2|2,1:2|0:2,0:0:0:0:
400,261,21614,2,0,L|392:324,1,59.9999980926514,10|2,0:2|1:2,0:0:0:0:
363,192,21850,5,2,1:2:0:0:
364,177,21968,1,2,0:2:0:0:
366,162,22086,1,2,1:2:0:0:
368,147,22204,1,2,0:2:0:0:
361,119,22322,5,10,0:2:0:0:
289,151,22440,2,0,P|222:137|210:76,1,119.999996185303,2|0,1:2|0:0,0:0:0:0:
231,17,22795,6,0,P|234:82|235:186,1,149.999995231629,2|2,1:2|1:2,0:0:0:0:
216,175,23149,2,0,P|165:196|153:231,1,74.9999976158143,10|0,0:2|0:0,0:0:0:0:
366,338,23503,5,8,0:0:0:0:
350,308,23621,2,0,P|297:273|210:286,1,149.999995231629,2|2,1:2|1:2,0:0:0:0:
193,327,23976,2,0,B|163:252|114:299|84:216,2,149.999995231629,2|10|2,1:2|0:2|1:2,0:0:0:0:
138,163,24684,5,2,1:2:0:0:
142,128,24803,1,2,0:2:0:0:
96,131,24921,5,2,1:2:0:0:
90,101,25039,2,0,P|74:67|74:29,1,74.9999976158143,10|0,0:2|0:0,0:0:0:0:
217,75,25275,5,4,0:3:0:0:
153,26,25393,2,0,P|70:62|5:133,1,179.99998878479,4|8,0:2|0:3,0:0:0:0:
226,93,25866,6,0,P|270:101|285:139,1,82.4999998950959,8|8,0:3|0:3,0:0:0:0:
242,208,26102,2,0,B|216:91|293:150|265:0,1,202.499987382889,4|4,0:3|0:3,0:0:0:0:
263,2,26574,5,4,1:2:0:0:
236,216,27755,5,2,1:2:0:0:
286,289,28228,5,2,1:2:0:0:
217,348,28700,6,0,P|179:331|149:330,1,67.4999957942964,2|0,1:2|0:0,0:0:0:0:
85,364,28936,2,0,P|167:356|269:289,1,202.499987382889,12|0,0:0|0:0,0:0:0:0:
277,283,29409,1,0,1:0:0:0:
344,333,29645,5,0,1:0:0:0:
487,372,29881,2,0,P|433:344|355:336,1,134.999991588593,8|0,0:0|0:0,0:0:0:0:
272,367,30236,5,2,1:2:0:0:
253,372,30354,2,0,P|194:321|217:250,1,134.999991588593,2|2,1:2|0:2,0:0:0:0:
220,255,30708,2,0,P|206:230|163:217,1,67.4999957942964,2|8,1:2|0:0,0:0:0:0:
116,287,30944,5,2,1:2:0:0:
109,276,31062,2,0,P|71:266|36:262,2,67.4999957942964,2|0|2,1:2|0:0|1:2,0:0:0:0:
153,140,31535,1,2,1:2:0:0:
140,0,31771,5,10,0:2:0:0:
116,26,31889,1,2,0:2:0:0:
124,55,32007,2,0,P|114:121|55:215,1,134.999991588593,2|2,1:2|1:2,0:0:0:0:
237,98,32598,5,2,1:2:0:0:
253,111,32716,2,0,P|279:112|322:94,1,67.4999957942964,10|0,0:2|0:0,0:0:0:0:
360,23,32952,2,0,P|348:66|342:102,2,67.4999957942964,0|0|0,1:0|0:0|1:0,0:0:0:0:
412,134,33425,6,0,P|417:156|424:178,2,44.9999971961976,0|0|0,1:0|1:0|1:0,0:0:0:0:
424,119,33661,1,8,0:0:0:0:
473,111,33779,1,8,0:0:0:0:
504,146,33897,1,0,1:0:0:0:
468,256,34133,6,0,P|399:225|317:223,1,134.999991588593,4|2,1:2|0:2,0:0:0:0:
241,295,34488,1,2,1:2:0:0:
257,300,34606,2,0,P|309:261|291:182,1,134.999991588593,10|0,0:2|1:2,0:0:0:0:
294,160,34960,1,2,1:2:0:0:
278,156,35078,6,0,P|260:172|250:219,1,67.4999957942964,0|0,1:2|1:2,0:0:0:0:
353,338,35314,2,0,P|372:324|420:322,1,67.4999957942964,2|2,1:2|1:2,0:0:0:0:
440,331,35551,1,10,0:2:0:0:
215,366,35787,6,0,L|201:166,1,134.999991588593,4|0,1:2|0:0,0:0:0:0:
262,67,36259,6,0,L|266:0,1,67.4999957942964,2|0,1:2|0:0,0:0:0:0:
277,31,36495,2,0,L|267:165,1,134.999991588593,12|0,0:0|0:0,0:0:0:0:
296,192,36850,1,0,1:0:0:0:
369,69,37086,5,0,0:0:0:0:
379,84,37204,2,0,P|464:88|480:32,1,134.999991588593,0|8,1:0|0:0,0:0:0:0:
446,228,37677,5,2,1:2:0:0:
429,220,37795,1,2,0:2:0:0:
376,200,37913,2,0,P|321:223|229:290,1,134.999991588593,2|2,1:2|0:2,0:0:0:0:
244,272,38267,2,0,P|211:252|211:199,1,67.4999957942964,2|8,1:2|0:0,0:0:0:0:
113,113,38621,6,0,P|146:93|146:40,1,67.4999957942964,2|2,1:2|1:2,0:0:0:0:
100,8,38858,2,0,P|108:86|162:181,1,134.999991588593,0|2,0:0|1:2,0:0:0:0:
114,184,39212,1,2,0:2:0:0:
130,203,39330,1,10,0:2:0:0:
98,335,39566,6,0,P|64:327|31:321,1,67.4999957942964,2|0,1:2|0:0,0:0:0:0:
127,303,39803,2,0,B|48:304|76:337|-17:344,2,134.999991588593,2|2|10,1:2|1:2|0:2,0:0:0:0:
220,344,40511,5,2,0:2:0:0:
236,339,40629,1,2,1:2:0:0:
253,350,40747,1,2,1:2:0:0:
328,297,40984,1,2,1:2:0:0:
419,337,41220,5,8,0:0:0:0:
443,331,41338,1,0,1:0:0:0:
472,308,41456,1,8,0:3:0:0:
486,258,41574,1,4,0:3:0:0:
458,185,41692,1,4,1:2:0:0:
407,102,41929,5,2,1:2:0:0:
390,110,42047,2,0,P|380:46|441:30,1,119.999996185303,10|8,0:2|0:0,0:0:0:0:
452,46,42401,2,0,P|480:52|518:50,2,59.9999980926514,2|0|8,1:2|0:0|0:3,0:0:0:0:
349,0,42873,1,0,1:0:0:0:
258,43,43110,2,0,B|196:89|204:47|112:101,1,134.999991588593,10|2,0:2|1:2,0:0:0:0:
155,119,43464,2,0,P|161:83|164:39,1,67.4999957942964,0|0,1:0|1:0,0:0:0:0:
333,224,43818,6,0,P|327:260|324:304,1,59.9999980926514,2|0,1:2|0:0,0:0:0:0:
364,268,44055,5,8,0:3:0:0:
294,259,44173,1,8,0:3:0:0:
251,297,44291,1,4,0:3:0:0:
246,335,44409,1,4,0:3:0:0:
250,352,44527,2,0,P|182:332|156:329,1,59.9999980926514,2|0,1:2|0:0,0:0:0:0:
113,353,44763,2,0,P|166:306|147:233,1,119.999996185303,2|10,1:2|0:2,0:0:0:0:
33,308,45236,6,0,P|16:334|30:365,1,59.9999980926514,2|0,1:2|0:0,0:0:0:0:
35,364,45472,1,0,1:2:0:0:
86,179,45708,6,0,P|81:149|72:121,2,59.9999980926514,2|2|2,1:2|0:2|1:2,0:0:0:0:
42,34,46062,1,8,0:3:0:0:
55,26,46180,2,0,P|99:26|110:67,1,59.9999980926514,4|0,0:3|1:0,0:0:0:0:
130,71,46417,6,0,P|62:73|0:97,2,134.999991588593,2|2|10,1:2|1:2|0:2,0:0:0:0:
211,107,47125,1,2,0:2:0:0:
271,29,47362,6,0,P|255:71|304:139,1,119.999996185303,2|0,1:2|0:0,0:0:0:0:
338,96,47716,1,2,1:2:0:0:
330,105,47834,2,0,P|317:147|306:186,1,59.9999980926514,8|8,0:0|0:3,0:0:0:0:
359,233,48070,5,4,0:3:0:0:
359,250,48188,1,4,0:3:0:0:
326,274,48306,1,0,1:0:0:0:
280,266,48425,1,0,1:0:0:0:
269,281,48543,2,0,P|282:323|293:362,1,59.9999980926514,2|0,0:2|0:0,0:0:0:0:
366,366,48779,5,8,0:0:0:0:
386,371,48897,1,8,0:3:0:0:
418,371,49015,1,4,0:3:0:0:
467,350,49133,1,4,0:3:0:0:
512,287,49251,1,0,1:0:0:0:
480,193,49488,6,0,P|421:186|348:124,1,119.999996185303,2|10,1:2|0:2,0:0:0:0:
365,117,49842,2,0,P|344:128|342:177,2,59.9999980926514,2|2|0,1:2|1:2|0:0,0:0:0:0:
312,242,50196,5,2,1:2:0:0:
254,227,50314,1,2,0:2:0:0:
223,242,50432,2,0,B|147:268|195:297|107:327,1,134.999991588593,2|10,1:2|0:2,0:0:0:0:
2,309,50905,5,2,0:2:0:0:
6,301,51023,1,0,1:0:0:0:
15,294,51141,2,0,P|86:306|88:374,1,134.999991588593,4|0,1:2|0:0,0:0:0:0:
112,227,51495,5,2,1:2:0:0:
145,208,51614,2,0,P|197:205|264:280,1,149.999995231629,4|2,1:2|0:2,0:0:0:0:
245,140,51968,5,2,1:2:0:0:
296,116,52086,2,0,P|384:123|491:239,1,239.999992370606,4|8,1:2|0:0,0:0:0:0:
487,187,52677,2,0,P|477:216|470:245,1,59.9999980926514,0|0,1:0|1:0,0:0:0:0:
363,158,53031,5,0,1:0:0:0:
383,141,53149,1,0,1:0:0:0:
414,142,53267,2,0,P|424:108|434:75,1,67.4999957942964,2|0,0:2|0:0,0:0:0:0:
512,64,53503,2,0,P|456:60|410:-10,1,134.999991588593,8|2,0:0|1:2,0:0:0:0:
388,2,53858,2,0,P|350:11|334:57,1,67.4999957942964,2|0,1:2|0:0,0:0:0:0:
229,133,54212,6,0,B|219:58|247:75|233:-4,1,134.999991588593,2|10,1:2|0:2,0:0:0:0:
101,59,54684,1,2,1:2:0:0:
141,96,54803,1,0,1:0:0:0:
193,72,54921,6,0,P|227:97|234:193,1,134.999991588593,2|0,1:2|0:0,0:0:0:0:
133,272,55275,2,0,P|137:230|217:175,1,134.999991588593,0|0,1:0|0:0,0:0:0:0:
337,224,55629,2,0,P|298:240|211:199,1,134.999991588593,0|10,1:0|0:2,0:0:0:0:
256,192,55925,12,0,56692,0:0:0:0:
216,206,56810,6,0,P|223:261|228:310,1,82.4999998950959,4|0,1:2|0:0,0:0:0:0:
103,373,57047,1,2,0:2:0:0:
95,346,57165,1,0,1:0:0:0:
137,280,57283,2,0,B|245:296|189:339|299:353,1,164.999999790192,10|2,0:2|0:2,0:0:0:0:
467,295,57637,5,0,0:0:0:0:
425,320,57755,2,0,P|380:290|381:246,1,82.4999998950959,2|2,1:2|0:2,0:0:0:0:
429,186,57992,2,0,P|438:138|448:98,1,82.4999998950959,2|0,1:2|0:0,0:0:0:0:
505,210,58228,2,0,P|449:211|317:265,1,164.999999790192,10|2,0:2|0:2,0:0:0:0:
219,276,58582,5,0,0:0:0:0:
273,217,58700,2,0,P|352:230|361:388,1,247.499999685288,2|0,1:2|0:0,0:0:0:0:
303,310,59173,5,8,0:0:0:0:
240,351,59291,1,8,0:3:0:0:
193,334,59409,1,4,0:3:0:0:
166,351,59527,1,4,0:3:0:0:
158,370,59645,6,0,L|148:318,1,41.2499999475479,2|0,1:2|0:0,0:0:0:0:
112,67,59999,5,2,0:2:0:0:
106,60,60118,2,0,B|93:39|69:52|79:16|162:11|218:19|214:172|148:125|155:116|121:127|118:190,1,247.499999685288,10|0,0:2|0:0,0:0:0:0:
123,204,60590,6,0,P|59:197|22:296,1,164.999999790192,2|2,1:2|0:2,0:0:0:0:
75,373,60944,1,0,1:0:0:0:
81,351,61062,2,0,P|65:274|30:192,1,164.999999790192,10|2,0:2|0:2,0:0:0:0:
146,284,61417,5,2,0:2:0:0:
216,318,61535,2,0,B|271:308|241:292|312:288,1,82.4999998950959,2|0,1:2|0:0,0:0:0:0:
345,313,61771,2,0,P|313:249|328:225,1,82.4999998950959,2|0,0:2|1:0,0:0:0:0:
405,235,62007,2,0,P|325:214|250:179,1,164.999999790192,10|2,0:2|0:2,0:0:0:0:
279,10,62362,5,2,0:2:0:0:
355,38,62480,2,0,P|385:72|329:169,1,164.999999790192,2|0,1:2|0:0,0:0:0:0:
118,110,62834,5,0,1:0:0:0:
169,109,62952,2,0,P|199:139|205:246,1,149.999995231629,10|2,0:2|0:2,0:0:0:0:
89,253,63306,5,2,0:2:0:0:
102,278,63425,2,0,P|69:332|10:372,1,134.999991588593,2|2,1:2|0:2,0:0:0:0:
10,371,63897,6,0,P|44:375|78:385,2,67.4999957942964,10|8|4,0:0|0:3|0:3,0:0:0:0:
288,268,64369,6,0,P|322:275|370:281,1,82.4999998950959,4|0,1:2|0:0,0:0:0:0:
483,348,64606,1,2,0:2:0:0:
460,384,64724,1,0,1:0:0:0:
384,359,64842,2,0,B|373:276|401:296|390:165,1,164.999999790192,8|2,0:0|0:2,0:0:0:0:
379,88,65196,5,0,0:0:0:0:
422,109,65314,2,0,P|458:115|505:122,1,82.4999998950959,2|2,1:2|0:2,0:0:0:0:
300,112,65551,2,0,P|262:87|261:52,1,82.4999998950959,2|0,0:2|0:0,0:0:0:0:
343,19,65787,2,0,P|344:106|323:218,1,164.999999790192,10|2,0:2|0:2,0:0:0:0:
255,238,66141,5,0,0:0:0:0:
189,196,66259,2,0,B|114:180|47:224|27:285|38:333|73:318|75:297|73:263,1,247.499999685288,2|0,1:2|0:0,0:0:0:0:
106,185,66732,5,10,0:0:0:0:
123,114,66850,1,8,0:3:0:0:
67,83,66968,1,4,0:3:0:0:
44,60,67086,1,4,0:3:0:0:
33,66,67204,6,0,L|-8:60,1,41.2499999475479,2|0,1:2|0:0,0:0:0:0:
210,0,67558,5,2,0:2:0:0:
211,15,67677,2,0,B|216:104|330:50|319:225,1,247.499999685288,10|0,0:2|0:0,0:0:0:0:
297,217,68149,6,0,P|317:161|336:130,1,82.4999998950959,2|0,1:2|0:0,0:0:0:0:
448,170,68385,1,2,0:2:0:0:
462,216,68503,1,2,1:2:0:0:
394,251,68621,2,0,P|357:251|225:312,1,164.999999790192,10|2,0:2|0:2,0:0:0:0:
170,356,68976,5,2,0:2:0:0:
175,371,69094,1,2,1:2:0:0:
239,377,69212,1,0,1:0:0:0:
265,321,69330,2,0,P|251:283|206:273,1,82.4999998950959,2|0,1:2|0:0,0:0:0:0:
79,384,69566,6,0,B|81:285|101:343|92:210,1,164.999999790192,10|2,0:2|0:2,0:0:0:0:
93,212,69921,1,2,0:2:0:0:
39,287,70039,6,0,P|75:290|112:325,1,82.4999998950959,6|0,1:2|0:0,0:0:0:0:
159,174,70275,6,0,P|155:157|141:138,4,41.2499999475479,2|0|0|0|10,3:2|3:0|3:0|3:0|0:0,0:0:0:0:
245,201,70629,6,0,P|268:169|257:48,1,164.999999790192,8|0,0:3|0:0,0:0:0:0:
174,44,70984,5,10,1:2:0:0:
188,83,71102,1,8,0:0:0:0:
234,100,71220,1,8,0:0:0:0:
294,85,71338,1,8,0:0:0:0:
353,31,71456,6,0,P|380:40|435:54,1,82.4999998950959,10|8,0:2|0:0,0:0:0:0:
512,54,71692,2,0,P|485:45|430:31,1,82.4999998950959,8|8,0:0|0:0,0:0:0:0:
471,238,71929,6,0,P|500:191|492:161,1,89.9999943923952,4|0,1:2|0:0,0:0:0:0:
355,133,72165,1,2,0:2:0:0:
308,169,72283,1,2,1:2:0:0:
346,237,72401,2,0,B|456:245|392:272|524:299,1,179.99998878479,10|2,0:2|0:2,0:0:0:0:
304,322,72755,5,0,0:0:0:0:
277,322,72873,2,0,P|248:275|256:245,1,89.9999943923952,2|0,1:2|1:0,0:0:0:0:
423,315,73110,2,0,P|461:310|533:301,1,89.9999943923952,2|2,1:2|0:2,0:0:0:0:
356,381,73346,2,0,B|246:373|310:346|178:319,1,179.99998878479,10|2,0:2|0:2,0:0:0:0:
21,330,73700,5,0,0:0:0:0:
91,369,73818,2,0,P|177:316|177:151,1,269.999983177186,4|0,1:2|0:0,0:0:0:0:
162,152,74291,5,10,0:2:0:0:
141,107,74409,1,8,0:3:0:0:
176,52,74527,1,4,0:3:0:0:
247,33,74645,1,4,0:3:0:0:
331,58,74763,6,0,P|339:35|345:11,1,44.9999971961976,2|0,1:2|0:0,0:0:0:0:
0,76,75118,5,2,0:2:0:0:
71,50,75236,2,0,P|230:78|344:174,1,314.999980373383,10|0,0:2|0:0,0:0:0:0:
344,215,75708,6,0,P|383:189|378:136,1,89.9999943923952,2|0,1:2|0:0,0:0:0:0:
267,118,75944,5,2,0:2:0:0:
221,180,76062,1,2,1:2:0:0:
264,223,76180,2,0,B|267:267|252:244|257:315,1,89.9999943923952,10|0,0:2|0:0,0:0:0:0:
316,383,76417,2,0,B|326:348|269:343|221:359|193:395,1,134.999991588593,2|0,0:2|0:2,0:0:0:0:
196,380,76653,2,0,B|175:387|150:382|122:340,1,89.9999943923952,2|0,1:2|0:0,0:0:0:0:
0,171,76889,5,2,0:2:0:0:
75,147,77007,1,2,0:2:0:0:
114,178,77125,2,0,B|128:194|116:237|82:270,1,89.9999943923952,10|0,0:2|0:0,0:0:0:0:
15,307,77362,6,0,B|-14:275|60:254|170:280|248:372,1,269.999983177186,2|0,0:2|0:0,0:0:0:0:
421,292,77834,5,2,0:2:0:0:
367,233,77952,1,2,0:2:0:0:
320,223,78070,2,0,P|290:231|274:292,1,89.9999943923952,10|0,0:2|0:0,0:0:0:0:
289,295,78306,2,0,P|274:240|234:129,1,134.999991588593,2|0,0:2|0:0,0:0:0:0:
221,157,78543,5,2,1:2:0:0:
194,166,78661,2,0,P|172:187|188:248,1,82.4999998950959,0|0,1:0|0:0,0:0:0:0:
101,127,78897,5,2,1:2:0:0:
96,122,79015,1,10,0:2:0:0:
87,119,79133,1,2,0:2:0:0:
76,122,79251,2,0,P|67:151|112:196,1,74.9999976158143,2|0,0:2|0:0,0:0:0:0:
163,40,79488,5,2,1:2:0:0:
215,30,79606,1,2,0:2:0:0:
235,34,79724,1,2,0:2:0:0:
280,24,79842,1,2,0:2:0:0:
318,45,79960,6,0,B|399:7|382:56|467:25,1,149.999995231629,2|2,1:2|0:2,0:0:0:0:
453,184,80314,5,2,0:2:0:0:
425,175,80432,2,0,P|399:149|399:108,1,74.9999976158143,2|2,1:2|0:2,0:0:0:0:
498,97,80669,2,0,P|424:143|384:227,2,149.999995231629,2|2|0,0:2|1:2|0:0,0:0:0:0:
298,181,81377,6,0,B|347:157|379:221|325:279,1,149.999995231629,2|0,1:2|0:0,0:0:0:0:
255,251,81732,1,2,0:2:0:0:
238,244,81850,2,0,B|183:245|185:317|260:343,1,149.999995231629,2|0,1:2|0:0,0:0:0:0:
407,340,82322,6,0,B|385:326|382:356|414:370|435:367|453:319|430:234,1,149.999995231629,2|2,1:2|0:2,0:0:0:0:
442,259,82677,1,0,0:0:0:0:
448,267,82795,2,0,B|465:299|487:292|515:312,2,74.9999976158143,2|0|2,1:2|0:0|0:2,0:0:0:0:
184,319,83267,5,2,0:2:0:0:
157,304,84212,5,2,0:0:0:0:
116,311,85157,5,2,0:0:0:0:
