osu file format v14

[General]
AudioFilename: audio.mp3
AudioLeadIn: 0
PreviewTime: 49050
Countdown: 0
SampleSet: Soft
StackLeniency: 0.7
Mode: 3
LetterboxInBreaks: 0
SpecialStyle: 0
WidescreenStoryboard: 0

[Editor]
DistanceSpacing: 1.5
BeatDivisor: 8
GridSize: 4
TimelineZoom: 1.5

[Metadata]
Title:Hikare Inochi (TV Size)
TitleUnicode:ヒカレイノチ (TV Size)
Artist:Kitri
ArtistUnicode:Kitri
Creator:Crisper
Version:First Words
Source:古見さんは、コミュ症です。
Tags:japanese pop jpop j-pop anime ed ending komi-san wa komyushō komyushou desu can't communicate cant komi shoko 古見硝子 キトリ
BeatmapID:3492115
BeatmapSetID:1696523

[Difficulty]
HPDrainRate:8
CircleSize:4
OverallDifficulty:8
ApproachRate:5
SliderMultiplier:1.4
SliderTickRate:1

[Events]
//Background and Video events
Video,-390,"bgvid.mp4"
0,0,"BG4.jpg",0,0
//Break Periods
//Storyboard Layer 0 (Background)
//Storyboard Layer 1 (Fail)
//Storyboard Layer 2 (Pass)
//Storyboard Layer 3 (Foreground)
//Storyboard Layer 4 (Overlay)
//Storyboard Sound Samples

[TimingPoints]
504,588.235294117647,4,2,1,50,1,0
5227,588.235294117647,4,2,1,50,1,0
49638,-100,4,2,1,50,0,1
59344,-100,4,2,1,50,0,0
68756,-100,4,2,1,50,0,1
78168,-100,4,2,1,50,0,0

[HitObjects]
64,192,504,5,0,0:0:0:0:
448,192,504,128,0,1092:0:0:0:0:
320,192,1092,1,0,0:0:0:0:
192,192,1386,1,0,0:0:0:0:
448,192,1386,128,0,1974:0:0:0:0:
64,192,1974,128,0,2856:0:0:0:0:
192,192,2268,128,0,2856:0:0:0:0:
320,192,2856,128,0,3445:0:0:0:0:
448,192,2856,1,0,0:0:0:0:
64,192,3151,1,0,0:0:0:0:
192,192,3445,1,0,0:0:0:0:
192,192,3739,128,0,4915:0:0:0:0:
448,192,3739,1,0,0:0:0:0:
64,192,5227,128,0,5815:0:0:0:0:
448,192,5227,1,0,0:0:0:0:
320,192,5374,1,0,0:0:0:0:
192,192,5521,128,0,5815:0:0:0:0:
448,192,5815,1,0,0:0:0:0:
192,192,6109,1,0,0:0:0:0:
448,192,6109,128,0,6991:0:0:0:0:
64,192,6697,128,0,7285:0:0:0:0:
320,192,7285,1,0,0:0:0:0:
192,192,7432,1,0,0:0:0:0:
64,192,7579,1,0,0:0:0:0:
320,192,7579,128,0,7874:0:0:0:0:
64,192,7874,128,0,8021:0:0:0:0:
448,192,7874,1,0,0:0:0:0:
448,192,8168,128,0,8315:0:0:0:0:
192,192,8168,1,0,0:0:0:0:
192,192,8462,128,0,9932:0:0:0:0:
320,192,8462,128,0,9344:0:0:0:0:
64,192,9932,1,0,0:0:0:0:
448,192,9932,1,0,0:0:0:0:
192,192,10227,1,0,0:0:0:0:
320,192,10227,1,0,0:0:0:0:
64,192,10521,1,0,0:0:0:0:
448,192,10521,1,0,0:0:0:0:
192,192,10815,1,0,0:0:0:0:
320,192,10815,1,0,0:0:0:0:
448,192,11109,1,0,0:0:0:0:
320,192,11207,1,0,0:0:0:0:
192,192,11305,1,0,0:0:0:0:
448,192,11403,1,0,0:0:0:0:
320,192,11477,1,0,0:0:0:0:
64,192,11550,1,0,0:0:0:25:rock2_7_a1.wav
192,192,11624,1,0,0:0:0:20:rock2_7_d2.wav
320,192,11697,1,2,0:0:0:0:
448,192,11697,1,0,0:0:0:0:
192,192,11991,128,0,12285:0:0:0:0:
64,192,12285,1,2,0:0:0:0:
448,192,12285,1,0,0:0:0:0:
320,192,12579,128,0,12727:0:0:0:0:
192,192,12727,128,0,13021:0:0:0:0:
320,192,12874,1,2,0:0:0:0:
448,192,12874,1,0,0:0:0:0:
64,192,13021,128,0,13168:0:0:0:0:
448,192,13168,128,0,13462:0:0:0:0:
192,192,13315,1,0,0:0:0:0:
64,192,13462,128,2,13756:0:0:0:0:
320,192,13462,1,0,0:0:0:0:
320,192,13756,128,0,14050:0:0:0:0:
192,192,14050,1,2,0:0:0:0:
448,192,14050,128,0,14344:0:0:0:0:
64,192,14344,128,0,14638:0:0:0:0:
320,192,14638,128,2,14932:0:0:0:0:
448,192,14638,1,0,0:0:0:0:
192,192,14932,128,0,15226:0:0:0:0:
64,192,15226,1,2,0:0:0:0:
320,192,15226,128,0,15521:0:0:0:0:
448,192,15521,128,0,15668:0:0:0:0:
64,192,15668,128,0,16109:0:0:0:0:
192,192,15815,1,2,0:0:0:0:
448,192,15815,1,0,0:0:0:0:
320,192,15962,1,0,0:0:0:0:
192,192,16109,1,0,0:0:0:0:
320,192,16256,1,0,0:0:0:0:
64,192,16403,1,2,0:0:0:0:
448,192,16403,1,0,0:0:0:0:
192,192,16550,1,0,0:0:0:0:
320,192,16697,128,0,16844:0:0:0:0:
192,192,16844,128,0,16991:0:0:0:0:
64,192,16991,128,2,17285:0:0:0:0:
448,192,16991,1,0,0:0:0:0:
320,192,17285,128,0,17432:0:0:0:0:
192,192,17432,128,0,17727:0:0:0:0:
320,192,17579,1,2,0:0:0:0:
448,192,17579,1,0,0:0:0:0:
64,192,17727,128,0,17874:0:0:0:0:
448,192,17874,128,0,18168:0:0:0:0:
192,192,18021,1,0,0:0:0:0:
64,192,18168,1,2,0:0:0:0:
320,192,18168,128,0,18462:0:0:0:0:
192,192,18462,128,0,18756:0:0:0:0:
64,192,18756,1,2,0:0:0:0:
320,192,18756,128,0,19050:0:0:0:0:
448,192,19050,128,0,19344:0:0:0:0:
192,192,19344,128,2,19638:0:0:0:0:
64,192,19344,1,0,0:0:0:0:
320,192,19638,128,0,19932:0:0:0:0:
64,192,19932,128,2,20227:0:0:0:0:
448,192,19932,1,0,0:0:0:0:
192,192,20227,128,0,20374:0:0:0:0:
448,192,20374,128,0,20815:0:0:0:0:
64,192,20521,1,2,0:0:0:0:
320,192,20521,1,0,0:0:0:0:
192,192,20668,1,0,0:0:0:0:
320,192,20815,1,0,0:0:0:0:
192,192,20962,1,0,0:0:0:0:
64,192,21109,1,2,0:0:0:0:
448,192,21109,1,0,0:0:0:0:
320,192,21256,1,0,0:0:0:0:
192,192,21403,128,0,21550:0:0:0:0:
320,192,21550,128,0,21697:0:0:0:0:
448,192,21697,1,2,0:0:0:0:
64,192,21697,128,0,21991:0:0:0:0:
192,192,21991,128,0,22285:0:0:0:0:
448,192,22285,1,2,0:0:0:0:
320,192,22285,128,0,22579:0:0:0:0:
64,192,22432,1,0,0:0:0:0:
192,192,22579,128,0,22726:0:0:0:0:
448,192,22726,128,0,23168:0:0:0:0:
192,192,22874,1,2,0:0:0:0:
64,192,22874,1,0,0:0:0:0:
320,192,23168,1,0,0:0:0:0:
64,192,23462,1,2,0:0:0:0:
448,192,23462,1,0,0:0:0:0:
192,192,23756,128,0,23903:0:0:0:0:
320,192,23903,128,0,24050:0:0:0:0:
448,192,24050,1,2,0:0:0:0:
64,192,24050,128,0,24638:0:0:0:0:
320,192,24344,1,0,0:0:0:0:
448,192,24638,128,2,24785:0:0:0:0:
192,192,24638,1,0,0:0:0:0:
320,192,24785,1,0,0:0:0:0:
192,192,24932,128,0,25521:0:0:0:0:
320,192,25226,1,2,0:0:0:0:
448,192,25226,1,0,0:0:0:0:
64,192,25374,1,0,0:0:0:0:
320,192,25521,128,0,25668:0:0:0:0:
448,192,25668,128,0,26109:0:0:0:0:
64,192,25815,1,2,0:0:0:0:
192,192,25815,1,0,0:0:0:0:
192,192,26109,128,0,26256:0:0:0:0:
64,192,26256,128,0,26697:0:0:0:0:
320,192,26403,1,2,0:0:0:0:
448,192,26403,1,0,0:0:0:0:
192,192,26697,1,0,0:0:0:0:
448,192,26844,1,0,0:0:0:0:
192,192,26991,1,2,0:0:0:0:
320,192,26991,1,0,0:0:0:0:
64,192,27138,1,0,0:0:0:0:
320,192,27285,1,0,0:0:0:0:
64,192,27579,1,2,0:0:0:0:
448,192,27579,1,0,0:0:0:0:
320,192,27874,128,0,28021:0:0:0:0:
64,192,28021,128,0,28168:0:0:0:0:
192,192,28168,1,2,0:0:0:0:
320,192,28168,1,0,0:0:0:0:
448,192,28315,128,0,28462:0:0:0:0:
64,192,28462,1,0,0:0:0:0:
192,192,28609,128,0,28756:0:0:0:0:
64,192,28756,128,2,29050:0:0:0:0:
320,192,28756,1,0,0:0:0:0:
448,192,29050,128,0,29197:0:0:0:0:
64,192,29197,128,0,29638:0:0:0:0:
320,192,29344,1,2,0:0:0:0:
448,192,29344,1,0,0:0:0:0:
320,192,29638,128,0,29932:0:0:0:0:
192,192,29932,128,2,30226:0:0:0:0:
448,192,29932,1,0,0:0:0:0:
64,192,30079,1,0,0:0:0:0:
448,192,30226,128,0,30521:0:0:0:0:
192,192,30374,1,0,0:0:0:0:
64,192,30521,128,2,30815:0:0:0:0:
320,192,30521,1,0,0:0:0:0:
192,192,30815,128,0,31256:0:0:0:0:
320,192,31109,1,2,0:0:0:0:
448,192,31109,1,0,0:0:0:0:
64,192,31256,1,0,0:0:0:0:
448,192,31403,128,0,31697:0:0:0:0:
192,192,31550,1,0,0:0:0:0:
64,192,31697,128,2,31991:0:0:0:0:
320,192,31697,1,0,0:0:0:0:
320,192,31991,128,0,32285:0:0:0:0:
192,192,32138,1,0,0:0:0:0:
64,192,32285,1,2,0:0:0:0:
448,192,32285,1,0,0:0:0:0:
320,192,32432,1,0,0:0:0:0:
192,192,32579,128,0,32874:0:0:0:0:
448,192,32726,1,0,0:0:0:0:
64,192,32874,1,2,0:0:0:0:
320,192,32874,128,0,33168:0:0:0:0:
448,192,33168,128,0,33462:0:0:0:0:
64,192,33462,1,2,0:0:0:0:
192,192,33462,128,0,33756:0:0:0:0:
448,192,33756,128,0,33903:0:0:0:0:
320,192,33903,128,0,34344:0:0:0:0:
64,192,34050,1,2,0:0:0:0:
192,192,34050,1,0,0:0:0:0:
64,192,34344,128,0,34932:0:0:0:0:
320,192,34638,1,2,0:0:0:0:
448,192,34638,1,0,0:0:0:0:
192,192,34785,1,0,0:0:0:0:
448,192,34932,128,0,35227:0:0:0:0:
320,192,35079,1,0,0:0:0:0:
192,192,35227,1,2,0:0:0:0:
64,192,35227,128,0,35521:0:0:0:0:
448,192,35521,128,0,35815:0:0:0:0:
64,192,35815,1,2,0:0:0:0:
192,192,35815,1,0,0:0:0:0:
320,192,35962,1,0,0:0:0:0:
192,192,36109,128,0,36256:0:0:0:0:
320,192,36256,1,0,0:0:0:0:
64,192,36403,1,2,0:0:0:0:
448,192,36403,1,0,0:0:0:0:
192,192,36501,1,0,0:0:0:0:
320,192,36599,1,0,0:0:0:0:
448,192,36697,128,0,36844:0:0:0:0:
192,192,36844,1,0,0:0:0:0:
64,192,36991,1,2,0:0:0:0:
320,192,36991,1,0,0:0:0:0:
448,192,37138,1,0,0:0:0:0:
64,192,37285,1,0,0:0:0:0:
320,192,37432,1,0,0:0:0:0:
192,192,37579,1,2,0:0:0:0:
448,192,37579,1,0,0:0:0:0:
64,192,37726,1,0,0:0:0:0:
320,192,37874,1,0,0:0:0:0:
192,192,38021,1,0,0:0:0:0:
64,192,38168,1,2,0:0:0:0:
448,192,38168,128,0,38462:0:0:0:0:
192,192,38462,128,0,38609:0:0:0:0:
320,192,38609,128,0,39050:0:0:0:0:
192,192,38756,1,2,0:0:0:0:
64,192,38756,1,0,0:0:0:0:
448,192,39050,128,0,39344:0:0:0:0:
64,192,39344,128,2,39491:0:0:0:0:
192,192,39344,1,0,0:0:0:0:
320,192,39491,1,0,0:0:0:0:
192,192,39638,128,0,39932:0:0:0:0:
320,192,39932,1,2,0:0:0:0:
448,192,39932,128,0,40226:0:0:0:0:
320,192,40226,128,0,40815:0:0:0:0:
64,192,40521,1,2,0:0:0:0:
192,192,40521,1,0,0:0:0:0:
448,192,40815,128,0,40962:0:0:0:0:
192,192,40962,1,0,0:0:0:0:
64,192,41109,128,2,41256:0:0:0:0:
320,192,41109,1,0,0:0:0:0:
448,192,41256,1,0,0:0:0:0:
192,192,41403,128,0,41550:0:0:0:0:
320,192,41697,1,2,0:0:0:0:
448,192,41697,1,0,0:0:0:0:
192,192,41991,128,0,42285:0:0:0:0:
320,192,42285,1,8,0:0:0:0:
448,192,42285,1,2,0:0:0:0:
64,192,42432,1,8,0:0:0:0:
448,192,42579,1,8,0:0:0:0:
192,192,42726,1,8,0:0:0:0:
64,192,42874,1,2,0:0:0:0:
320,192,42874,128,4,43021:0:0:0:0:
448,192,42874,128,0,43168:0:0:0:0:
64,192,43168,128,0,43315:0:0:0:0:
192,192,43315,128,0,43756:0:0:0:0:
320,192,43462,128,8,43609:0:0:0:0:
448,192,43462,1,0,0:0:0:0:
64,192,43756,128,2,44050:0:0:0:0:
320,192,43756,1,0,0:0:0:0:
320,192,44050,128,8,44344:0:0:0:0:
448,192,44050,128,0,44197:0:0:0:0:
64,192,44344,128,2,44491:0:0:0:0:
192,192,44344,1,0,0:0:0:0:
448,192,44491,128,0,44638:0:0:0:0:
64,192,44638,1,8,0:0:0:0:
320,192,44638,128,0,44785:0:0:0:0:
192,192,44785,1,2,0:0:0:0:
448,192,44932,128,0,45226:0:0:0:0:
64,192,45226,128,8,45374:0:0:0:0:
192,192,45226,128,0,45521:0:0:0:0:
320,192,45521,128,0,45668:0:0:0:0:
448,192,45668,128,0,45815:0:0:0:0:
64,192,45815,1,8,0:0:0:0:
192,192,45815,128,0,45962:0:0:0:0:
320,192,45962,128,0,46109:0:0:0:0:
448,192,46109,128,2,46550:0:0:0:0:
64,192,46109,1,0,0:0:0:0:
64,192,46403,128,8,46550:0:0:0:0:
192,192,46403,1,0,0:0:0:0:
320,192,46697,1,2,0:0:0:0:
448,192,46697,128,0,46991:0:0:0:0:
64,192,46991,128,8,47285:0:0:0:0:
192,192,46991,128,0,47138:0:0:0:0:
320,192,47138,1,2,0:0:0:0:
448,192,47285,128,0,47432:0:0:0:0:
192,192,47432,128,0,47579:0:0:0:0:
64,192,47579,1,4,0:0:0:0:
320,192,47579,1,8,0:0:0:0:
448,192,47579,1,0,0:0:0:0:
192,192,47726,128,0,47874:0:0:0:0:
320,192,47874,128,0,48021:0:0:0:0:
64,192,48021,1,0,0:0:0:25:rock2_7_a1.wav
192,192,48094,1,0,0:0:0:20:rock2_7_d2.wav
320,192,48168,1,2,0:0:0:0:
448,192,48168,1,0,0:0:0:0:
64,192,48315,1,0,0:0:0:0:
448,192,48462,1,0,0:0:0:0:
192,192,48609,1,0,0:0:0:0:
64,192,48756,1,8,0:0:0:0:
320,192,48756,1,0,0:0:0:20:rock2_7_d2.wav
448,192,48756,1,0,0:0:0:0:
64,192,49050,128,8,49344:0:0:0:0:
320,192,49050,1,0,0:0:0:20:rock2_7_d2.wav
448,192,49050,1,0,0:0:0:0:
320,192,49344,128,0,49638:0:0:0:0:
64,192,49638,128,2,50226:0:0:0:0:
192,192,49638,128,4,50226:0:0:0:0:
448,192,49638,1,0,0:0:0:0:
320,192,50226,1,2,0:0:0:0:
448,192,50226,128,0,50521:0:0:0:0:
64,192,50521,1,8,0:0:0:0:
320,192,50521,128,0,51109:0:0:0:0:
192,192,50815,128,2,51109:0:0:0:0:
448,192,50815,1,0,0:0:0:0:
64,192,51109,1,0,0:0:0:0:
192,192,51403,128,2,51991:0:0:0:0:
320,192,51403,1,0,0:0:0:0:
64,192,51697,1,8,0:0:0:0:
320,192,51697,128,0,51991:0:0:0:0:
448,192,51991,128,0,52285:0:0:0:0:
64,192,52285,128,2,52874:0:0:0:0:
192,192,52285,128,0,52579:0:0:0:0:
448,192,52579,1,0,0:0:0:0:
192,192,52874,1,8,0:0:0:0:
320,192,52874,128,0,53168:0:0:0:0:
192,192,53168,128,2,53756:0:0:0:0:
448,192,53168,1,0,0:0:0:0:
320,192,53462,1,0,0:0:0:0:
64,192,53756,1,2,0:0:0:0:
320,192,53756,128,0,54050:0:0:0:0:
192,192,54050,1,8,0:0:0:0:
448,192,54050,128,0,54638:0:0:0:0:
64,192,54197,1,2,0:0:0:0:
320,192,54344,128,0,54638:0:0:0:0:
64,192,54638,1,2,0:0:0:0:
192,192,54638,1,0,0:0:0:0:
64,192,54932,128,0,55226:0:0:0:0:
192,192,55226,1,8,0:0:0:0:
320,192,55226,128,0,55521:0:0:0:0:
64,192,55521,128,2,55815:0:0:0:0:
448,192,55521,1,0,0:0:0:0:
192,192,55668,128,0,55815:0:0:0:0:
320,192,55815,1,0,0:0:0:0:
192,192,56109,1,2,0:0:0:0:
320,192,56109,128,0,56403:0:0:0:0:
64,192,56403,128,8,56991:0:0:0:0:
448,192,56403,1,0,0:0:0:0:
448,192,56697,128,0,56991:0:0:0:0:
320,192,56991,1,2,0:0:0:0:
192,192,56991,1,0,0:0:0:0:
320,192,57285,128,0,58462:0:0:0:0:
64,192,57579,1,8,0:0:0:0:
192,192,57579,1,0,0:0:0:0:
448,192,57874,1,2,0:0:0:0:
192,192,57874,128,0,58462:0:0:0:0:
64,192,58168,1,0,0:0:0:0:
448,192,58462,1,2,0:0:0:0:
64,192,58462,128,0,58756:0:0:0:0:
448,192,58756,128,8,59344:0:0:0:0:
320,192,58756,1,0,0:0:0:0:
192,192,58903,1,2,0:0:0:0:
320,192,59050,128,0,59344:0:0:0:0:
192,192,59344,1,2,0:0:0:0:
64,192,59344,1,0,0:0:0:0:
64,192,59638,128,0,60226:0:0:0:0:
320,192,59932,1,8,0:0:0:0:
448,192,59932,1,0,0:0:0:0:
192,192,60226,1,2,0:0:0:0:
448,192,60226,128,0,60374:0:0:0:0:
320,192,60374,128,0,60521:0:0:0:0:
192,192,60521,128,0,61109:0:0:0:0:
320,192,60815,128,2,61109:0:0:0:0:
64,192,60815,1,0,0:0:0:0:
64,192,61109,1,8,0:0:0:0:
448,192,61109,1,0,0:0:0:0:
320,192,61403,128,0,61550:0:0:0:0:
192,192,61550,128,0,61697:0:0:0:0:
64,192,61697,128,2,61991:0:0:0:0:
448,192,61697,1,0,0:0:0:0:
320,192,61991,1,0,0:0:0:0:
320,192,62285,128,8,62874:0:0:0:0:
64,192,62285,128,0,62579:0:0:0:0:
192,192,62579,1,2,0:0:0:0:
448,192,62579,1,0,0:0:0:0:
64,192,62874,1,0,0:0:0:0:
192,192,63168,128,2,63315:0:0:0:0:
448,192,63168,1,0,0:0:0:0:
192,192,63462,128,8,63609:0:0:0:0:
320,192,63462,1,0,0:0:0:0:
448,192,63609,1,2,0:0:0:0:
192,192,63756,128,0,64344:0:0:0:0:
64,192,64050,128,2,64344:0:0:0:0:
320,192,64050,1,0,0:0:0:0:
448,192,64344,128,0,64638:0:0:0:0:
192,192,64638,1,8,0:0:0:0:
320,192,64638,128,0,65226:0:0:0:0:
64,192,64932,128,2,65226:0:0:0:0:
192,192,64932,128,0,65226:0:0:0:0:
448,192,65226,1,0,0:0:0:0:
320,192,65521,128,2,65668:0:0:0:0:
64,192,65521,1,0,0:0:0:0:
320,192,65815,128,8,65962:0:0:0:0:
192,192,65815,1,0,0:0:0:0:
320,192,66109,128,0,66697:0:0:0:0:
192,192,66403,1,2,0:0:0:0:
448,192,66403,128,0,66697:0:0:0:0:
64,192,66697,128,0,66991:0:0:0:0:
192,192,66991,128,8,67579:0:0:0:0:
320,192,66991,1,0,0:0:0:0:
320,192,67285,128,2,67579:0:0:0:0:
448,192,67285,128,0,67579:0:0:0:0:
64,192,67579,1,0,0:0:0:0:
192,192,67874,128,2,68168:0:0:0:0:
448,192,67874,1,0,0:0:0:0:
320,192,68168,1,8,0:0:0:0:
448,192,68168,1,0,0:0:0:0:
64,192,68315,1,8,0:0:0:0:
192,192,68315,1,0,0:0:0:0:
320,192,68462,128,0,68756:0:0:0:25:rock2_7_a1.wav
64,192,68756,1,2,0:0:0:0:
192,192,68756,1,4,0:0:0:0:
448,192,68756,1,0,0:0:0:0:
64,192,69050,128,0,69344:0:0:0:0:
192,192,69344,128,8,69638:0:0:0:0:
320,192,69344,128,0,69932:0:0:0:0:
64,192,69638,1,2,0:0:0:0:
448,192,69638,128,0,69932:0:0:0:0:
192,192,69932,1,0,0:0:0:0:
64,192,70226,128,2,70815:0:0:0:0:
320,192,70226,1,0,0:0:0:0:
192,192,70521,128,8,70815:0:0:0:0:
448,192,70521,1,0,0:0:0:0:
320,192,70815,128,0,71109:0:0:0:0:
448,192,71109,128,0,71697:0:0:0:0:
192,192,71109,128,2,71403:0:0:0:0:
64,192,71403,1,0,0:0:0:0:
64,192,71697,128,8,71991:0:0:0:0:
320,192,71697,1,0,0:0:0:0:
448,192,71991,1,2,0:0:0:0:
320,192,71991,128,0,72579:0:0:0:0:
192,192,72285,1,0,0:0:0:0:
192,192,72579,128,2,72874:0:0:0:0:
64,192,72579,1,0,0:0:0:0:
320,192,72874,1,8,0:0:0:0:
448,192,72874,128,0,73462:0:0:0:0:
64,192,73021,1,2,0:0:0:0:
320,192,73168,128,0,73462:0:0:0:0:
64,192,73462,1,2,0:0:0:0:
192,192,73462,1,0,0:0:0:0:
448,192,73756,128,0,74050:0:0:0:0:
192,192,74050,128,8,74344:0:0:0:0:
320,192,74050,1,0,0:0:0:0:
64,192,74344,1,2,0:0:0:0:
448,192,74344,128,0,74638:0:0:0:0:
320,192,74491,128,0,74638:0:0:0:0:
192,192,74638,1,0,0:0:0:0:
64,192,74932,128,2,75226:0:0:0:0:
448,192,74932,1,0,0:0:0:0:
320,192,75226,1,8,0:0:0:0:
448,192,75226,128,0,75815:0:0:0:0:
64,192,75521,128,0,76109:0:0:0:0:
192,192,75815,128,2,76109:0:0:0:0:
320,192,75815,1,0,0:0:0:0:
320,192,76109,128,0,76697:0:0:0:0:
64,192,76403,1,8,0:0:0:0:
192,192,76403,1,0,0:0:0:0:
192,192,76697,128,0,77285:0:0:0:0:
320,192,76991,1,2,0:0:0:0:
448,192,76991,1,0,0:0:0:0:
448,192,77285,128,0,77874:0:0:0:0:
192,192,77579,1,2,0:0:0:0:
320,192,77579,128,0,77874:0:0:0:0:
192,192,77874,128,0,78168:0:0:0:25:rock2_7_a1.wav
64,192,77874,1,0,0:0:0:0:
320,192,78168,1,2,0:0:0:0:
64,192,78168,1,4,0:0:0:0:
448,192,78168,1,0,0:0:0:0:
448,192,78462,128,0,79050:0:0:0:0:
64,192,78756,1,8,0:0:0:0:
192,192,78756,1,0,0:0:0:0:
64,192,79050,128,0,79344:0:0:0:0:
192,192,79197,128,0,79344:0:0:0:0:
320,192,79344,128,2,79932:0:0:0:0:
448,192,79344,1,0,0:0:0:0:
192,192,79638,128,2,79932:0:0:0:0:
64,192,79638,1,0,0:0:0:0:
448,192,79932,1,8,0:0:0:0:
64,192,79932,128,0,80521:0:0:0:0:
448,192,80226,128,0,80521:0:0:0:0:
192,192,80521,1,2,0:0:0:0:
320,192,80521,1,0,0:0:0:0:
192,192,80815,128,0,81109:0:0:0:0:
320,192,81109,128,8,81697:0:0:0:0:
448,192,81109,1,0,0:0:0:0:
192,192,81403,128,0,81697:0:0:0:0:
64,192,81697,1,2,0:0:0:0:
448,192,81697,1,0,0:0:0:0:
64,192,81991,128,2,82138:0:0:0:0:
192,192,81991,1,0,0:0:0:0:
320,192,82138,1,0,0:0:0:0:
64,192,82285,1,8,0:0:0:0:
192,192,82285,128,4,82432:0:0:0:0:
448,192,82285,1,0,0:0:0:0:
320,192,82579,128,0,82726:0:0:0:0:
64,192,82874,1,2,0:0:0:0:
192,192,82874,1,0,0:0:0:0:
448,192,82874,1,0,0:0:0:0:
64,192,83168,128,0,84050:0:0:0:0:
448,192,83315,1,0,0:0:0:0:
192,192,83462,1,8,0:0:0:0:
320,192,83462,1,0,0:0:0:20:rock2_7_d2.wav
192,192,83756,128,0,84050:0:0:0:20:rock2_7_d2.wav
448,192,83756,1,0,0:0:0:0:
320,192,84050,1,2,0:0:0:0:
448,192,84050,1,0,0:0:0:20:rock2_7_d2.wav
192,192,84197,1,0,0:0:0:0:
320,192,84344,128,0,84638:0:0:0:25:rock2_7_a1.wav
64,192,84344,1,0,0:0:0:0:
448,192,84491,1,0,0:0:0:25:rock2_7_a1.wav
192,192,84638,1,0,0:0:0:20:rock2_7_d2.wav
64,192,84785,1,0,0:0:0:20:rock2_7_d2.wav
320,192,84932,1,0,0:0:0:20:rock2_7_d2.wav
448,192,84932,128,0,85521:0:0:0:0:
64,192,85226,1,8,0:0:0:0:
192,192,85226,1,0,0:0:0:0:
320,192,85521,128,0,85815:0:0:0:0:
64,192,85668,1,2,0:0:0:0:
192,192,85668,128,0,85815:0:0:0:0:
448,192,86109,128,0,86697:0:0:0:0:
192,192,86256,128,0,86697:0:0:0:0:
320,192,86697,128,0,87285:0:0:0:0:
64,192,86844,128,0,87285:0:0:0:0:
192,192,87285,128,0,89197:0:0:0:0:
320,192,87432,128,0,89197:0:0:0:0:
