osu file format v14

[General]
AudioFilename: offset testing.mp3
AudioLeadIn: 0
PreviewTime: -1
Countdown: 1
SampleSet: None
StackLeniency: 0.7
Mode: 0
LetterboxInBreaks: 1
WidescreenStoryboard: 0

[Editor]
DistanceSpacing: 0.5
BeatDivisor: 1
GridSize: 4
TimelineZoom: 1

[Metadata]
Title:Offset Testing
TitleUnicode:Offset Testing
Artist:Kitokofox
ArtistUnicode:Kitokofox
Creator:Kitokofox
Version:Timing
Source:
Tags:
BeatmapID:1751519
BeatmapSetID:836382

[Difficulty]
HPDrainRate:0
CircleSize:2
OverallDifficulty:10
ApproachRate:7
SliderMultiplier:1.4
SliderTickRate:1

[Events]
//Background and Video events
//Break Periods
//Storyboard Layer 0 (Background)
//Storyboard Layer 1 (Fail)
//Storyboard Layer 2 (Pass)
//Storyboard Layer 3 (Foreground)
//Storyboard Sound Samples

[TimingPoints]
0,1000,4,1,0,100,1,0

[HitObjects]
212,148,8000,5,4,0:0:0:0:
300,148,9000,1,0,0:0:0:0:
300,236,10000,1,0,0:0:0:0:
216,236,11000,1,0,0:0:0:0:
212,148,12000,5,4,0:0:0:0:
300,148,13000,1,0,0:0:0:0:
300,236,14000,1,0,0:0:0:0:
216,236,15000,1,0,0:0:0:0:
212,148,16000,5,4,0:0:0:0:
300,148,17000,1,0,0:0:0:0:
300,236,18000,1,0,0:0:0:0:
216,236,19000,1,0,0:0:0:0:
212,148,20000,5,4,0:0:0:0:
300,148,21000,1,0,0:0:0:0:
300,236,22000,1,0,0:0:0:0:
216,236,23000,1,0,0:0:0:0:
212,148,24000,5,4,0:0:0:0:
300,148,25000,1,0,0:0:0:0:
300,236,26000,1,0,0:0:0:0:
216,236,27000,1,0,0:0:0:0:
212,148,28000,5,4,0:0:0:0:
300,148,29000,1,0,0:0:0:0:
300,236,30000,1,0,0:0:0:0:
216,236,31000,1,0,0:0:0:0:
212,148,32000,5,4,0:0:0:0:
300,148,33000,1,0,0:0:0:0:
300,236,34000,1,0,0:0:0:0:
216,236,35000,1,0,0:0:0:0:
212,148,36000,5,4,0:0:0:0:
300,148,37000,1,0,0:0:0:0:
300,236,38000,1,0,0:0:0:0:
216,236,39000,1,0,0:0:0:0:
212,148,40000,5,4,0:0:0:0:
300,148,41000,1,0,0:0:0:0:
300,236,42000,1,0,0:0:0:0:
216,236,43000,1,0,0:0:0:0:
212,148,44000,5,4,0:0:0:0:
300,148,45000,1,0,0:0:0:0:
300,236,46000,1,0,0:0:0:0:
216,236,47000,1,0,0:0:0:0:
212,148,48000,5,4,0:0:0:0:
300,148,49000,1,0,0:0:0:0:
300,236,50000,1,0,0:0:0:0:
216,236,51000,1,0,0:0:0:0:
212,148,52000,5,4,0:0:0:0:
300,148,53000,1,0,0:0:0:0:
300,236,54000,1,0,0:0:0:0:
216,236,55000,1,0,0:0:0:0:
212,148,56000,5,4,0:0:0:0:
300,148,57000,1,0,0:0:0:0:
300,236,58000,1,0,0:0:0:0:
216,236,59000,1,0,0:0:0:0:
212,148,60000,5,4,0:0:0:0:
300,148,61000,1,0,0:0:0:0:
300,236,62000,1,0,0:0:0:0:
216,236,63000,1,0,0:0:0:0:
212,148,64000,5,4,0:0:0:0:
300,148,65000,1,0,0:0:0:0:
300,236,66000,1,0,0:0:0:0:
216,236,67000,1,0,0:0:0:0:
212,148,68000,5,4,0:0:0:0:
300,148,69000,1,0,0:0:0:0:
300,236,70000,1,0,0:0:0:0:
216,236,71000,1,0,0:0:0:0:
212,148,72000,5,4,0:0:0:0:
300,148,73000,1,0,0:0:0:0:
300,236,74000,1,0,0:0:0:0:
216,236,75000,1,0,0:0:0:0:
212,148,76000,5,4,0:0:0:0:
300,148,77000,1,0,0:0:0:0:
300,236,78000,1,0,0:0:0:0:
216,236,79000,1,0,0:0:0:0:
212,148,80000,5,4,0:0:0:0:
300,148,81000,1,0,0:0:0:0:
300,236,82000,1,0,0:0:0:0:
216,236,83000,1,0,0:0:0:0:
212,148,84000,5,4,0:0:0:0:
300,148,85000,1,0,0:0:0:0:
300,236,86000,1,0,0:0:0:0:
216,236,87000,1,0,0:0:0:0:
212,148,88000,5,4,0:0:0:0:
300,148,89000,1,0,0:0:0:0:
300,236,90000,1,0,0:0:0:0:
216,236,91000,1,0,0:0:0:0:
212,148,92000,5,4,0:0:0:0:
300,148,93000,1,0,0:0:0:0:
300,236,94000,1,0,0:0:0:0:
216,236,95000,1,0,0:0:0:0:
212,148,96000,5,4,0:0:0:0:
300,148,97000,1,0,0:0:0:0:
300,236,98000,1,0,0:0:0:0:
216,236,99000,1,0,0:0:0:0:
212,148,100000,5,4,0:0:0:0:
300,148,101000,1,0,0:0:0:0:
300,236,102000,1,0,0:0:0:0:
216,236,103000,1,0,0:0:0:0:
212,148,104000,5,4,0:0:0:0:
300,148,105000,1,0,0:0:0:0:
300,236,106000,1,0,0:0:0:0:
216,236,107000,1,0,0:0:0:0:
212,148,108000,5,4,0:0:0:0:
300,148,109000,1,0,0:0:0:0:
300,236,110000,1,0,0:0:0:0:
216,236,111000,1,0,0:0:0:0:
212,148,112000,5,4,0:0:0:0:
300,148,113000,1,0,0:0:0:0:
300,236,114000,1,0,0:0:0:0:
216,236,115000,1,0,0:0:0:0:
212,148,116000,5,4,0:0:0:0:
300,148,117000,1,0,0:0:0:0:
300,236,118000,1,0,0:0:0:0:
216,236,119000,1,0,0:0:0:0:
212,148,120000,5,4,0:0:0:0:
300,148,121000,1,0,0:0:0:0:
300,236,122000,1,0,0:0:0:0:
216,236,123000,1,0,0:0:0:0:
212,148,124000,5,4,0:0:0:0:
300,148,125000,1,0,0:0:0:0:
300,236,126000,1,0,0:0:0:0:
216,236,127000,1,0,0:0:0:0:
256,192,128000,5,14,0:0:0:0:
