osu file format v14

[General]
AudioFilename: audio.mp3
AudioLeadIn: 0
PreviewTime: 17194
Countdown: 0
SampleSet: Soft
StackLeniency: 0.3
Mode: 0
LetterboxInBreaks: 0
WidescreenStoryboard: 1

[Editor]
DistanceSpacing: 1
BeatDivisor: 4
GridSize: 8
TimelineZoom: 1.5

[Metadata]
Title:Tiny Light (TV Size)
TitleUnicode:Tiny Light (TV Size)
Artist:Kito Akari
ArtistUnicode:鬼頭明里
Creator:Shiratoi
Version:Normal
Source:地縛少年花子くん
Tags:Jibaku Shounen Hanako-kun Toilet-bound Japanese Anime Ending ED Kitou Desire Again hokichi
BeatmapID:2475623
BeatmapSetID:1102078

[Difficulty]
HPDrainRate:3.5
CircleSize:3
OverallDifficulty:4
ApproachRate:5
SliderMultiplier:0.999999999999999
SliderTickRate:1

[Events]
//Background and Video events
0,0,"hanako.jpg",0,0
//Break Periods
//Storyboard Layer 0 (Background)
//Storyboard Layer 1 (Fail)
//Storyboard Layer 2 (Pass)
//Storyboard Layer 3 (Foreground)
//Storyboard Layer 4 (Overlay)
//Storyboard Sound Samples

[TimingPoints]
518,352.941176470588,4,2,1,30,1,0
11341,375,4,2,1,30,1,0
11812,352.941176470588,4,2,1,30,1,0
28753,-100,4,2,1,40,0,0
49929,-100,4,2,1,50,0,0
51341,-100,4,2,1,70,0,1
61223,-100,4,2,1,40,0,1
61576,-100,4,2,1,50,0,1
61929,-100,4,2,1,60,0,1
62282,-100,4,2,1,70,0,1
76753,-100,4,2,1,50,0,1
78165,-100,4,2,1,60,0,1
79576,-100,4,2,1,70,0,1
80988,-100,4,2,1,60,0,0
82401,-100,4,2,1,40,0,0

[Colours]
Combo1 : 221,174,111
Combo2 : 205,97,97
Combo3 : 160,123,198
Combo4 : 124,155,197

[HitObjects]
384,345,6166,6,0,L|457:338,2,50,2|0|0,0:1|0:0|0:0,0:0:0:0:
342,316,6695,2,0,P|358:264|336:209,1,99.9999999999999,2|0,0:0|0:0,0:0:0:0:
303,193,7224,1,2,0:1:0:0:
38,51,8282,2,0,L|43:120,1,50,2|0,0:0|0:0,0:0:0:0:
85,125,8636,2,0,L|81:174,1,50,0|0,0:0|0:0,0:0:0:0:
103,219,8988,6,0,B|184:187|174:255|254:207,2,150,2|2|2,0:0|0:0|0:0,0:0:0:0:
277,316,10753,2,0,P|325:302|380:323,1,99.9999999999999,2|2,0:0|0:0,0:0:0:0:
457,366,11434,1,2,0:0:0:0:
505,278,11812,1,2,0:1:0:0:
256,192,11988,12,2,14635,0:1:0:0:
88,100,16047,5,2,0:0:0:0:
88,100,17460,6,0,P|67:159|87:204,1,99.9999999999999,2|0,0:1|0:0,0:0:0:0:
125,207,17989,2,0,P|146:266|126:311,1,99.9999999999999,2|0,0:0|0:0,0:0:0:0:
94,328,18518,1,2,0:0:0:0:
185,369,18871,2,0,L|390:356,1,200,2|0,0:0|0:0,0:0:0:0:
475,314,19930,1,0,0:0:0:0:
414,232,20283,6,0,B|446:150|380:166|423:69,2,150,2|0|0,0:1|0:0|0:0,0:0:0:0:
324,186,21695,2,0,L|211:177,1,99.9999999999999,2|0,0:1|0:0,0:0:0:0:
199,134,22224,2,0,L|99:141,1,99.9999999999999,2|0,0:0|0:0,0:0:0:0:
49,131,22754,1,2,0:0:0:0:
43,230,23106,6,0,B|85:252|96:306|96:306|68:360,1,150,2|0,0:0|0:0,0:0:0:0:
220,349,24164,1,0,0:0:0:0:
304,294,24518,2,0,L|317:191,1,99.9999999999999,2|0,0:0|0:0,0:0:0:0:
416,198,25224,2,0,L|403:95,1,99.9999999999999
315,60,25930,6,0,B|290:68|276:102|276:102|241:46|185:45|185:45|153:108|220:152|220:152|192:156|171:190,1,350,2|2,0:0|0:1,0:0:0:0:
178,181,27871,1,0,0:0:0:0:
15,371,28754,6,0,L|75:361,1,50,12|2,0:0|3:2,0:0:0:0:
103,331,29107,2,0,L|221:338,1,99.9999999999999,2|0,0:0|0:0,0:0:0:0:
286,281,29812,1,2,0:0:0:0:
348,359,30165,2,0,P|380:315|374:253,1,99.9999999999999,0|2,0:0|0:0,0:0:0:0:
323,188,30871,2,0,P|316:156|325:117,2,50,0|2|2,0:0|3:2|0:0,0:0:0:0:
286,281,31577,6,0,L|222:277,1,50,2|2,3:2|3:2,0:0:0:0:
202,321,31930,2,0,L|99:331,1,99.9999999999999,2|0,0:0|0:0,0:0:0:0:
52,243,32636,1,2,0:0:0:0:
110,162,32988,2,0,B|126:64|126:64|100:8,1,150,2|2,0:1|0:1,0:0:0:0:
246,67,34048,1,2,0:0:0:0:
343,41,34401,6,0,L|348:96,1,50,2|2,3:2|3:2,0:0:0:0:
394,107,34754,2,0,P|373:149|395:218,1,99.9999999999999,2|0,0:0|0:0,0:0:0:0:
476,230,35459,1,2,0:0:0:0:
442,324,35812,2,0,L|323:316,1,99.9999999999999,2|2,3:2|0:0,0:0:0:0:
252,366,36518,1,0,0:0:0:0:
188,288,36871,1,2,0:0:0:0:
105,344,37224,6,0,L|95:282,1,50,2|2,3:2|3:2,0:0:0:0:
58,262,37577,2,0,P|78:222|62:155,1,99.9999999999999
166,137,38283,1,2,0:0:0:0:
166,137,38459,2,0,P|146:97|162:30,2,99.9999999999999,2|0|2,0:1|0:0|0:1,0:0:0:0:
166,137,40048,6,0,L|283:128,1,99.9999999999999,2|2,3:2|0:0,0:0:0:0:
297,168,40577,2,0,B|385:147|385:147|450:175,1,150,0|2,0:0|3:2,0:0:0:0:
484,260,41459,2,0,P|503:297|487:372,1,99.9999999999999,2|2,0:1|3:2,0:0:0:0:
398,367,42165,1,2,0:1:0:0:
318,305,42518,1,0,0:0:0:0:
230,352,42871,6,0,L|110:343,1,99.9999999999999,2|0,0:0|0:0,0:0:0:0:
83,364,43401,1,2,0:0:0:0:
40,220,43930,2,0,P|34:186|43:158,1,50,2|0,3:2|0:0,0:0:0:0:
79,145,44283,2,0,P|94:97|77:38,2,99.9999999999999,2|2|2,0:1|3:2|0:0,0:0:0:0:
136,227,45342,1,0,0:0:0:0:
220,173,45695,6,0,B|277:160|277:160|328:176,1,99.9999999999999,2|2,3:2|0:0,0:0:0:0:
339,217,46224,1,0,0:0:0:0:
419,90,46754,2,0,L|430:148,1,50,2|0,3:2|0:0,0:0:0:0:
473,160,47107,2,0,P|453:195|467:266,1,99.9999999999999,0|2,0:0|3:2,0:0:0:0:
419,344,47812,2,0,L|303:333,1,99.9999999999999,2|2,0:0|0:0,0:0:0:0:
256,192,48517,12,8,49929,0:0:0:0:
67,57,51341,6,0,L|49:170,1,99.9999999999999,4|8,0:0|0:0,0:0:0:0:
93,182,51870,2,0,L|105:288,1,99.9999999999999,0|0,0:0|1:2,0:0:0:0:
129,325,52400,1,8,0:0:0:0:
211,268,52753,2,0,P|265:251|315:269,1,99.9999999999999,2|8,1:2|0:0,0:0:0:0:
332,304,53282,1,2,0:0:0:0:
332,304,53459,1,0,1:2:0:0:
420,349,53811,2,0,P|429:318|423:284,1,50,8|0,0:0|0:0,0:0:0:0:
452,256,54165,6,0,P|437:201|462:151,1,99.9999999999999,4|8,1:2|0:0,0:0:0:0:
441,113,54694,2,0,L|333:125,1,99.9999999999999,0|0,0:0|1:2,0:0:0:0:
313,82,55223,1,8,0:0:0:0:
240,150,55576,2,0,B|208:236|284:206|236:312,1,150,2|0,1:2|0:0,0:0:0:0:
203,324,56283,1,2,1:2:0:0:
109,359,56635,2,0,P|104:330|111:297,1,50,8|8,0:0|0:0,0:0:0:0:
92,261,56988,6,0,P|109:207|88:150,1,99.9999999999999,4|8,1:2|0:0,0:0:0:0:
140,143,57517,2,0,L|250:150,1,99.9999999999999,0|0,0:0|1:2,0:0:0:0:
274,113,58047,1,8,0:0:0:0:
313,204,58400,2,0,L|412:197,1,99.9999999999999,2|8,1:2|0:0,0:0:0:0:
441,163,58929,1,2,0:0:0:0:
441,163,59106,1,0,1:2:0:0:
497,237,59459,2,0,L|505:293,1,50,8|0,0:0|0:0,0:0:0:0:
473,326,59812,6,0,B|423:310|423:310|370:325,1,99.9999999999999,4|8,1:2|0:0,0:0:0:0:
340,357,60341,2,0,L|234:350,1,99.9999999999999,0|0,0:0|1:2,0:0:0:0:
207,312,60870,1,8,0:0:0:0:
186,214,61223,2,0,L|191:157,2,50,8|8|8,0:1|0:1|0:1,0:0:0:0:
207,312,61930,1,8,0:0:0:0:
113,348,62283,1,8,0:0:0:0:
38,281,62635,6,0,P|16:221|33:173,1,99.9999999999999,12|8,1:2|0:0,0:0:0:0:
61,154,63165,2,0,P|83:94|66:46,1,99.9999999999999,0|0,1:2|1:2,0:0:0:0:
119,38,63694,2,0,B|203:7|181:70|277:27,1,150,12|8,0:0|0:0,0:0:0:0:
276,81,64401,1,8,0:0:0:0:
359,26,64753,2,0,L|423:32,2,50,2|0|8,1:2|1:2|0:0,0:0:0:0:
383,123,65459,6,0,P|360:171|379:231,1,99.9999999999999,12|8,1:2|0:0,0:0:0:0:
373,265,65989,2,0,P|396:313|377:373,1,99.9999999999999,0|0,1:2|1:2,0:0:0:0:
337,362,66517,2,0,B|238:346|238:346|181:374,1,150,12|8,0:0|0:0,0:0:0:0:
153,340,67224,1,8,0:0:0:0:
213,260,67577,1,10,0:0:0:0:
126,213,67930,2,0,L|132:155,1,50,8|8,0:0|0:0,0:0:0:0:
174,137,68282,6,0,P|159:82|182:31,2,99.9999999999999,12|8|8,1:2|0:0|0:0,0:0:0:0:
272,157,69342,1,8,0:0:0:0:
311,65,69694,2,0,L|428:59,1,99.9999999999999,12|8,1:2|0:0,0:0:0:0:
447,94,70223,1,8,0:1:0:0:
447,94,70401,2,0,P|426:140|456:202,1,99.9999999999999,8|8,0:0|0:0,0:0:0:0:
461,283,71107,6,0,P|403:268|361:287,1,99.9999999999999,12|8,1:2|0:0,0:0:0:0:
329,314,71636,1,8,0:0:0:0:
329,314,71812,2,0,P|282:329|235:315,1,99.9999999999999,8|8,0:0|0:0,0:0:0:0:
135,302,72517,2,0,L|69:310,2,50,12|8|8,1:2|0:0|0:0,0:0:0:0:
198,223,73224,2,0,L|264:231,2,50,12|8|8,1:2|0:0|0:0,0:0:0:0:
162,187,73754,1,8,0:0:0:0:
162,187,73929,6,0,P|178:151|156:81,1,99.9999999999999,4|8,1:2|0:0,0:0:0:0:
214,84,74459,1,0,0:0:0:0:
214,84,74636,2,0,P|250:100|320:78,1,99.9999999999999,2|8,1:2|0:0,0:0:0:0:
380,19,75342,1,4,1:2:0:0:
468,65,75695,1,8,0:0:0:0:
415,149,76047,1,8,0:0:0:0:
499,202,76401,2,0,L|506:263,1,50,8|8,0:0|0:0,0:0:0:0:
456,266,76754,6,0,P|482:305|466:376,1,99.9999999999999,12|8,1:2|0:0,0:0:0:0:
428,359,77283,1,8,0:1:0:0:
428,359,77459,2,0,P|389:349|327:363,1,99.9999999999999,8|8,0:0|0:0,0:0:0:0:
301,264,78165,2,0,P|319:223|302:169,1,99.9999999999999,12|8,1:2|0:0,0:0:0:0:
263,141,78695,1,8,0:1:0:0:
263,141,78871,2,0,P|245:93|267:36,1,99.9999999999999,8|8,0:0|0:0,0:0:0:0:
159,18,79577,6,0,L|42:24,1,99.9999999999999,12|8,1:2|0:0,0:0:0:0:
29,64,80107,1,8,0:0:0:0:
29,64,80283,2,0,L|37:124,1,50,8|8,0:0|0:0,0:0:0:0:
73,146,80636,2,0,L|66:195,1,50,8|8,0:0|0:0,0:0:0:0:
29,229,80989,1,12,1:2:0:0:
29,229,82400,6,0,P|50:278|27:339,1,99.9999999999999,4|2,0:0|3:2,0:0:0:0:
125,369,83106,2,0,L|233:362,1,99.9999999999999,2|2,3:2|3:2,0:0:0:0:
256,323,83636,1,0,0:0:0:0:
256,323,83812,2,0,L|355:329,1,99.9999999999999,2|2,3:2|3:2,0:0:0:0:
400,306,84341,1,10,0:0:0:0:
471,236,84695,1,0,0:0:0:0:
471,236,84870,2,0,L|479:184,1,50,2|0,3:2|0:0,0:0:0:0:
439,155,85223,6,0,P|456:107|434:41,1,99.9999999999999,4|2,0:0|3:2,0:0:0:0:
356,15,85930,1,2,3:2:0:0:
356,15,86106,2,0,L|286:20,1,50,8|2,0:0|2:2,0:0:0:0:
231,84,86635,2,0,L|121:70,1,99.9999999999999,2|2,3:2|3:2,0:0:0:0:
54,135,87341,2,0,L|41:195,1,50,8|8,0:0|0:0,0:0:0:0:
74,223,87695,1,10,0:0:0:0:
111,255,87870,1,10,0:0:0:0:
