osu file format v14

[General]
AudioFilename: audio.mp3
AudioLeadIn: 0
PreviewTime: 17194
Countdown: 0
SampleSet: Soft
StackLeniency: 0.3
Mode: 0
LetterboxInBreaks: 0
WidescreenStoryboard: 0

[Editor]
DistanceSpacing: 1.6
BeatDivisor: 8
GridSize: 16
TimelineZoom: 2.1

[Metadata]
Title:Tiny Light (TV Size)
TitleUnicode:Tiny Light (TV Size)
Artist:Kito Akari
ArtistUnicode:鬼頭明里
Creator:Shiratoi
Version:No. 7
Source:地縛少年花子くん
Tags:Jibaku Shounen Hanako-kun Toilet-bound Japanese Anime Ending ED Kitou Desire Again hokichi
BeatmapID:2302346
BeatmapSetID:1102078

[Difficulty]
HPDrainRate:6
CircleSize:4
OverallDifficulty:8
ApproachRate:9
SliderMultiplier:1.8
SliderTickRate:1

[Events]
//Background and Video events
0,0,"hanako.jpg",0,0
//Break Periods
//Storyboard Layer 0 (Background)
//Storyboard Layer 1 (Fail)
//Storyboard Layer 2 (Pass)
//Storyboard Layer 3 (Foreground)
//Storyboard Layer 4 (Overlay)
//Storyboard Sound Samples

[TimingPoints]
518,352.941176470588,4,2,1,30,1,0
518,-142.857142857143,4,2,1,30,0,0
11341,375,4,2,1,30,1,0
11812,352.941176470588,4,2,1,30,1,0
17106,-142.857142857143,4,2,1,5,0,0
17459,-166.666666666667,4,2,1,30,0,0
18782,-166.666666666667,4,2,1,5,0,0
18870,-166.666666666667,4,2,1,30,0,0
21606,-166.666666666667,4,2,1,5,0,0
21694,-166.666666666667,4,2,1,30,0,0
23017,-166.666666666667,4,2,1,5,0,0
23106,-166.666666666667,4,2,1,30,0,0
28754,-142.857142857143,4,2,1,40,0,0
31488,-142.857142857143,4,2,1,5,0,0
31576,-142.857142857143,4,2,1,40,0,0
33253,-142.857142857143,4,2,1,5,0,0
33341,-142.857142857143,4,2,1,40,0,0
33782,-142.857142857143,4,2,1,5,0,0
33870,-142.857142857143,4,2,1,40,0,0
34312,-142.857142857143,4,2,1,5,0,0
34400,-142.857142857143,4,2,1,40,0,0
40048,-133.333333333333,4,2,1,40,0,0
48517,-526.315789473684,4,2,1,40,0,0
49929,-526.315789473684,4,2,1,50,0,0
50635,-111.111111111111,4,2,1,30,0,0
51341,-100,4,2,1,70,0,1
51606,-100,4,2,1,5,0,1
51694,-100,4,2,1,70,0,1
53723,-100,4,2,1,5,0,1
53812,-100,4,2,1,70,0,1
54429,-100,4,2,1,5,0,1
54517,-100,4,2,1,70,0,1
55841,-100,4,2,1,5,0,1
55929,-100,4,2,1,70,0,1
57253,-100,4,2,1,5,0,1
57341,-100,4,2,1,70,0,1
58665,-100,4,2,1,5,0,1
58753,-100,4,2,1,70,0,1
59370,-100,4,2,1,5,0,1
59459,-100,4,2,1,70,0,1
60076,-100,4,2,1,5,0,1
60165,-100,4,2,1,70,0,1
61224,-100,4,2,1,40,0,1
61577,-100,4,2,1,50,0,1
61930,-100,4,2,1,60,0,1
62283,-100,4,2,1,70,0,1
63959,-100,4,2,1,5,0,1
64047,-100,4,2,1,70,0,1
66782,-100,4,2,1,5,0,1
66870,-100,4,2,1,70,0,1
74194,-100,4,2,1,5,0,1
74282,-100,4,2,1,70,0,1
76753,-100,4,2,1,50,0,1
78165,-100,4,2,1,60,0,1
79576,-100,4,2,1,70,0,1
80988,-125,4,2,1,60,0,0
82401,-125,4,2,1,40,0,0

[Colours]
Combo1 : 221,174,111
Combo2 : 205,97,97
Combo3 : 160,123,198
Combo4 : 124,155,197

[HitObjects]
344,278,518,5,2,0:1:0:0:
300,287,694,1,0,0:0:0:0:
267,260,871,1,0,0:0:0:0:
267,216,1047,1,2,0:0:0:0:
300,189,1223,1,0,0:0:0:0:
344,198,1400,1,0,0:0:0:0:
362,238,1576,1,2,0:1:0:0:
362,238,2636,5,2,0:0:0:0:
344,198,2813,1,0,0:0:0:0:
300,189,2989,1,0,0:0:0:0:
267,216,3166,1,0,0:0:0:0:
361,237,3342,6,0,L|424:228,2,62.9999980773926,2|0|0,0:0|0:0|0:0,0:0:0:0:
362,348,3871,2,0,P|387:300|341:225,1,125.999996154785,2|0,0:0|0:0,0:0:0:0:
361,237,4401,1,2,0:0:0:0:
133,358,6165,5,2,0:1:0:0:
71,371,6341,1,0,0:0:0:0:
24,332,6518,1,0,0:0:0:0:
24,270,6694,1,2,0:0:0:0:
71,231,6870,1,0,0:0:0:0:
133,245,7047,1,0,0:0:0:0:
158,301,7223,1,2,0:1:0:0:
158,301,8282,5,2,0:0:0:0:
133,245,8459,1,0,0:0:0:0:
71,231,8635,1,0,0:0:0:0:
24,270,8812,1,0,0:0:0:0:
158,301,8989,6,0,L|219:288,2,62.9999980773926,2|0|0,0:0|0:0|0:0,0:0:0:0:
144,187,9517,2,0,P|174:245|137:317,1,125.999996154785,2|0,0:0|0:0,0:0:0:0:
156,299,10047,1,2,0:0:0:0:
255,79,10753,6,0,L|205:76,2,41.9999987182618,2|0|0,0:0|0:0|0:0,0:0:0:0:
314,17,11106,2,0,L|364:14,2,41.9999987182618,2|0|0,0:0|0:0|0:0,0:0:0:0:
337,94,11434,5,2,0:0:0:0:
335,112,11528,1,0,0:0:0:0:
333,131,11622,1,0,0:0:0:0:
331,150,11716,1,0,0:0:0:0:
329,169,11809,5,2,0:1:0:0:
403,152,11988,1,0,0:0:0:0:
465,195,12165,1,0,0:0:0:0:
345,226,12341,5,2,0:1:0:0:
398,184,12518,1,0,0:0:0:0:
465,195,12695,1,0,0:0:0:0:
379,266,12870,5,2,0:1:0:0:
406,211,13047,1,0,0:0:0:0:
465,195,13224,1,0,0:1:0:0:
422,286,13400,5,2,0:0:0:0:
423,230,13577,1,0,0:0:0:0:
465,195,13754,1,0,0:0:0:0:
465,286,13929,5,2,0:0:0:0:
444,239,14106,1,0,0:0:0:0:
465,195,14283,1,0,0:0:0:0:
465,195,14635,5,2,0:1:0:0:
256,192,14723,12,2,16047,0:0:0:0:
256,192,16135,12,0,17106,0:0:0:0:
84,120,17460,6,0,B|146:93|134:143|201:109,1,107.999996704102,2|0,0:1|0:0,0:0:0:0:
77,21,17989,2,0,P|98:63|72:132,1,107.999996704102,2|0,0:0|0:0,0:0:0:0:
187,191,18518,2,0,P|176:152|196:105,1,80.9999975280763,2|0,0:0|0:0,0:0:0:0:
188,114,18871,1,2,0:0:0:0:
188,114,20283,6,0,P|216:126|257:120,1,53.9999983520508,2|0,0:1|0:0,0:0:0:0:
370,41,20636,1,2,0:0:0:0:
344,132,20812,1,0,0:0:0:0:
344,132,21342,2,0,P|390:122|427:137,1,80.9999975280763
420,132,21695,2,0,B|406:200|406:200|427:245,1,107.999996704102,2|0,0:1|0:0,0:0:0:0:
340,346,22224,2,0,B|354:278|354:278|338:243,1,107.999996704102,2|0,0:0|0:0,0:0:0:0:
259,354,22754,2,0,L|347:345,1,80.9999975280763,2|0,0:0|0:0,0:0:0:0:
339,345,23107,5,2,0:0:0:0:
165,215,23636,1,0,0:0:0:0:
165,215,24165,2,0,P|170:183|160:157,1,53.9999983520508
102,278,24518,5,2,0:0:0:0:
102,278,25930,5,2,0:0:0:0:
120,323,26107,1,0,0:0:0:0:
165,342,26283,1,2,0:0:0:0:
210,323,26460,1,0,0:0:0:0:
229,278,26636,1,0,0:0:0:0:
210,233,26812,1,2,0:0:0:0:
165,215,26989,1,2,0:0:0:0:
120,233,27165,1,2,0:1:0:0:
120,233,27871,6,0,L|83:229,3,26.9999991760254
210,323,28401,2,0,P|238:311|293:322,1,80.9999975280763
286,318,28754,5,12,0:0:0:0:
222,171,28930,2,0,L|208:242,1,62.9999980773926,2|2,3:2|0:0,0:0:0:0:
315,177,29283,2,0,L|289:48,1,125.999996154785
352,43,29812,2,0,L|282:54,1,62.9999980773926,2|0,0:0|0:0,0:0:0:0:
388,129,30165,6,0,P|443:108|518:142,2,125.999996154785,0|2|0,0:0|0:0|0:0,0:0:0:0:
459,19,31047,1,2,3:2:0:0:
504,128,31224,2,0,P|480:176|498:226,1,94.499997116089,2|0,0:0|0:0,0:0:0:0:
489,213,31576,5,2,3:2:0:0:
388,305,31754,2,0,L|397:228,1,62.9999980773926,2|2,3:2|0:0,0:0:0:0:
262,317,32107,2,0,L|389:304,1,125.999996154785
287,224,32636,1,2,0:0:0:0:
262,317,32812,1,0,0:0:0:0:
183,176,32989,6,0,P|201:218|175:275,1,94.499997116089,2|0,0:1|0:0,0:0:0:0:
187,262,33342,1,2,3:2:0:0:
263,141,33518,2,0,P|245:99|271:42,1,94.499997116089,2|0,0:1|0:0,0:0:0:0:
259,55,33871,1,2,3:2:0:0:
183,176,34048,2,0,P|142:192|80:169,1,94.499997116089,2|0,0:0|0:0,0:0:0:0:
94,180,34400,5,2,3:2:0:0:
18,87,34577,2,0,L|2:171,1,62.9999980773926,2|2,3:2|0:0,0:0:0:0:
106,305,34930,2,0,L|92:166,1,125.999996154785
43,310,35459,2,0,L|134:302,1,62.9999980773926,2|0,0:0|0:0,0:0:0:0:
172,352,35724,1,0,0:0:0:0:
181,364,35811,6,0,L|250:368,1,62.9999980773926,2|0,3:2|0:0,0:0:0:0:
364,246,36165,2,0,P|341:290|363:353,1,94.499997116089,2|0,0:0|0:0,0:0:0:0:
348,332,36518,1,0,0:0:0:0:
288,186,36694,1,2,3:2:0:0:
426,240,36871,2,0,L|335:248,1,62.9999980773926,2|0,0:0|0:0,0:0:0:0:
297,198,37136,1,0,0:0:0:0:
288,186,37223,6,0,L|219:182,1,62.9999980773926,2|2,3:2|3:2,0:0:0:0:
337,101,37577,1,0,0:0:0:0:
396,160,37754,2,0,P|420:117|381:32,1,125.999996154785,2|0,0:0|0:0,0:0:0:0:
288,186,38283,1,2,0:0:0:0:
232,27,38459,6,0,L|162:33,1,62.9999980773926,2|0,0:1|0:0,0:0:0:0:
46,181,38812,1,0,0:0:0:0:
82,60,38989,1,2,3:2:0:0:
155,205,39165,1,2,0:1:0:0:
78,322,39341,2,0,P|69:287|78:257,1,62.9999980773926,0|2,0:0|3:2,0:0:0:0:
155,374,39695,1,2,0:0:0:0:
238,256,39871,1,0,0:0:0:0:
241,267,39959,1,2,0:0:0:0:
245,280,40047,5,2,3:2:0:0:
335,185,40224,1,2,3:2:0:0:
445,216,40400,1,2,0:0:0:0:
463,328,40577,1,0,0:0:0:0:
463,328,41106,1,2,3:2:0:0:
445,216,41283,1,0,0:0:0:0:
341,333,41459,6,0,P|404:305|473:340,1,135.000005149842,2|2,0:1|3:2,0:0:0:0:
326,225,41989,1,0,0:0:0:0:
454,149,42165,2,0,L|442:232,1,67.5000025749208,2|2,0:1|3:2,0:0:0:0:
344,111,42518,2,0,L|334:44,1,67.5000025749208
251,34,42782,1,2,0:0:0:0:
245,51,42871,6,0,B|168:22|196:79|102:56,1,135.000005149842,2|0,0:0|0:0,0:0:0:0:
35,161,43401,1,2,0:0:0:0:
35,161,43929,1,2,3:2:0:0:
114,58,44107,1,0,0:0:0:0:
127,192,44282,2,0,L|112:41,1,135.000005149842,2|2,0:1|3:2,0:0:0:0:
235,171,44811,2,0,L|224:239,1,67.5000025749208,0|2,0:0|0:0,0:0:0:0:
127,192,45165,1,2,3:2:0:0:
44,304,45342,2,0,L|34:224,1,67.5000025749208
36,238,45606,1,2,0:0:0:0:
36,238,45695,5,2,3:2:0:0:
38,131,45870,1,2,3:2:0:0:
153,93,46047,1,2,0:0:0:0:
235,171,46224,1,0,0:0:0:0:
235,171,46753,1,2,3:2:0:0:
153,93,46930,1,0,0:0:0:0:
232,9,47107,6,0,L|238:90,1,67.5000025749208
335,192,47459,2,0,L|339:124,1,67.5000025749208,2|0,3:2|0:0,0:0:0:0:
456,191,47811,2,0,P|403:166|330:196,1,135.000005149842,2|2,0:0|0:0,0:0:0:0:
377,305,48342,1,0,0:0:0:0:
377,305,48430,1,2,0:0:0:0:
377,305,48517,6,0,P|382:246|329:188,1,136.799998330078,2|8,0:0|0:0,0:0:0:0:
333,190,50635,6,0,L|282:195,3,40.4999987640381,2|0|0|0,0:0|0:0|0:0|0:0,0:0:0:0:
260,103,50988,2,0,L|219:99,1,40.4999987640381,2|2,0:0|0:0,0:0:0:0:
139,222,51164,2,0,L|180:219,1,40.4999987640381,2|2,0:0|0:0,0:0:0:0:
58,118,51342,6,0,B|79:191|29:181|56:261,1,135,4|0,0:0|0:0,0:0:0:0:
52,249,51695,1,8,0:0:0:0:
156,73,51870,1,0,0:0:0:0:
224,233,52047,2,0,P|182:216|138:221,1,90,2|0,1:2|1:2,0:0:0:0:
282,344,52401,1,8,0:0:0:0:
333,190,52577,1,0,0:0:0:0:
333,190,52665,1,8,0:0:0:0:
333,190,52754,6,0,P|377:207|442:182,1,90,2|0,1:2|0:0,0:0:0:0:
299,35,53107,1,8,0:0:0:0:
333,190,53282,1,2,0:0:0:0:
438,65,53459,2,0,L|417:198,1,135,0|0,1:2|0:0,0:0:0:0:
417,198,53812,1,8,0:0:0:0:
337,38,53989,1,0,0:0:0:0:
319,31,54077,1,8,0:0:0:0:
299,35,54165,6,0,B|277:61|231:55|231:55|201:25|160:34,1,135,4|0,1:2|0:0,0:0:0:0:
176,31,54518,1,8,0:0:0:0:
94,183,54695,1,0,0:0:0:0:
25,55,54870,2,0,L|10:143,1,90,2|0,1:2|1:2,0:0:0:0:
178,112,55224,1,8,0:0:0:0:
135,276,55401,1,0,0:0:0:0:
129,288,55489,1,8,0:0:0:0:
123,299,55577,6,0,P|87:261|116:160,1,135,2|0,1:2|0:0,0:0:0:0:
93,182,55930,1,8,0:0:0:0:
22,346,56107,1,0,0:0:0:0:
93,182,56283,2,0,P|139:201|201:173,1,90,2|0,1:2|1:2,0:0:0:0:
353,307,56635,1,8,0:0:0:0:
328,296,56724,1,8,0:0:0:0:
301,292,56812,1,0,0:0:0:0:
274,294,56900,1,8,0:0:0:0:
249,304,56989,6,0,B|222:226|278:251|253:164,1,135,4|0,1:2|0:0,0:0:0:0:
255,173,57342,1,8,0:0:0:0:
353,307,57518,1,0,0:0:0:0:
434,124,57695,2,0,L|344:114,1,90,2|0,1:2|1:2,0:0:0:0:
475,227,58048,1,8,0:0:0:0:
344,114,58224,1,0,0:0:0:0:
344,114,58312,1,8,0:0:0:0:
344,114,58401,6,0,B|302:55|354:11|354:11|394:41,1,135,2|0,1:2|0:0,0:0:0:0:
368,22,58754,1,8,0:0:0:0:
255,173,58929,1,2,0:0:0:0:
89,53,59107,2,0,L|252:34,1,135,0|0,1:2|0:0,0:0:0:0:
223,38,59459,1,8,0:0:0:0:
166,238,59636,1,0,0:0:0:0:
160,246,59724,1,8,0:0:0:0:
153,254,59812,6,0,B|132:209|132:209|151:162|151:162|134:101,1,135,4|0,1:2|0:0,0:0:0:0:
141,128,60165,1,8,0:0:0:0:
56,287,60342,1,0,0:0:0:0:
56,287,60430,1,8,0:0:0:0:
56,287,60518,1,2,1:2:0:0:
21,135,60695,1,0,1:2:0:0:
153,254,60871,1,8,0:0:0:0:
149,84,61048,2,0,L|139:143,1,45
207,192,61223,5,8,0:1:0:0:
232,228,61312,1,8,0:1:0:0:
236,272,61400,1,8,0:1:0:0:
216,312,61488,1,8,0:1:0:0:
179,339,61577,1,8,0:1:0:0:
216,362,61665,1,8,0:1:0:0:
261,364,61753,1,8,0:1:0:0:
300,343,61841,1,8,0:1:0:0:
331,309,61930,6,8,P|351:299|400:302,1,45
505,351,62107,2,8,P|482:347|462:337,1,45
446,244,62283,1,8,0:0:0:0:
468,205,62371,1,8,0:0:0:0:
471,161,62459,1,8,0:0:0:0:
452,121,62547,1,8,0:0:0:0:
419,93,62636,5,12,1:2:0:0:
315,224,62812,1,0,1:2:0:0:
330,54,62989,1,8,0:0:0:0:
446,244,63165,1,0,1:2:0:0:
264,139,63342,1,2,0:0:0:0:
452,121,63518,1,0,1:2:0:0:
331,351,63694,2,0,B|301:271|301:271|323:193,1,135,12|0,0:0|0:0,0:0:0:0:
314,223,64047,5,2,1:2:0:0:
170,335,64224,1,8,0:0:0:0:
94,171,64401,2,0,L|206:178,1,90,8|0,0:0|0:0,0:0:0:0:
37,321,64754,1,2,1:2:0:0:
181,178,64930,1,0,1:2:0:0:
65,89,65107,1,8,0:0:0:0:
30,116,65195,1,8,0:0:0:0:
12,157,65283,1,8,0:0:0:0:
17,202,65371,1,8,0:0:0:0:
42,238,65459,5,12,1:2:0:0:
164,58,65636,1,0,1:2:0:0:
129,258,65812,1,8,0:0:0:0:
248,64,65989,2,0,P|203:47|146:73,1,90,0|2,1:2|0:0,0:0:0:0:
272,213,66342,1,0,1:2:0:0:
398,23,66518,2,0,B|376:106|376:106|405:168,1,135,12|0,0:0|0:0,0:0:0:0:
396,150,66871,5,2,1:2:0:0:
248,64,67048,1,8,0:0:0:0:
248,64,67136,1,8,0:0:0:0:
248,64,67224,1,8,0:0:0:0:
272,213,67401,1,0,1:2:0:0:
398,23,67577,1,10,0:0:0:0:
483,215,67754,1,0,1:2:0:0:
363,146,67930,1,8,0:0:0:0:
380,148,68017,1,8,0:0:0:0:
396,150,68106,1,8,0:0:0:0:
252,338,68283,5,12,1:2:0:0:
186,137,68459,1,8,0:1:0:0:
371,253,68636,1,8,0:0:0:0:
123,286,68812,1,8,0:1:0:0:
284,117,68988,1,8,0:0:0:0:
339,334,69165,1,8,0:1:0:0:
127,201,69342,1,8,0:0:0:0:
363,146,69518,1,8,0:1:0:0:
363,146,69606,1,8,0:0:0:0:
363,146,69694,5,12,1:2:0:0:
173,354,69871,1,8,0:1:0:0:
186,137,70048,1,8,0:0:0:0:
18,337,70224,1,8,0:1:0:0:
40,100,70401,1,8,0:0:0:0:
123,286,70577,1,8,0:1:0:0:
91,21,70754,1,8,0:0:0:0:
43,235,70930,1,8,0:0:0:0:
29,213,71018,1,8,0:0:0:0:
18,189,71107,5,12,1:2:0:0:
227,252,71283,1,8,0:0:0:0:
178,8,71459,1,8,0:0:0:0:
18,189,71636,1,8,0:0:0:0:
290,194,71812,1,8,0:0:0:0:
91,21,71989,1,8,0:0:0:0:
123,286,72165,1,8,0:0:0:0:
326,26,72342,1,8,0:0:0:0:
356,30,72430,1,8,0:0:0:0:
391,36,72518,5,12,1:2:0:0:
422,263,72695,1,8,0:0:0:0:
326,26,72870,1,8,0:0:0:0:
310,273,73048,1,8,0:0:0:0:
451,41,73224,1,12,1:2:0:0:
180,125,73401,1,8,0:0:0:0:
451,41,73577,1,8,0:0:0:0:
420,39,73665,1,8,0:0:0:0:
391,36,73754,1,8,0:0:0:0:
356,30,73842,1,8,0:0:0:0:
326,26,73929,6,0,B|249:7|277:69|171:36,1,135,4|0,1:2|0:0,0:0:0:0:
196,42,74283,1,8,0:0:0:0:
345,180,74459,1,0,0:0:0:0:
196,42,74636,2,0,P|174:96|191:141,1,90,2|0,1:2|1:2,0:0:0:0:
326,26,74989,1,8,0:0:0:0:
241,224,75165,1,0,1:2:0:0:
87,34,75341,5,4,1:2:0:0:
264,97,75518,1,8,0:0:0:0:
264,97,75607,1,8,0:0:0:0:
264,97,75695,1,8,0:0:0:0:
98,216,75871,1,0,1:2:0:0:
196,42,76048,1,8,0:0:0:0:
172,277,76224,1,0,1:2:0:0:
397,231,76401,1,8,0:0:0:0:
363,201,76489,1,8,0:0:0:0:
320,189,76577,1,8,0:0:0:0:
277,197,76665,1,8,0:0:0:0:
241,224,76754,5,12,1:2:0:0:
379,110,76930,1,8,0:1:0:0:
319,281,77107,1,8,0:0:0:0:
264,97,77283,1,8,0:1:0:0:
397,231,77459,1,8,0:0:0:0:
434,50,77636,1,8,0:1:0:0:
320,189,77812,1,8,0:0:0:0:
508,124,77989,1,8,0:1:0:0:
412,355,78165,5,12,1:2:0:0:
379,110,78342,1,8,0:1:0:0:
504,283,78518,1,8,0:0:0:0:
241,224,78695,1,8,0:1:0:0:
508,124,78871,1,8,0:0:0:0:
321,362,79048,1,8,0:1:0:0:
264,97,79224,1,8,0:0:0:0:
129,331,79401,1,8,0:1:0:0:
88,36,79577,5,12,1:2:0:0:
223,323,79753,1,8,0:0:0:0:
21,131,79930,1,8,0:0:0:0:
320,189,80107,1,8,0:0:0:0:
34,311,80283,1,8,0:0:0:0:
185,44,80459,1,8,0:0:0:0:
372,266,80636,1,8,0:0:0:0:
402,233,80724,1,8,0:0:0:0:
414,190,80812,1,8,0:0:0:0:
406,146,80900,1,8,0:0:0:0:
379,110,80988,5,12,1:2:0:0:
379,110,82223,2,0,L|370:82,3,18
379,110,82400,6,0,P|323:136|235:93,1,144,4|2,0:0|3:2,0:0:0:0:
181,234,82930,1,0,0:0:0:0:
248,109,83106,2,0,P|264:154|247:197,1,72,2|0,3:2|0:0,0:0:0:0:
256,328,83459,2,0,P|252:292|267:260,1,72,2|0,3:2|0:0,0:0:0:0:
337,218,83723,1,8,0:0:0:0:
352,226,83812,5,2,3:2:0:0:
453,365,83989,1,0,0:0:0:0:
478,195,84164,1,2,3:2:0:0:
381,369,84341,2,0,L|479:363,1,72,10|0,0:0|3:2,0:0:0:0:
352,226,84695,1,0,0:0:0:0:
477,125,84871,2,0,B|486:164|486:164|470:220,1,72,2|0,3:2|0:0,0:0:0:0:
390,140,85136,1,2,3:2:0:0:
372,131,85223,6,0,B|321:147|321:147|277:131|277:131|222:147,1,144,4|2,0:0|3:2,0:0:0:0:
141,46,85754,1,0,0:0:0:0:
85,202,85929,1,2,3:2:0:0:
212,53,86106,2,0,L|122:44,1,72,8|2,0:0|2:2,0:0:0:0:
20,146,86459,1,0,0:0:0:0:
20,146,86547,1,2,3:2:0:0:
20,146,86635,6,0,P|57:123|159:156,1,144,2|2,3:2|3:2,0:0:0:0:
14,265,87164,1,0,0:0:0:0:
149,145,87341,1,8,0:0:0:0:
115,350,87517,1,8,0:0:0:0:
20,146,87694,1,10,0:0:0:0:
230,270,87870,1,10,0:0:0:0:
