osu file format v14

[General]
AudioFilename: audio.mp3
AudioLeadIn: 0
PreviewTime: 17194
Countdown: 0
SampleSet: Soft
StackLeniency: 0.7
Mode: 0
LetterboxInBreaks: 0
WidescreenStoryboard: 0

[Editor]
DistanceSpacing: 1.9
BeatDivisor: 4
GridSize: 16
TimelineZoom: 1.8

[Metadata]
Title:Tiny Light (TV Size)
TitleUnicode:Tiny Light (TV Size)
Artist:Kito Akari
ArtistUnicode:鬼頭明里
Creator:Shiratoi
Version:Hard
Source:地縛少年花子くん
Tags:Jibaku Shounen Hanako-kun Toilet-bound Japanese Anime Ending ED Kitou Desire Again hokichi
BeatmapID:2313250
BeatmapSetID:1102078

[Difficulty]
HPDrainRate:5
CircleSize:4
OverallDifficulty:6
ApproachRate:7.5
SliderMultiplier:1.3
SliderTickRate:1

[Events]
//Background and Video events
0,0,"hanako.jpg",0,0
//Break Periods
//Storyboard Layer 0 (Background)
//Storyboard Layer 1 (Fail)
//Storyboard Layer 2 (Pass)
//Storyboard Layer 3 (Foreground)
//Storyboard Layer 4 (Overlay)
//Storyboard Sound Samples

[TimingPoints]
518,352.941176470588,4,2,1,30,1,0
518,-142.857142857143,4,2,1,30,0,0
11341,375,4,2,1,30,1,0
11812,352.941176470588,4,2,1,30,1,0
16047,-166.666666666667,4,2,1,30,0,0
17459,-142.857142857143,4,2,1,30,0,0
28753,-133.333333333333,4,2,1,40,0,0
40047,-125,4,2,1,40,0,0
49929,-125,4,2,1,50,0,0
51341,-100,4,2,1,70,0,1
52312,-100,4,2,1,5,0,1
52400,-100,4,2,1,70,0,1
55488,-100,4,2,1,5,0,1
55576,-100,4,2,1,70,0,1
57959,-100,4,2,1,5,0,1
58047,-100,4,2,1,70,0,1
61223,-100,4,2,1,40,0,1
61576,-100,4,2,1,50,0,1
61929,-100,4,2,1,60,0,1
62282,-100,4,2,1,70,0,1
76753,-100,4,2,1,50,0,1
78165,-100,4,2,1,60,0,1
79576,-100,4,2,1,70,0,1
80988,-100,4,2,1,60,0,0
82401,-100,4,2,1,40,0,0

[Colours]
Combo1 : 221,174,111
Combo2 : 205,97,97
Combo3 : 160,123,198
Combo4 : 124,155,197

[HitObjects]
377,333,518,6,0,L|436:329,2,45.4999986114502,2|0|0,0:1|0:0|0:0,0:0:0:0:
307,274,1047,2,0,L|261:270,2,45.4999986114502,2|0|0,0:0|0:0|0:0,0:0:0:0:
385,227,1576,1,2,0:1:0:0:
385,227,2635,2,0,P|392:196|384:167,1,45.4999986114502,2|0,0:0|0:0,0:0:0:0:
325,117,2988,2,0,P|318:86|326:57,1,45.4999986114502
401,32,3341,6,0,L|462:25,2,45.4999986114502,2|0|0,0:0|0:0|0:0,0:0:0:0:
319,72,3870,2,0,L|220:61,1,90.9999972229005,2|0,0:0|0:0,0:0:0:0:
175,140,4400,1,2,0:0:0:0:
175,140,6165,6,0,L|178:195,2,45.4999986114502,2|0|0,0:1|0:0|0:0,0:0:0:0:
84,115,6694,2,0,L|86:69,2,45.4999986114502,2|0|0,0:0|0:0|0:0,0:0:0:0:
33,198,7223,1,2,0:1:0:0:
33,198,8282,2,0,P|65:194|93:201,1,45.4999986114502,2|0,0:0|0:0,0:0:0:0:
163,211,8635,2,0,P|195:215|223:208,1,45.4999986114502
282,264,8988,6,0,L|278:328,2,45.4999986114502,2|0|0,0:0|0:0|0:0,0:0:0:0:
372,256,9517,2,0,L|272:264,1,90.9999972229005,2|0,0:0|0:0,0:0:0:0:
315,177,10047,1,2,0:0:0:0:
315,177,10753,2,0,P|297:129|317:85,1,90.9999972229005,2|2,0:0|0:0,0:0:0:0:
466,211,11434,2,0,L|518:205,4,32.5,2|0|0|0|0,0:0|0:0|0:0|0:0|0:0,0:0:0:0:
256,192,11900,12,2,14635,0:1:0:0:
40,314,16047,6,0,B|174:249|136:377|271:297,1,233.999992858887,2|0,0:0|0:0,0:0:0:0:
261,303,17459,6,0,P|246:270|265:210,1,90.9999972229005,2|0,0:1|0:0,0:0:0:0:
338,200,17988,2,0,P|353:167|334:107,1,90.9999972229005,2|0,0:0|0:0,0:0:0:0:
278,62,18517,1,2,0:0:0:0:
278,62,18870,5,2,0:0:0:0:
278,62,20282,6,0,L|183:71,1,90.9999972229005,2|2,0:1|0:0,0:0:0:0:
169,151,20812,2,0,L|78:142,1,90.9999972229005
39,214,21341,1,0,0:0:0:0:
39,214,21694,6,0,P|57:243|46:314,1,90.9999972229005,2|0,0:1|0:0,0:0:0:0:
116,352,22223,2,0,P|145:334|216:345,1,90.9999972229005,2|0,0:0|0:0,0:0:0:0:
275,297,22753,1,2,0:0:0:0:
275,297,23106,5,2,0:0:0:0:
137,185,23635,1,0,0:0:0:0:
137,185,24165,2,0,P|129:157|137:128,1,45.4999986114502
176,61,24517,5,2,0:0:0:0:
176,61,25929,6,0,L|238:67,2,45.4999986114502,2|0|2,0:0|0:0|0:0,0:0:0:0:
89,117,26459,2,0,L|27:123,2,45.4999986114502,0|0|2,0:0|0:0|0:0,0:0:0:0:
184,156,26988,1,2,0:0:0:0:
124,221,27165,1,2,0:1:0:0:
124,221,28576,1,0,0:0:0:0:
124,221,28665,1,0,0:0:0:0:
124,221,28753,6,0,L|186:214,1,48.750001859665,12|2,0:0|3:2,0:0:0:0:
237,274,29106,1,2,0:0:0:0:
310,227,29282,2,0,L|425:237,1,97.50000371933
471,175,29812,2,0,P|484:140|480:114,1,48.750001859665,2|0,0:0|0:0,0:0:0:0:
419,68,30165,6,0,P|468:83|523:49,2,97.50000371933,0|2|0,0:0|0:0|0:0,0:0:0:0:
341,109,31047,1,2,3:2:0:0:
271,41,31223,2,0,L|257:109,1,48.750001859665,2|0,0:0|0:0,0:0:0:0:
187,156,31576,5,2,3:2:0:0:
131,80,31753,1,2,3:2:0:0:
89,163,31929,2,0,L|203:154,1,97.50000371933
238,226,32459,1,0,0:0:0:0:
156,258,32635,2,0,L|148:320,1,48.750001859665,2|0,0:0|0:0,0:0:0:0:
220,354,32988,6,0,B|300:320|284:382|365:340,2,146.250005578995,2|2|2,0:1|0:1|0:0,0:0:0:0:
220,354,34400,6,0,L|228:298,1,48.750001859665,2|2,3:2|3:2,0:0:0:0:
316,264,34753,1,2,0:0:0:0:
287,181,34929,2,0,L|176:170,1,97.50000371933
141,97,35459,2,0,L|82:103,1,48.750001859665,2|0,0:0|0:0,0:0:0:0:
16,145,35812,6,0,P|39:181|18:250,1,97.50000371933,2|2,3:2|0:0,0:0:0:0:
31,233,36517,2,0,L|95:228,1,48.750001859665,0|2,0:0|3:2,0:0:0:0:
125,304,36870,2,0,L|173:307,1,48.750001859665,2|0,0:0|0:0,0:0:0:0:
244,255,37223,6,0,B|302:242|302:242|353:262,1,97.50000371933,2|0,3:2|0:0,0:0:0:0:
429,311,37753,2,0,L|417:196,1,97.50000371933,2|0,0:0|0:0,0:0:0:0:
341,162,38282,1,2,0:0:0:0:
302,77,38459,6,0,L|239:87,1,48.750001859665,2|0,0:1|0:0,0:0:0:0:
181,25,38812,2,0,L|132:18,1,48.750001859665,0|2,0:0|3:2,0:0:0:0:
69,86,39165,1,2,0:1:0:0:
69,86,40047,6,0,B|81:147|81:147|59:203,1,104,2|2,3:2|0:0,0:0:0:0:
157,223,40576,2,0,P|133:269|154:335,1,104
231,364,41106,1,2,3:2:0:0:
285,285,41282,1,0,0:0:0:0:
354,348,41459,6,0,L|479:341,1,104,2|2,0:1|3:2,0:0:0:0:
457,342,42165,1,2,0:1:0:0:
348,83,42870,6,0,P|369:123|348:186,1,104,2|0,0:0|0:0,0:0:0:0:
266,211,43400,1,2,0:0:0:0:
266,211,43929,1,2,3:2:0:0:
174,233,44106,1,0,0:0:0:0:
152,140,44282,6,0,L|48:151,2,104,2|2|2,0:1|3:2|0:0,0:0:0:0:
351,324,45694,6,0,B|357:294|357:294|348:262,1,52,2|2,3:2|3:2,0:0:0:0:
266,219,46047,1,2,0:0:0:0:
222,306,46223,2,0,L|110:299,1,104
50,351,46753,1,2,3:2:0:0:
50,351,46929,6,0,P|30:304|53:245,1,104,0|0,0:0|0:0,0:0:0:0:
119,300,47459,1,2,3:2:0:0:
163,226,47635,2,0,L|275:219,1,104,0|0,0:0|0:0,0:0:0:0:
341,162,48165,1,2,0:0:0:0:
377,246,48341,1,0,0:0:0:0:
440,170,48517,5,2,0:0:0:0:
256,192,48606,12,8,49929,0:0:0:0:
99,104,50988,6,0,L|109:62,3,26,2|2|2|2,0:0|0:0|0:0|0:0,0:0:0:0:
80,128,51341,6,0,B|159:116|159:116|218:139,1,130,4|8,0:0|0:0,0:0:0:0:
271,197,51870,1,0,0:0:0:0:
318,111,52047,2,0,L|428:121,1,97.5,2|0,1:2|0:0,0:0:0:0:
427,107,52400,1,8,0:0:0:0:
476,190,52576,1,0,0:0:0:0:
400,252,52753,6,0,P|371:311|401:368,1,130,2|8,1:2|0:0,0:0:0:0:
288,322,53282,2,0,B|215:296|233:342|155:319,1,130,2|0,0:0|0:0,0:0:0:0:
66,347,53812,2,0,L|76:275,1,65,8|0,0:0|0:0,0:0:0:0:
67,269,54076,1,8,0:0:0:0:
60,260,54165,6,0,B|84:179|84:179|69:123,1,130,4|8,1:2|0:0,0:0:0:0:
89,38,54694,2,0,L|162:45,1,65,0|2,0:0|1:2,0:0:0:0:
213,121,55047,1,0,1:2:0:0:
276,47,55223,2,0,P|321:33|378:51,1,97.5,8|8,0:0|0:0,0:0:0:0:
368,44,55576,6,0,B|340:125|391:96|368:182,1,130,2|8,1:2|0:0,0:0:0:0:
456,122,56106,1,0,0:0:0:0:
499,219,56282,2,0,L|432:230,1,65,2|0,1:2|1:2,0:0:0:0:
400,342,56635,1,8,0:0:0:0:
307,280,56812,1,0,0:0:0:0:
295,286,56900,1,8,0:0:0:0:
286,293,56988,6,0,B|249:303|249:303|204:289|204:289|154:302,1,130,4|8,1:2|0:0,0:0:0:0:
89,366,57517,1,0,0:0:0:0:
21,295,57694,2,0,L|31:191,1,97.5,2|0,1:2|0:0,0:0:0:0:
19,183,58047,1,8,0:0:0:0:
111,226,58223,1,0,0:0:0:0:
92,116,58400,6,0,B|168:135|168:135|222:114,1,130,2|8,1:2|0:0,0:0:0:0:
259,44,58929,2,0,P|296:96|282:163,1,130,2|0,0:0|0:0,0:0:0:0:
318,250,59459,2,0,P|307:286|316:321,1,65,8|0,0:0|0:0,0:0:0:0:
322,320,59723,1,8,0:0:0:0:
335,327,59812,6,0,L|472:323,1,130,4|8,1:2|0:0,0:0:0:0:
495,230,60341,1,0,0:0:0:0:
426,160,60517,2,0,L|433:92,1,65,2|0,1:2|1:2,0:0:0:0:
334,95,60870,2,0,L|327:27,1,65,8|0,0:0|0:0,0:0:0:0:
230,18,61223,6,0,L|179:23,3,32.5,8|8|8|8,0:1|0:1|0:1|0:1,0:0:0:0:
163,56,61576,2,0,L|130:52,3,32.5,8|8|8|8,0:1|0:1|0:1|0:1,0:0:0:0:
85,70,61929,2,0,P|100:105|87:151,1,65,8|8,0:0|0:0,0:0:0:0:
40,210,62282,2,0,P|25:245|38:291,1,65,8|8,0:0|0:0,0:0:0:0:
98,356,62635,6,0,B|179:342|179:342|237:360,1,130,12|8,1:2|0:0,0:0:0:0:
171,258,63165,2,0,B|247:277|247:277|310:254,1,130,0|0,1:2|1:2,0:0:0:0:
371,182,63694,6,0,P|346:239|374:296,1,130,12|2,0:0|1:2,0:0:0:0:
462,337,64223,1,8,0:0:0:0:
489,251,64400,1,8,0:0:0:0:
489,251,64753,2,0,L|482:174,1,65,2|0,1:2|1:2,0:0:0:0:
430,103,65106,2,0,L|434:56,3,32.5,8|8|8|8,0:0|0:0|0:0|0:0,0:0:0:0:
409,46,65459,6,0,B|372:37|372:37|323:58|323:58|274:44,1,130,12|8,1:2|0:0,0:0:0:0:
331,148,65988,2,0,B|294:139|294:139|245:160|245:160|194:145,1,130,0|0,1:2|1:2,0:0:0:0:
133,225,66517,6,0,P|167:175|135:103,1,130,12|2,0:0|1:2,0:0:0:0:
52,86,67047,2,0,L|61:43,2,32.5,8|8|8,0:0|0:0|0:0,0:0:0:0:
12,175,67400,1,0,1:2:0:0:
51,263,67576,2,0,L|59:338,1,65,10|0,0:0|1:2,0:0:0:0:
150,359,67929,2,0,L|159:313,3,32.5,8|8|8|0,0:0|0:0|0:0|0:0,0:0:0:0:
182,319,68282,6,0,B|221:311|221:311|265:325,1,65,12|8,1:2|0:1,0:0:0:0:
337,288,68635,2,0,B|376:296|376:296|420:282,1,65,8|8,0:0|0:1,0:0:0:0:
463,213,68988,2,0,L|455:134,1,65,8|8,0:0|0:1,0:0:0:0:
379,104,69341,2,0,L|387:25,1,65,8|8,0:0|0:1,0:0:0:0:
294,92,69694,6,0,B|217:70|242:121|151:92,1,130,12|8,1:2|0:0,0:0:0:0:
89,37,70223,1,8,0:1:0:0:
30,115,70400,2,0,L|21:187,1,65,8|8,0:0|0:1,0:0:0:0:
115,208,70753,2,0,L|124:280,1,65,8|8,0:0|0:0,0:0:0:0:
60,363,71106,6,0,B|140:346|140:346|195:368,1,130,12|8,1:2|0:0,0:0:0:0:
246,288,71635,1,8,0:0:0:0:
296,361,71812,2,0,L|370:349,1,65,8|8,0:0|0:0,0:0:0:0:
422,275,72165,2,0,L|348:263,1,65,8|8,0:0|0:0,0:0:0:0:
288,196,72517,5,12,1:2:0:0:
199,215,72694,1,8,0:0:0:0:
135,156,72870,2,0,P|123:122|136:78,1,65,8|8,0:0|0:0,0:0:0:0:
194,22,73223,2,0,L|279:35,1,65,12|8,1:2|0:0,0:0:0:0:
322,91,73576,2,0,L|370:87,3,32.5,8|8|8|8,0:0|0:0|0:0|0:0,0:0:0:0:
374,65,73929,6,0,B|359:148|359:148|386:190,1,130,4|8,1:2|0:0,0:0:0:0:
463,129,74459,1,0,0:0:0:0:
502,217,74635,2,0,L|487:294,1,65,2|0,1:2|1:2,0:0:0:0:
392,289,74988,2,0,L|404:352,1,65,8|0,0:0|1:2,0:0:0:0:
299,277,75341,1,4,1:2:0:0:
195,331,75517,2,0,L|239:343,2,32.5,8|8|8,0:0|0:0|0:0,0:0:0:0:
101,359,75870,1,0,1:2:0:0:
22,300,76047,2,0,P|14:267|29:225,1,65,8|0,0:0|1:2,0:0:0:0:
78,151,76400,2,0,L|70:115,3,32.5,8|8|8|8,0:0|0:0|0:0|0:0,0:0:0:0:
99,170,76753,6,0,B|135:182|135:182|176:168,1,65,12|8,1:2|0:1,0:0:0:0:
215,92,77106,2,0,B|251:80|251:80|292:94,1,65,8|8,0:0|0:1,0:0:0:0:
353,148,77459,2,0,L|345:217,1,65,8|8,0:0|0:1,0:0:0:0:
441,193,77812,2,0,L|449:262,1,65,8|8,0:0|0:1,0:0:0:0:
389,335,78165,6,0,B|305:317|305:317|261:341,1,130,12|8,1:2|0:0,0:0:0:0:
190,276,78694,1,8,0:1:0:0:
129,352,78870,2,0,P|89:363|47:350,1,65,8|8,0:0|0:1,0:0:0:0:
22,271,79223,2,0,P|34:236|26:197,1,65,8|8,0:0|0:1,0:0:0:0:
104,125,79576,6,0,B|77:146|77:146|65:206|103:240,1,130,12|8,1:2|0:0,0:0:0:0:
190,276,80106,1,8,0:0:0:0:
267,208,80282,2,0,L|339:200,1,65,8|8,0:0|0:0,0:0:0:0:
401,135,80635,2,0,L|450:140,3,32.5,8|8|8|8,0:0|0:0|0:0|0:0,0:0:0:0:
390,109,80988,5,12,1:2:0:0:
390,109,82400,6,0,B|313:80|338:138|243:101,1,130,4|2,0:0|3:2,0:0:0:0:
195,173,82929,1,0,0:0:0:0:
138,92,83106,2,0,P|99:87|59:106,1,65,2|0,3:2|0:0,0:0:0:0:
16,172,83459,2,0,L|24:251,1,65,2|0,3:2|0:0,0:0:0:0:
29,247,83723,1,8,0:0:0:0:
37,257,83812,6,0,P|11:298|44:379,1,130,2|2,3:2|3:2,0:0:0:0:
140,348,84341,2,0,L|219:341,1,65,10|0,0:0|3:2,0:0:0:0:
276,276,84694,1,0,0:0:0:0:
338,350,84870,1,2,3:2:0:0:
338,350,85223,6,0,L|477:338,2,130,4|2|2,0:0|3:2|3:2,0:0:0:0:
369,256,86106,1,8,0:0:0:0:
270,211,86282,2,0,L|278:306,1,65,2|0,2:2|0:0,0:0:0:0:
345,165,86635,6,0,L|355:31,1,130,2|2,3:2|3:2,0:0:0:0:
271,88,87165,1,0,0:0:0:0:
191,31,87341,2,0,L|108:37,1,65,8|8,0:0|0:0,0:0:0:0:
61,142,87694,1,10,0:0:0:0:
19,34,87870,1,10,0:0:0:0:
