osu file format v14

[General]
AudioFilename: audio.mp3
AudioLeadIn: 0
PreviewTime: 17194
Countdown: 0
SampleSet: Soft
StackLeniency: 0.3
Mode: 0
LetterboxInBreaks: 0
WidescreenStoryboard: 0

[Editor]
DistanceSpacing: 1.1
BeatDivisor: 4
GridSize: 16
TimelineZoom: 1

[Metadata]
Title:Tiny Light (TV Size)
TitleUnicode:Tiny Light (TV Size)
Artist:Kito Akari
ArtistUnicode:鬼頭明里
Creator:Shiratoi
Version:Easy
Source:地縛少年花子くん
Tags:Jibaku Shounen Hanako-kun Toilet-bound Japanese Anime Ending ED Kitou Desire Again hokichi
BeatmapID:2303346
BeatmapSetID:1102078

[Difficulty]
HPDrainRate:3
CircleSize:3
OverallDifficulty:3
ApproachRate:4
SliderMultiplier:0.799999999999999
SliderTickRate:1

[Events]
//Background and Video events
0,0,"hanako.jpg",0,0
//Break Periods
//Storyboard Layer 0 (Background)
//Storyboard Layer 1 (Fail)
//Storyboard Layer 2 (Pass)
//Storyboard Layer 3 (Foreground)
//Storyboard Layer 4 (Overlay)
//Storyboard Sound Samples

[TimingPoints]
518,352.941176470588,4,2,1,30,1,0
11341,375,4,2,1,30,1,0
11812,352.941176470588,4,2,1,30,1,0
28753,-100,4,2,1,40,0,0
49929,-100,4,2,1,50,0,0
51341,-100,4,2,1,70,0,1
61223,-100,4,2,1,40,0,1
61576,-100,4,2,1,50,0,1
61929,-100,4,2,1,60,0,1
62282,-100,4,2,1,70,0,1
76753,-100,4,2,1,50,0,1
78165,-100,4,2,1,60,0,1
79576,-100,4,2,1,70,0,1
80988,-100,4,2,1,60,0,0
82401,-100,4,2,1,40,0,0

[Colours]
Combo1 : 221,174,111
Combo2 : 205,97,97
Combo3 : 160,123,198
Combo4 : 124,155,197

[HitObjects]
83,320,16047,5,2,0:0:0:0:
83,320,17460,6,0,P|59:264|89:200,2,120,2|2|2,0:1|0:0|0:0,0:0:0:0:
150,264,18870,1,0,0:0:0:0:
448,149,20283,6,0,L|455:26,2,120,2|0|0,0:1|0:0|0:0,0:0:0:0:
497,222,21694,2,0,L|509:359,2,120,2|2|2,0:1|0:0|0:0,0:0:0:0:
410,237,23107,5,2,0:0:0:0:
302,313,23636,2,0,P|247:290|180:318,1,120,0|0,0:0|0:0,0:0:0:0:
126,366,24518,1,2,0:0:0:0:
126,366,25930,6,0,B|74:321|99:255|99:255|174:258|192:199|192:199|174:182|173:152,1,280,2|2,0:0|0:1,0:0:0:0:
274,20,27871,1,0,0:0:0:0:
207,229,28754,6,0,L|334:218,1,120,12|2,0:0|0:0,0:0:0:0:
410,320,29812,1,2,0:0:0:0:
489,281,30165,2,0,P|500:328|485:368,2,79.9999999999999,0|2|0,0:0|0:0|0:0,0:0:0:0:
435,210,31224,1,2,0:0:0:0:
483,136,31577,6,0,B|501:63|501:63|475:12,1,120,2|0,3:2|0:0,0:0:0:0:
408,72,32459,1,0,0:0:0:0:
310,161,32989,2,0,L|182:146,1,120,2|0,0:1|0:0,0:0:0:0:
89,63,34047,1,0,0:0:0:0:
28,127,34400,6,0,P|49:175|21:246,1,120,2|2,3:2|0:0,0:0:0:0:
95,349,35459,1,2,0:0:0:0:
168,301,35811,2,0,L|153:220,2,79.9999999999999,2|2|0,3:2|0:0|0:0,0:0:0:0:
238,354,36871,1,2,0:0:0:0:
267,271,37224,6,0,B|341:249|327:290|400:262,1,120,2|2,3:2|0:0,0:0:0:0:
429,190,38107,1,0,0:0:0:0:
491,252,38459,2,0,L|481:346,2,79.9999999999999,2|0|2,0:1|0:0|0:1,0:0:0:0:
470,30,40047,6,0,B|398:48|398:48|351:28,1,120,2|0,3:2|0:0,0:0:0:0:
272,133,41107,1,2,3:2:0:0:
238,51,41459,2,0,L|144:55,1,79.9999999999999,2|2,0:1|3:2,0:0:0:0:
139,140,42165,2,0,P|96:128|51:146,1,79.9999999999999,2|0,0:1|0:0,0:0:0:0:
14,211,42871,6,0,L|23:341,1,120,2|2,0:0|0:0,0:0:0:0:
148,366,43930,1,2,3:2:0:0:
211,305,44283,2,0,L|220:226,2,79.9999999999999,2|2|2,0:1|3:2|0:0,0:0:0:0:
279,357,45342,1,0,0:0:0:0:
342,295,45695,6,0,P|397:275|465:304,1,120,2|0,3:2|0:0,0:0:0:0:
489,166,46754,1,2,3:2:0:0:
406,136,47107,2,0,L|414:46,1,79.9999999999999,0|2,0:0|3:2,0:0:0:0:
332,19,47811,2,0,P|298:29|251:20,1,79.9999999999999,2|2,0:0|0:0,0:0:0:0:
256,192,48518,12,8,49930,0:0:0:0:
160,55,51341,5,4,0:0:0:0:
182,140,51694,1,8,0:0:0:0:
106,191,52048,2,0,B|94:232|94:232|104:267,1,79.9999999999999,2|8,1:2|0:0,0:0:0:0:
150,343,52753,2,0,L|279:332,1,120,2|2,1:2|0:0,0:0:0:0:
400,349,53812,1,8,0:0:0:0:
465,289,54165,6,0,L|475:197,1,79.9999999999999,4|8,1:2|0:0,0:0:0:0:
397,165,54871,2,0,L|388:85,1,79.9999999999999,2|8,1:2|0:0,0:0:0:0:
313,39,55576,2,0,B|223:9|248:65|148:39,1,160,2|2,1:2|1:2,0:0:0:0:
69,57,56636,1,8,0:0:0:0:
109,134,56989,6,0,P|123:182|112:216,1,79.9999999999999,4|8,1:2|0:0,0:0:0:0:
32,240,57694,1,2,1:2:0:0:
53,325,58047,1,8,0:0:0:0:
133,359,58400,2,0,L|263:348,1,120,2|2,1:2|0:0,0:0:0:0:
384,362,59459,1,8,0:0:0:0:
424,283,59812,6,0,L|503:292,2,79.9999999999999,4|8|2,1:2|0:0|1:2,0:0:0:0:
353,230,60871,1,8,0:0:0:0:
422,175,61224,2,0,B|452:74|452:74|428:8,1,160,8|8,0:1|0:0,0:0:0:0:
345,12,62283,1,8,0:0:0:0:
280,71,62635,6,0,B|202:59|202:59|157:76,1,120,12|8,1:2|0:0,0:0:0:0:
36,38,63694,2,0,B|8:69|17:112|17:112|56:136|49:195,1,160,12|8,0:0|0:0,0:0:0:0:
10,260,64753,1,2,1:2:0:0:
43,341,65106,1,8,0:0:0:0:
129,357,65459,6,0,L|265:340,1,120,12|8,1:2|0:0,0:0:0:0:
361,275,66517,2,0,L|496:289,2,120,12|2|10,0:0|1:2|0:0,0:0:0:0:
342,188,67930,1,8,0:0:0:0:
415,139,68283,6,0,B|428:98|428:98|417:51,2,79.9999999999999,12|8|8,1:2|0:0|0:0,0:0:0:0:
338,95,69342,1,8,0:0:0:0:
260,136,69695,2,0,L|172:131,1,79.9999999999999,12|8,1:2|0:0,0:0:0:0:
199,45,70401,2,0,L|119:49,1,79.9999999999999,8|8,0:0|0:0,0:0:0:0:
40,88,71106,6,0,P|29:51|41:6,2,79.9999999999999,12|8|8,1:2|0:0|0:0,0:0:0:0:
98,153,72165,1,8,0:0:0:0:
35,215,72518,2,0,P|46:252|34:297,1,79.9999999999999,12|8,1:2|0:0,0:0:0:0:
89,362,73224,1,12,1:2:0:0:
151,299,73577,1,8,0:0:0:0:
224,347,73929,6,0,L|307:342,1,79.9999999999999,4|8,1:2|0:0,0:0:0:0:
307,253,74636,2,0,L|386:257,1,79.9999999999999,2|8,1:2|0:0,0:0:0:0:
467,292,75341,2,0,B|476:335|476:335|461:378,2,79.9999999999999,4|8|8,1:2|0:0|0:0,0:0:0:0:
493,207,76401,1,8,0:0:0:0:
419,158,76753,6,0,B|410:115|410:115|425:72,2,79.9999999999999,12|8|8,1:2|0:0|0:0,0:0:0:0:
372,232,77812,1,8,0:0:0:0:
294,189,78165,2,0,L|204:195,1,79.9999999999999,12|8,1:2|0:0,0:0:0:0:
220,106,78871,2,0,L|140:100,1,79.9999999999999,8|8,0:0|0:0,0:0:0:0:
52,109,79576,6,0,P|35:149|46:195,1,79.9999999999999,12|8,1:2|0:0,0:0:0:0:
121,220,80283,1,8,0:0:0:0:
167,294,80636,1,8,0:0:0:0:
110,361,80989,1,12,1:2:0:0:
110,361,82400,6,0,L|287:351,1,160,4|2,0:0|3:2,0:0:0:0:
340,299,83459,1,2,3:2:0:0:
409,355,83812,2,0,P|424:325|404:240,1,120,2|10,3:2|0:0,0:0:0:0:
284,193,84870,1,2,3:2:0:0:
224,127,85223,6,0,L|136:132,1,79.9999999999999,4|2,0:0|3:2,0:0:0:0:
140,43,85929,2,0,L|60:38,1,79.9999999999999,2|2,3:2|2:2,0:0:0:0:
39,124,86635,2,0,P|24:164|38:210,1,79.9999999999999,2|2,3:2|3:2,0:0:0:0:
111,236,87341,2,0,B|122:312|122:312|102:350,1,120,8|10,0:0|0:0,0:0:0:0:
