osu file format v14

[General]
AudioFilename: audio.mp3
AudioLeadIn: 0
PreviewTime: 50761
Countdown: 0
SampleSet: Drum
StackLeniency: 0.7
Mode: 0
LetterboxInBreaks: 0
WidescreenStoryboard: 1

[Editor]
DistanceSpacing: 1
BeatDivisor: 2
GridSize: 8
TimelineZoom: 2.1

[Metadata]
Title:Tiny Light (TV Size)
TitleUnicode:Tiny Light (TV Size)
Artist:Kito Akari
ArtistUnicode:鬼頭明里
Creator:Rensia
Version:Easy
Source:地縛少年花子くん
Tags:Enerugi Jibaku Shounen Hanako-kun Toilet-bound Japanese Anime Ending ED Kitou Desire Again
BeatmapID:2288208
BeatmapSetID:1094568

[Difficulty]
HPDrainRate:2
CircleSize:2.5
OverallDifficulty:2
ApproachRate:4
SliderMultiplier:0.9
SliderTickRate:1

[Events]
//Background and Video events
Video,930,"ED.mp4"
0,0,"BG_E.jpg",0,0
//Break Periods
//Storyboard Layer 0 (Background)
//Storyboard Layer 1 (Fail)
//Storyboard Layer 2 (Pass)
//Storyboard Layer 3 (Foreground)
//Storyboard Layer 4 (Overlay)
//Storyboard Sound Samples

[TimingPoints]
1467,352.941176470588,4,2,0,60,1,0
12290,375,4,2,0,60,1,0
12758,352.941176470588,4,2,0,60,1,0
18405,-100,4,2,2,30,0,0
21228,-100,4,2,2,30,0,0
28111,-100,4,2,2,30,0,0
29699,-100,4,2,2,40,0,0
32522,-100,4,2,2,40,0,0
35346,-100,4,2,2,40,0,0
36404,-100,4,2,2,40,0,0
38169,-100,4,2,2,40,0,0
39581,-100,4,2,2,40,0,0
40287,-100,4,2,2,40,0,0
40993,-100,4,2,2,50,0,0
42405,-100,4,2,2,30,0,0
42493,-100,4,2,2,50,0,0
43816,-100,4,2,2,50,0,0
47699,-100,4,2,2,50,0,0
48052,-100,4,2,2,50,0,0
49111,-100,4,2,2,30,0,0
49463,-100,4,2,2,30,0,0
52287,-100,4,2,2,70,0,1
52640,-100,4,2,1,60,0,1
54228,-100,4,2,2,60,0,1
54404,-100,4,2,1,60,0,1
54581,-100,4,2,1,60,0,1
54934,-100,4,2,1,30,0,1
55110,-100,4,2,1,50,0,1
57757,-100,4,2,1,30,0,1
58022,-100,4,2,1,60,0,1
59346,-100,4,2,1,60,0,1
59699,-100,4,2,1,60,0,1
59875,-100,4,2,2,60,0,1
60051,-100,4,2,1,60,0,1
60404,-100,4,2,1,60,0,1
60581,-100,4,2,1,30,0,1
60757,-100,4,2,1,50,0,1
62699,-100,4,2,1,60,0,1
62875,-100,4,1,2,60,0,1
63140,-100,4,2,1,70,0,1
63227,-100,4,1,2,70,0,1
63581,-100,4,2,1,60,0,1
66052,-100,4,2,1,30,0,1
66493,-100,4,2,1,60,0,1
66934,-100,4,2,2,60,0,1
67463,-100,4,2,1,60,0,1
67993,-100,4,2,1,40,0,1
68257,-100,4,2,1,60,0,1
68522,-100,4,2,1,80,0,1
68787,-100,4,2,1,50,0,1
69228,-100,4,3,1,50,0,1
70640,-100,4,3,2,50,0,1
70993,-100,4,3,1,50,0,1
73463,-100,4,3,1,70,0,1
73640,-100,4,3,1,50,0,1
74522,-100,4,3,1,40,0,1
74875,-100,4,3,2,50,0,1
75228,-100,4,3,1,50,0,1
77346,-100,4,3,1,40,0,1
77699,-100,4,3,1,60,0,1
81581,-100,4,3,1,40,0,1
81934,-100,4,2,1,60,0,0
83346,-100,4,2,1,35,0,0
83434,-100,4,2,1,50,0,0
84581,-100,4,2,1,20,0,0
84846,-100,4,2,1,50,0,0
85993,-100,4,2,1,20,0,0
86257,-100,4,2,1,50,0,0

[Colours]
Combo1 : 173,178,172
Combo2 : 200,95,110
Combo3 : 181,126,131
Combo4 : 204,171,162
Combo5 : 201,189,255

[HitObjects]
432,168,18405,6,0,P|448:240|440:320,2,135,2|2|2,0:0|0:0|0:0,0:0:0:0:
368,104,19816,1,2,0:0:0:0:
200,40,20522,2,0,P|136:24|104:24,1,90,2|0,0:0|0:0,0:0:0:0:
72,104,21228,2,0,P|163:126|209:126,2,135,2|2|2,0:0|0:0|0:0,0:0:0:0:
32,184,22640,6,0,P|54:275|54:321,1,135,2|2,0:0|0:0,0:0:0:0:
176,376,23699,1,2,0:0:0:0:
256,336,24052,2,0,P|313:329|428:342,1,135,2|0,0:0|0:0,0:0:0:0:
504,264,25110,1,0,0:0:0:0:
440,200,25463,6,0,P|404:204|332:196,1,90,2|2,0:0|0:0,0:0:0:0:
272,152,26169,2,0,P|236:148|164:156,1,90
112,208,26875,2,0,P|144:144|136:56,1,135,2|2,0:0|0:0,0:0:0:0:
53,87,27758,2,0,P|33:131|33:187,1,90,2|2,0:0|2:0,0:0:0:0:
296,352,29346,1,0,0:0:0:0:
376,320,29699,6,0,L|368:168,1,135,2|2,1:2|0:0,2:0:0:0:
316,59,30757,1,2,0:0:0:0:
392,9,31110,1,2,0:2:0:0:
462,70,31463,2,0,L|456:160,2,90,2|2|0,0:0|0:0|2:0,0:0:0:0:
392,8,32522,6,0,P|296:32|232:24,2,135,2|0|0,1:2|0:0|0:0,0:0:0:0:
462,70,33934,2,0,L|473:227,1,135,2|2,0:0|0:0,0:0:0:0:
416,328,34993,1,2,0:0:0:0:
328,296,35346,2,0,P|277:284|188:296,1,135,2|0,1:2|0:0,0:0:0:0:
64,328,36404,1,2,0:0:0:0:
88,240,36758,6,0,P|96:168|88:120,1,90,2|2,1:2|0:0,0:0:0:0:
17,104,37463,2,0,P|9:32|17:-16,1,90,2|0,0:0|0:0,0:0:0:0:
100,16,38169,2,0,L|204:24,1,90,2|0,0:2|1:2,0:0:0:0:
276,56,38875,2,0,L|432:43,1,135,2|2,0:0|0:0,0:0:0:0:
512,240,40287,1,0,3:2:0:0:
432,280,40640,1,0,3:2:0:0:
352,240,40993,6,0,P|259:229|208:240,1,135,2|2,1:2|0:2,0:0:0:0:
102,304,42052,1,0,0:0:0:0:
32,248,42405,2,0,L|24:64,1,180,2|2,0:0|0:0,0:0:0:0:
104,24,43463,1,0,0:0:0:0:
184,64,43816,6,0,L|177:210,2,135,2|2|2,1:2|1:2|0:2,0:0:0:0:
272,72,45228,2,0,P|363:84|459:76,1,180,2|0,1:2|0:0,0:0:0:0:
512,144,46287,1,2,0:0:0:0:
472,224,46640,6,0,P|464:280|488:376,2,135,2|0|2,1:2|1:2|0:2,0:0:0:0:
424,152,48052,2,0,L|248:160,2,135,2|0|2,0:2|0:0|0:0,0:0:0:0:
256,192,49463,12,4,50875,0:0:0:0:
32,333,52287,6,0,P|96:317|216:341,1,180,10|0,3:2|3:0,0:0:0:0:
288,381,53346,1,8,0:0:0:0:
368,341,53699,1,6,3:2:0:0:
448,381,54052,2,0,P|488:349|552:341,2,90,10|0|8,0:0|3:0|0:0,0:0:0:0:
368,341,55110,5,2,3:2:0:0:
288,381,55463,2,0,P|272:317|288:261,1,90,10|0,0:0|3:0,0:0:0:0:
320,216,56169,1,10,3:2:0:0:
376,144,56522,2,0,P|392:80|376:24,1,90,6|8,3:2|3:2,0:0:0:0:
208,48,57581,1,8,0:0:0:0:
120,28,57934,6,0,P|40:12|0:20,2,90,6|8|2,1:2|0:0|3:2,1:2:0:0:
148,116,58993,1,8,0:0:0:0:
84,180,59346,1,6,0:0:0:0:
152,240,59699,2,0,L|144:368,2,90,10|0|8,0:0|3:0|0:0,0:0:0:0:
224,184,60757,5,2,3:2:0:0:
296,240,61110,2,0,P|352:248|424:240,1,90,10|0,3:2|3:2,0:0:0:0:
468,203,61816,1,10,3:2:0:0:
512,280,62169,2,0,P|496:321|462:350,1,90,2|2,3:2|3:2,0:2:0:0:
376,381,62875,2,0,P|312:373|264:373,1,90,2|0,1:2|1:2,0:0:0:0:
197,379,63581,5,12,3:2:0:0:
120,336,63934,2,0,P|112:272|112:224,1,90,8|2,0:0|3:2,0:0:0:0:
184,192,64640,2,0,P|198:78|198:-7,1,180,14|8,3:2|0:0,0:0:0:0:
288,8,65699,2,0,P|336:0|384:8,1,90,2|10,3:2|1:2,0:0:0:0:
440,72,66404,6,0,L|443:248,2,135,10|2|14,1:2|0:0|0:0,0:2:0:0:
368,20,67816,2,0,P|288:12|160:12,1,180,2|2,3:2|3:2,0:0:0:0:
116,64,68875,1,2,3:2:0:0:
27,97,69228,6,0,P|27:33|59:-15,2,90,6|10|0,3:2|0:2|0:2,0:2:0:0:
88,164,70287,2,0,P|102:206|98:250,1,90,8|2,0:2|3:2,0:2:0:0:
32,316,70993,2,0,P|80:340|136:332,1,90,8|2,0:2|0:2,0:0:0:0:
200,300,71699,1,10,0:2:0:0:
280,332,72052,2,0,P|368:352|464:328,1,180,6|8,0:2|0:2,0:2:0:0:
504,256,73110,1,10,0:2:0:0:
480,168,73463,6,0,P|416:136|344:128,1,135,6|0,0:2|0:2,0:2:0:0:
216,112,74522,1,2,1:2:0:0:
220,204,74875,2,0,P|228:260|220:316,1,90,14|10,1:2|0:2,0:2:0:0:
160,360,75581,5,2,0:2:0:0:
128,272,75934,1,2,0:2:0:0:
69,344,76287,2,0,L|-27:336,2,90,6|8|2,0:2|0:2|0:2,0:2:0:0:
160,360,77346,1,2,1:2:0:0:
251,344,77699,6,0,L|347:336,1,90,4|8,1:2|0:2,0:2:0:0:
428,364,78404,1,0,0:2:0:0:
496,304,78757,1,10,0:2:0:0:
504,216,79110,6,0,P|503:171|488:120,1,90,2|10,0:2|0:2,0:0:0:0:
424,72,79816,1,2,0:2:0:0:
344,112,80169,1,10,0:2:0:0:
353,201,80522,2,0,P|287:214|162:178,1,180,4|2,0:2|0:2,0:2:0:0:
129,113,81581,1,2,1:2:0:0:
41,129,81934,5,12,2:2:0:0:
384,24,83346,6,0,P|368:112|384:224,1,180,6|2,0:0|3:2,0:0:0:0:
432,272,84404,1,0,0:0:0:0:
392,352,84757,2,0,P|304:336|192:352,1,180,2|8,1:2|0:0,0:2:0:0:
128,376,85816,1,2,3:2:0:0:
42,346,86169,6,0,L|40:240,1,90,2|2,1:2|0:2,0:2:0:0:
96,184,86875,2,0,L|98:78,1,90,2|10,0:2|0:0,0:0:0:0:
160,32,87581,2,0,P|248:56|360:40,1,180,10|10,0:0|3:2,0:0:0:0:
424,16,88640,2,0,L|432:72,1,45,10|8,3:2|3:2,0:0:0:0:
