osu file format v14

[General]
AudioFilename: audio.ogg
AudioLeadIn: 0
PreviewTime: 85308
Countdown: 0
SampleSet: Soft
StackLeniency: 0.7
Mode: 3
LetterboxInBreaks: 0
EpilepsyWarning: 1
SpecialStyle: 0
WidescreenStoryboard: 1

[Editor]
DistanceSpacing: 1.6
BeatDivisor: 4
GridSize: 16
TimelineZoom: 2

[Metadata]
Title:Tiny Light (Cut Ver.)
TitleUnicode:Tiny Light (Cut Ver.)
Artist:Kito Akari
ArtistUnicode:鬼頭明里
Creator:ML-ysg
Version:Normal
Source:地縛少年花子くん
Tags:Sun [ Lovega ] anime japanese j-pop jpop pop ed ending 八尋寧々 Yashiro Nene Jibaku Shounen Hanako-kun Toilet-bound PCCG-01871 kitou akari saku
BeatmapID:3878877
BeatmapSetID:1883953

[Difficulty]
HPDrainRate:7
CircleSize:4
OverallDifficulty:7
ApproachRate:5
SliderMultiplier:1.4
SliderTickRate:1

[Events]
//Background and Video events
0,0,"hanako.jpg",0,0
//Break Periods
//Storyboard Layer 0 (Background)
//Storyboard Layer 1 (Fail)
//Storyboard Layer 2 (Pass)
//Storyboard Layer 3 (Foreground)
//Storyboard Layer 4 (Overlay)
//Storyboard Sound Samples
Sample,1397,0,"G7S.wav",60
Sample,2455,0,"G7S.wav",60
Sample,4220,0,"B6S.wav",60
Sample,7044,0,"G6S.wav",60
Sample,8102,0,"G6S.wav",60
Sample,9867,0,"B5S.wav",60
Sample,10926,0,"E6S.wav",60
Sample,12691,0,"D#7S_Eb7S.wav",60
Sample,15514,0,"E5S.wav",60
Sample,40926,0,"Tiny Hihat.wav",35
Sample,41102,0,"Tiny Hihat.wav",35
Sample,43749,0,"Tiny Hihat.wav",35
Sample,43926,0,"Tiny Hihat.wav",35
Sample,46573,0,"Tiny Hihat.wav",35
Sample,46749,0,"Tiny Hihat.wav",35
Sample,49396,0,"Tiny Hihat.wav",35
Sample,49573,0,"Tiny Hihat.wav",35
Sample,52220,0,"Tiny Hihat.wav",35
Sample,52396,0,"Tiny Hihat.wav",35
Sample,55044,0,"Tiny Hihat.wav",35
Sample,55220,0,"Tiny Hihat.wav",35
Sample,57867,0,"Tiny Hihat.wav",35
Sample,58044,0,"Tiny Hihat.wav",35
Sample,60691,0,"Tiny Hihat.wav",35
Sample,60867,0,"Tiny Hihat.wav",35
Sample,63867,0,"Hat Close.wav",40
Sample,64220,0,"Hat Close.wav",40
Sample,64573,0,"Hat Close.wav",40
Sample,64926,0,"LTom3.wav",60
Sample,65279,0,"Hat Close.wav",40
Sample,65632,0,"Hat Close.wav",40
Sample,65985,0,"Hat Close.wav",40
Sample,66338,0,"LTom3.wav",60
Sample,66691,0,"Hat Close.wav",40
Sample,67044,0,"Hat Close.wav",40
Sample,67396,0,"Hat Close.wav",40
Sample,67749,0,"LTom3.wav",60
Sample,68102,0,"Hat Close.wav",40
Sample,68455,0,"Hat Close.wav",40
Sample,68808,0,"Hat Close.wav",40
Sample,69161,0,"LTom3.wav",60
Sample,69514,0,"Hat Close.wav",40
Sample,69867,0,"Hat Close.wav",40
Sample,70220,0,"Hat Close.wav",40
Sample,70573,0,"LTom3.wav",60
Sample,70926,0,"Hat Close.wav",40
Sample,71279,0,"Hat Close.wav",40
Sample,71632,0,"Hat Close.wav",40
Sample,71985,0,"LTom3.wav",60
Sample,72338,0,"Hat Close.wav",40
Sample,72691,0,"Hat Close.wav",40
Sample,73044,0,"Hat Close.wav",40
Sample,73396,0,"LTom3.wav",60
Sample,73749,0,"Hat Close.wav",40
Sample,74102,0,"Hat Close.wav",40
Sample,78691,0,"Snare.wav",25
Sample,79396,0,"Snare.wav",40
Sample,81161,0,"Hat Open.wav",30
Sample,82926,0,"Hat Open.wav",30
Sample,83985,0,"Hat Open.wav",30
Sample,86455,0,"Hat Open.wav",30
Sample,86808,0,"Hat Open.wav",30
Sample,87161,0,"Hat Open.wav",30
Sample,87514,0,"Hat Open.wav",30
Sample,88220,0,"Hat Open.wav",30
Sample,88926,0,"Hat Open.wav",30
Sample,89279,0,"Hat Open.wav",30
Sample,89632,0,"Hat Open.wav",30
Sample,90338,0,"Hat Open.wav",30
Sample,90691,0,"Hat Open.wav",30
Sample,91044,0,"Hat Open.wav",30
Sample,92102,0,"Hat Open.wav",30
Sample,92455,0,"Hat Open.wav",30
Sample,92808,0,"Hat Open.wav",30
Sample,93514,0,"Hat Open.wav",30
Sample,93867,0,"Hat Open.wav",30
Sample,94220,0,"Hat Open.wav",30
Sample,94926,0,"Hat Open.wav",30
Sample,95279,0,"Hat Open.wav",30
Sample,95632,0,"Hat Open.wav",30
Sample,98808,0,"Ride.wav",40
Sample,103926,0,"Tom3.wav",50
Sample,105338,0,"Tom3.wav",50
Sample,106749,0,"Tom3.wav",50
Sample,109044,0,"Ride.wav",30
Sample,109396,0,"Ride.wav",30
Sample,109573,0,"Ride.wav",30
Sample,109926,0,"Ride.wav",30
Sample,112044,0,"Tom3.wav",50
Sample,112396,0,"Tom3.wav",50
Sample,112749,0,"Tom3.wav",50
Sample,113455,0,"Tom3.wav",50
Sample,113808,0,"Tom3.wav",50
Sample,114161,0,"Tom3.wav",50
Sample,114691,0,"Tom3.wav",50
Sample,117514,0,"Hat Close.wav",40
Sample,117867,0,"Hat Close.wav",40
Sample,118220,0,"Hat Close.wav",40
Sample,118573,0,"Hat Close.wav",40
Sample,118573,0,"Tom3.wav",50
Sample,118926,0,"Hat Close.wav",40
Sample,119279,0,"Hat Close.wav",40
Sample,119632,0,"Hat Close.wav",40
Sample,119632,0,"Tom3.wav",50
Sample,120338,0,"Hat Close.wav",40
Sample,120691,0,"Hat Close.wav",40
Sample,121044,0,"Hat Close.wav",40
Sample,121396,0,"Hat Close.wav",40
Sample,121749,0,"Hat Open.wav",30
Sample,122102,0,"Tom3.wav",50

[TimingPoints]
1397,352.941176470588,4,2,1,50,1,0
63514,-100.0,4,2,1,50,0,1
74632,-100.0,4,2,1,50,0,0
74808,-100.0,4,2,1,50,0,1
85573,-100.0,4,2,1,50,0,0
86102,-100.0,4,2,1,50,0,1
115749,-100.0,4,2,1,50,0,0

[HitObjects]
64,192,1397,1,0,0:0:0:60:F5S.wav
448,192,1573,1,0,0:0:0:60:B6S.wav
320,192,1749,1,0,0:0:0:60:C7S.wav
192,192,1926,1,0,0:0:0:60:G7S.wav
448,192,2102,1,0,0:0:0:60:B6S.wav
320,192,2279,1,0,0:0:0:60:C7S.wav
192,192,2455,128,0,3514:0:0:0:60:G5S.wav
448,192,3514,1,0,0:0:0:60:F7S.wav
320,192,3691,1,0,0:0:0:60:E7S.wav
192,192,3867,1,0,0:0:0:60:D7S.wav
64,192,4044,1,0,0:0:0:60:C7S.wav
448,192,4220,1,0,0:0:0:60:A5S.wav
192,192,4396,1,0,0:0:0:60:G6S.wav
320,192,4573,1,0,0:0:0:60:E6S.wav
64,192,4749,128,0,5279:0:0:0:60:C7S.wav
192,192,5279,128,0,7044:0:0:0:60:G6S.wav
320,192,7044,1,0,0:0:0:60:F4S.wav
64,192,7220,1,0,0:0:0:60:B5S.wav
192,192,7396,1,0,0:0:0:60:C6S.wav
320,192,7573,1,0,0:0:0:60:G6S.wav
64,192,7749,1,0,0:0:0:60:B5S.wav
192,192,7926,1,0,0:0:0:60:C6S.wav
320,192,8102,128,0,9161:0:0:0:60:G4S.wav
64,192,9161,1,0,0:0:0:60:F6S.wav
192,192,9338,1,0,0:0:0:60:E6S.wav
320,192,9514,1,0,0:0:0:60:D6S.wav
448,192,9691,1,0,0:0:0:60:C6S.wav
64,192,9867,1,0,0:0:0:60:G#4S_Ab4S.wav
320,192,10044,1,0,0:0:0:60:G#5S_Ab5S.wav
192,192,10220,1,0,0:0:0:60:A5S.wav
448,192,10396,128,0,10926:0:0:0:60:F6S.wav
320,192,10926,128,0,11632:0:0:0:60:A4S.wav
64,192,11632,128,0,11985:0:0:0:60:B5S.wav
192,192,11985,128,0,12338:0:0:0:60:E6S.wav
320,192,12338,128,0,12691:0:0:0:0:
64,192,12691,1,0,0:0:0:60:G#4S_Ab4S.wav
448,192,12867,1,0,0:0:0:60:C7S.wav
192,192,13044,1,0,0:0:0:60:G6S.wav
448,192,13220,1,0,0:0:0:60:C7S.wav
320,192,13396,1,0,0:0:0:60:G6S.wav
64,192,13573,1,0,0:0:0:60:D#6S_Eb6S.wav
320,192,13749,1,0,0:0:0:60:G6S.wav
192,192,13926,1,0,0:0:0:60:D#6S_Eb6S.wav
448,192,14102,1,0,0:0:0:60:C6S.wav
192,192,14279,1,0,0:0:0:60:D#6S_Eb6S.wav
64,192,14455,1,0,0:0:0:60:C6S.wav
320,192,14632,1,0,0:0:0:60:G5S.wav
64,192,14808,1,0,0:0:0:60:C6S.wav
320,192,14985,1,0,0:0:0:60:G5S.wav
192,192,15161,128,0,15514:0:0:0:60:D#5S_Eb5S.wav
448,192,15514,128,0,16926:0:0:0:60:G3S.wav
64,192,16926,128,0,17985:0:0:0:60:B5S.wav
192,192,18338,1,0,0:0:0:0:
320,192,18338,1,0,0:0:0:0:
64,192,18691,1,0,0:0:0:0:
448,192,18867,1,0,0:0:0:0:
320,192,19396,1,0,0:0:0:0:
64,192,19749,1,0,0:0:0:0:
192,192,19749,1,0,0:0:0:0:
320,192,20455,1,0,0:0:0:0:
64,192,20808,1,0,0:0:0:0:
192,192,21161,1,0,0:0:0:0:
448,192,21161,1,0,0:0:0:0:
320,192,21514,1,0,0:0:0:0:
64,192,21691,1,0,0:0:0:0:
448,192,21691,1,0,0:0:0:0:
192,192,22220,1,0,0:0:0:0:
320,192,22573,1,0,0:0:0:0:
448,192,22573,1,0,0:0:0:0:
192,192,23808,1,0,0:0:0:0:
64,192,23985,1,0,0:0:0:0:
448,192,23985,1,0,0:0:0:0:
320,192,24338,1,0,0:0:0:0:
192,192,24514,1,0,0:0:0:0:
320,192,25044,1,0,0:0:0:0:
64,192,25220,1,0,0:0:0:0:
192,192,25396,1,0,0:0:0:0:
448,192,25396,1,0,0:0:0:0:
64,192,26632,1,0,0:0:0:0:
192,192,26808,1,0,0:0:0:0:
448,192,26808,1,0,0:0:0:0:
320,192,27161,1,0,0:0:0:0:
64,192,27338,1,0,0:0:0:0:
320,192,27867,1,0,0:0:0:0:
64,192,28044,1,0,0:0:0:0:
448,192,28220,1,0,0:0:0:0:
64,192,29632,1,0,0:0:0:0:
448,192,29632,1,0,0:0:0:0:
192,192,29985,1,0,0:0:0:0:
64,192,30161,1,0,0:0:0:0:
320,192,30691,1,0,0:0:0:0:
192,192,31044,1,0,0:0:0:0:
448,192,31044,1,0,0:0:0:0:
64,192,31749,1,0,0:0:0:0:
320,192,32102,1,0,0:0:0:0:
192,192,32455,1,0,0:0:0:0:
448,192,32455,1,0,0:0:0:0:
320,192,32808,1,0,0:0:0:0:
64,192,32985,1,0,0:0:0:0:
192,192,33514,1,0,0:0:0:0:
320,192,33867,1,0,0:0:0:0:
448,192,33867,1,0,0:0:0:0:
192,192,34220,1,0,0:0:0:0:
64,192,34396,1,0,0:0:0:0:
448,192,34396,1,0,0:0:0:0:
192,192,34926,1,0,0:0:0:0:
448,192,34926,1,0,0:0:0:0:
320,192,35102,1,0,0:0:0:0:
64,192,35279,1,0,0:0:0:0:
192,192,35279,1,0,0:0:0:0:
448,192,35632,1,0,0:0:0:0:
192,192,35808,1,0,0:0:0:0:
64,192,36338,1,0,0:0:0:0:
448,192,36514,1,0,0:0:0:0:
192,192,36691,1,0,0:0:0:0:
320,192,36691,1,0,0:0:0:0:
448,192,37044,1,0,0:0:0:0:
64,192,37396,1,0,0:0:0:0:
320,192,37749,1,0,0:0:0:0:
192,192,38102,1,0,0:0:0:0:
448,192,38279,1,0,0:0:0:0:
64,192,38455,1,0,0:0:0:0:
320,192,38632,1,0,0:0:0:0:
192,192,38808,1,0,0:0:0:0:
64,192,38985,1,0,0:0:0:0:
448,192,39161,1,0,0:0:0:0:
320,192,39338,1,0,0:0:0:0:
320,192,40926,1,0,0:0:0:50:Kick.wav
320,192,41102,1,0,0:0:0:50:Kick.wav
64,192,41279,1,0,0:0:0:0:
448,192,41455,1,0,0:0:0:35:Tiny Hihat.wav
192,192,41985,1,0,0:0:0:0:
320,192,42338,1,0,0:0:0:35:Tiny Hihat.wav
64,192,42691,1,0,0:0:0:0:
448,192,43044,1,0,0:0:0:0:
192,192,43220,1,0,0:0:0:50:Kick.wav
320,192,43396,1,0,0:0:0:35:Tiny Hihat.wav
64,192,43749,1,0,0:0:0:50:Kick.wav
64,192,43926,1,0,0:0:0:50:Kick.wav
448,192,44102,1,0,0:0:0:0:
192,192,44279,1,0,0:0:0:35:Tiny Hihat.wav
320,192,44632,1,0,0:0:0:0:
64,192,44808,1,0,0:0:0:0:
320,192,44985,1,0,0:0:0:35:Tiny Hihat.wav
192,192,45161,1,0,0:0:0:35:Tiny Hihat.wav
448,192,45514,1,0,0:0:0:50:Kick.wav
64,192,45691,1,0,0:0:0:0:
320,192,46044,1,0,0:0:0:50:Kick.wav
192,192,46220,1,0,0:0:0:35:Tiny Hihat.wav
448,192,46573,1,0,0:0:0:50:Kick.wav
448,192,46749,1,0,0:0:0:50:Kick.wav
64,192,46926,1,0,0:0:0:0:
320,192,47102,1,0,0:0:0:35:Tiny Hihat.wav
192,192,47632,1,0,0:0:0:0:
320,192,47985,1,0,0:0:0:35:Tiny Hihat.wav
64,192,48338,1,0,0:0:0:0:
192,192,48514,1,0,0:0:0:0:
448,192,48691,1,0,0:0:0:0:
64,192,48867,1,0,0:0:0:50:Kick.wav
320,192,49044,1,0,0:0:0:35:Tiny Hihat.wav
192,192,49396,1,0,0:0:0:50:Kick.wav
192,192,49573,1,0,0:0:0:50:Kick.wav
448,192,49749,1,0,0:0:0:0:
64,192,49926,1,0,0:0:0:35:Tiny Hihat.wav
320,192,50279,1,0,0:0:0:0:
192,192,50455,1,0,0:0:0:0:
64,192,50632,1,0,0:0:0:35:Tiny Hihat.wav
448,192,50985,1,0,0:0:0:0:
192,192,51161,1,0,0:0:0:50:Kick.wav
320,192,51338,1,0,0:0:0:0:
64,192,51514,1,0,0:0:0:0:
192,192,51691,1,0,0:0:0:50:Kick.wav
448,192,51867,1,0,0:0:0:35:Tiny Hihat.wav
320,192,52044,1,0,0:0:0:0:
64,192,52220,1,0,0:0:0:50:Kick.wav
64,192,52396,1,0,0:0:0:50:Kick.wav
448,192,52573,1,0,0:0:0:0:
192,192,52749,1,0,0:0:0:35:Tiny Hihat.wav
320,192,53279,1,0,0:0:0:50:Kick.wav
64,192,53455,1,0,0:0:0:35:Tiny Hihat.wav
192,192,53632,1,0,0:0:0:35:Tiny Hihat.wav
320,192,53985,1,0,0:0:0:50:Kick.wav
448,192,54338,1,0,0:0:0:0:
192,192,54514,1,0,0:0:0:50:Kick.wav
320,192,54691,1,0,0:0:0:35:Tiny Hihat.wav
448,192,55044,1,0,0:0:0:50:Kick.wav
448,192,55220,1,0,0:0:0:50:Kick.wav
64,192,55396,1,0,0:0:0:0:
320,192,55573,1,0,0:0:0:35:Tiny Hihat.wav
192,192,56102,1,0,0:0:0:50:Kick.wav
320,192,56279,1,0,0:0:0:35:Tiny Hihat.wav
64,192,56455,1,0,0:0:0:35:Tiny Hihat.wav
320,192,56808,1,0,0:0:0:50:Kick.wav
192,192,56985,1,0,0:0:0:0:
320,192,57338,1,0,0:0:0:50:Kick.wav
64,192,57514,1,0,0:0:0:35:Tiny Hihat.wav
192,192,57867,1,0,0:0:0:50:Kick.wav
192,192,58044,1,0,0:0:0:50:Kick.wav
448,192,58220,1,0,0:0:0:0:
64,192,58396,1,0,0:0:0:35:Tiny Hihat.wav
192,192,58749,1,0,0:0:0:0:
320,192,58926,1,0,0:0:0:50:Kick.wav
192,192,59102,1,0,0:0:0:35:Tiny Hihat.wav
448,192,59279,1,0,0:0:0:35:Tiny Hihat.wav
64,192,59632,1,0,0:0:0:50:Kick.wav
320,192,59808,1,0,0:0:0:0:
192,192,59985,1,0,0:0:0:0:
448,192,60161,1,0,0:0:0:50:Kick.wav
64,192,60338,1,0,0:0:0:35:Tiny Hihat.wav
192,192,60514,1,0,0:0:0:0:
320,192,60691,1,0,0:0:0:50:Kick.wav
320,192,60867,1,0,0:0:0:50:Kick.wav
192,192,61749,1,0,0:0:0:50:Kick.wav
320,192,61926,1,0,0:0:0:35:Tiny Hihat.wav
64,192,62102,1,2,0:0:0:0:
448,192,62102,128,0,62808:0:0:0:35:Tiny Hihat.wav
192,192,62808,128,0,63161:0:0:0:0:
320,192,63161,128,0,63514:0:0:0:0:
64,192,63514,1,6,0:0:0:0:
448,192,63514,1,0,0:0:0:60:LTom3.wav
192,192,63691,1,0,0:0:0:60:LTom3.wav
320,192,63691,1,0,0:0:0:0:
64,192,63867,1,2,0:0:0:0:
448,192,64044,1,0,0:0:0:0:
320,192,64220,1,2,0:0:0:0:
192,192,64396,1,0,0:0:0:0:
64,192,64573,1,2,0:0:0:0:
448,192,64749,1,0,0:0:0:60:LTom1.wav
192,192,64926,1,2,0:0:0:0:
320,192,64926,1,0,0:0:0:40:Hat Close.wav
64,192,65102,1,0,0:0:0:60:LTom3.wav
448,192,65102,1,0,0:0:0:0:
192,192,65279,1,2,0:0:0:0:
320,192,65455,1,0,0:0:0:0:
448,192,65632,1,2,0:0:0:0:
192,192,65808,1,0,0:0:0:0:
320,192,65985,1,2,0:0:0:0:
64,192,66338,1,2,0:0:0:0:
192,192,66338,1,0,0:0:0:40:Hat Close.wav
320,192,66514,1,0,0:0:0:60:LTom3.wav
448,192,66514,1,0,0:0:0:0:
192,192,66691,1,2,0:0:0:0:
64,192,66867,1,0,0:0:0:0:
448,192,67044,1,2,0:0:0:0:
320,192,67220,1,0,0:0:0:0:
192,192,67396,1,2,0:0:0:0:
64,192,67573,1,0,0:0:0:60:LTom1.wav
320,192,67749,1,2,0:0:0:0:
448,192,67749,1,0,0:0:0:40:Hat Close.wav
64,192,67926,1,0,0:0:0:60:LTom3.wav
192,192,67926,1,0,0:0:0:0:
320,192,68102,1,2,0:0:0:0:
448,192,68279,1,0,0:0:0:0:
64,192,68455,1,2,0:0:0:0:
192,192,68632,1,0,0:0:0:0:
320,192,68808,1,2,0:0:0:0:
64,192,69161,1,2,0:0:0:0:
320,192,69161,1,0,0:0:0:40:Hat Close.wav
192,192,69338,1,0,0:0:0:60:LTom3.wav
448,192,69338,1,0,0:0:0:0:
64,192,69514,1,2,0:0:0:0:
448,192,69691,1,0,0:0:0:0:
320,192,69867,1,2,0:0:0:0:
192,192,70044,1,0,0:0:0:0:
64,192,70220,1,2,0:0:0:0:
320,192,70396,1,0,0:0:0:60:LTom1.wav
192,192,70573,1,2,0:0:0:0:
448,192,70573,1,0,0:0:0:40:Hat Close.wav
64,192,70749,1,0,0:0:0:60:LTom3.wav
320,192,70749,1,0,0:0:0:0:
192,192,70926,1,2,0:0:0:0:
64,192,71102,1,0,0:0:0:0:
448,192,71279,1,2,0:0:0:0:
320,192,71455,1,0,0:0:0:0:
192,192,71632,1,2,0:0:0:0:
320,192,71985,1,2,0:0:0:0:
448,192,71985,1,0,0:0:0:40:Hat Close.wav
64,192,72161,1,0,0:0:0:60:LTom3.wav
192,192,72161,1,0,0:0:0:0:
320,192,72338,1,2,0:0:0:0:
448,192,72514,1,0,0:0:0:0:
64,192,72691,1,2,0:0:0:0:
192,192,72867,1,0,0:0:0:0:
320,192,73044,1,2,0:0:0:0:
448,192,73220,1,0,0:0:0:60:LTom1.wav
64,192,73396,1,2,0:0:0:0:
192,192,73396,1,0,0:0:0:40:Hat Close.wav
320,192,73573,1,0,0:0:0:60:LTom3.wav
448,192,73573,1,0,0:0:0:0:
192,192,73749,1,2,0:0:0:0:
64,192,73926,1,0,0:0:0:30:Hat Open.wav
320,192,73926,1,0,0:0:0:50:Snare.wav
448,192,74102,1,2,0:0:0:0:
320,192,74279,1,0,0:0:0:50:Tom2.wav
192,192,74455,1,0,0:0:0:50:Tom3.wav
64,192,74632,1,0,0:0:0:60:LTom3.wav
320,192,74808,1,2,0:0:0:0:
448,192,74808,128,4,75161:0:0:0:0:
64,192,75161,1,2,0:0:0:0:
320,192,75338,128,0,75514:0:0:0:10:Snare.wav
192,192,75514,128,2,75691:0:0:0:0:
448,192,75514,1,0,0:0:0:12:Snare.wav
64,192,75691,128,0,75867:0:0:0:16:Snare.wav
320,192,75867,128,2,76044:0:0:0:0:
448,192,75867,1,0,0:0:0:20:Snare.wav
192,192,76044,128,0,76220:0:0:0:26:Snare.wav
64,192,76220,1,2,0:0:0:0:
448,192,76220,128,0,76396:0:0:0:33:Snare.wav
320,192,76396,128,0,76573:0:0:0:38:Snare.wav
64,192,76573,1,2,0:0:0:0:
192,192,76573,128,0,76749:0:0:0:45:Snare.wav
320,192,76749,128,0,76926:0:0:0:50:Snare.wav
64,192,76926,128,2,77102:0:0:0:0:
448,192,76926,1,0,0:0:0:50:Snare.wav
192,192,77102,128,0,77279:0:0:0:50:Snare.wav
320,192,77279,128,2,77455:0:0:0:0:
448,192,77279,1,0,0:0:0:50:Snare.wav
192,192,77455,128,0,77632:0:0:0:50:Snare.wav
64,192,77632,128,2,77985:0:0:0:0:
320,192,77632,1,4,0:0:0:0:
448,192,77985,1,2,0:0:0:0:
320,192,78161,1,0,0:0:0:0:
192,192,78338,1,2,0:0:0:0:
448,192,78514,128,0,78691:0:0:0:10:Snare.wav
64,192,78691,1,2,0:0:0:0:
192,192,78867,128,0,79044:0:0:0:15:Snare.wav
320,192,79044,128,2,79220:0:0:0:0:
448,192,79044,1,0,0:0:0:30:Snare.wav
64,192,79220,128,0,79396:0:0:0:20:Snare.wav
448,192,79396,1,2,0:0:0:0:
192,192,79573,1,0,0:0:0:40:Snare.wav
64,192,79749,1,2,0:0:0:0:
320,192,79749,128,0,79926:0:0:0:15:Snare.wav
192,192,79926,128,0,80102:0:0:0:30:Snare.wav
64,192,80102,1,2,0:0:0:0:
448,192,80102,128,0,80279:0:0:0:50:Snare.wav
320,192,80279,128,0,80455:0:0:0:50:Tom2.wav
64,192,80455,128,2,80985:0:0:0:0:
192,192,80455,1,4,0:0:0:0:
320,192,80808,1,0,0:0:0:30:Hat Open.wav
192,192,80985,128,2,81514:0:0:0:0:
448,192,81161,1,8,0:0:0:0:
64,192,81514,1,2,0:0:0:0:
320,192,81514,128,4,81867:0:0:0:0:
192,192,81867,1,0,0:0:0:30:Hat Open.wav
64,192,82044,1,2,0:0:0:0:
320,192,82220,1,8,0:0:0:0:
448,192,82220,1,0,0:0:0:30:Hat Open.wav
192,192,82396,1,2,0:0:0:0:
64,192,82573,1,4,0:0:0:0:
448,192,82573,1,8,0:0:0:0:
320,192,82749,1,0,0:0:0:50:Tom2.wav
192,192,82926,1,2,0:0:0:0:
320,192,83102,1,0,0:0:0:50:Tom3.wav
64,192,83279,128,4,83455:0:0:0:0:
448,192,83279,1,2,0:0:0:0:
320,192,83632,1,0,0:0:0:30:Hat Open.wav
192,192,83808,128,2,84161:0:0:0:0:
64,192,83985,1,8,0:0:0:0:
320,192,84161,1,0,0:0:0:0:
64,192,84338,1,4,0:0:0:0:
448,192,84338,128,2,84691:0:0:0:0:
64,192,84691,1,8,0:0:0:0:
192,192,84691,128,0,84867:0:0:0:0:
320,192,84867,128,8,85044:0:0:0:0:
192,192,85044,1,2,0:0:0:0:
448,192,85044,1,0,0:0:0:50:Tom2.wav
64,192,85220,128,0,85396:0:0:0:50:Tom3.wav
320,192,85396,1,2,0:0:0:0:
448,192,85396,1,8,0:0:0:0:
64,192,85573,1,10,0:0:0:0:
192,192,85573,1,0,0:0:0:30:Hat Open.wav
192,192,86102,1,2,0:0:0:0:
320,192,86102,128,4,87867:0:0:0:0:
448,192,86455,1,8,0:0:0:0:
192,192,86808,1,2,0:0:0:0:
64,192,86985,1,2,0:0:0:0:
448,192,87161,1,8,0:0:0:0:
64,192,87514,1,2,0:0:0:0:
192,192,87867,128,8,88220:0:0:0:0:
448,192,87867,1,0,0:0:0:30:Hat Open.wav
320,192,88220,128,2,88573:0:0:0:0:
448,192,88396,1,2,0:0:0:0:
64,192,88573,128,8,88926:0:0:0:0:
192,192,88573,1,0,0:0:0:30:Hat Open.wav
448,192,88926,128,2,89455:0:0:0:0:
64,192,89279,1,8,0:0:0:0:
192,192,89455,128,0,89985:0:0:0:0:
320,192,89632,1,2,0:0:0:0:
64,192,89808,1,2,0:0:0:0:
320,192,89985,128,8,90338:0:0:0:0:
448,192,89985,1,0,0:0:0:30:Hat Open.wav
192,192,90338,128,2,90867:0:0:0:0:
448,192,90691,1,8,0:0:0:0:
64,192,90867,128,0,91396:0:0:0:0:
320,192,91044,1,2,0:0:0:0:
448,192,91220,1,2,0:0:0:0:
192,192,91396,1,8,0:0:0:0:
320,192,91396,1,0,0:0:0:30:Hat Open.wav
64,192,91573,1,8,0:0:0:0:
320,192,91749,1,4,0:0:0:0:
448,192,91749,128,2,92455:0:0:0:0:
64,192,92102,1,8,0:0:0:0:
192,192,92455,128,2,93161:0:0:0:0:
320,192,92632,1,2,0:0:0:0:
64,192,92808,1,8,0:0:0:0:
320,192,93161,128,2,93867:0:0:0:0:
448,192,93161,1,4,0:0:0:0:
64,192,93514,1,8,0:0:0:0:
448,192,93867,128,2,94573:0:0:0:0:
64,192,94044,1,2,0:0:0:0:
192,192,94220,1,8,0:0:0:0:
320,192,94396,1,8,0:0:0:0:
64,192,94573,128,4,95808:0:0:0:0:
192,192,94573,1,2,0:0:0:0:
320,192,94926,1,8,0:0:0:0:
448,192,95279,1,2,0:0:0:0:
320,192,95455,1,2,0:0:0:0:
192,192,95632,1,8,0:0:0:0:
320,192,95808,1,2,0:0:0:0:
448,192,95808,1,4,0:0:0:0:
64,192,95985,1,8,0:0:0:0:
192,192,95985,128,0,96161:0:0:0:0:
320,192,96161,128,0,96338:0:0:0:50:Tom2.wav
448,192,96338,128,0,96514:0:0:0:50:Tom2.wav
64,192,96514,1,8,0:0:0:0:
192,192,96514,128,0,96691:0:0:0:0:
320,192,96691,128,2,96867:0:0:0:0:
448,192,96867,128,0,97044:0:0:0:50:Tom3.wav
64,192,97044,1,8,0:0:0:0:
192,192,97044,128,0,97220:0:0:0:0:
320,192,97220,128,0,97396:0:0:0:50:Tom3.wav
64,192,97396,1,4,0:0:0:0:
448,192,97396,1,2,0:0:0:0:
448,192,97573,1,2,0:0:0:0:
192,192,97749,1,8,0:0:0:0:
320,192,97749,1,0,0:0:0:40:Ride.wav
64,192,97926,1,2,0:0:0:0:
448,192,98102,1,0,0:0:0:40:Ride.wav
192,192,98279,1,2,0:0:0:0:
320,192,98279,1,8,0:0:0:0:
64,192,98455,1,2,0:0:0:0:
448,192,98455,128,4,98808:0:0:0:0:
192,192,98808,1,2,0:0:0:0:
320,192,98985,1,8,0:0:0:0:
448,192,98985,1,0,0:0:0:0:
64,192,99161,1,8,0:0:0:0:
192,192,99161,1,4,0:0:0:0:
320,192,99514,1,2,0:0:0:0:
192,192,99691,1,0,0:0:0:50:Tom3.wav
64,192,99867,128,8,100044:0:0:0:0:
448,192,99867,1,0,0:0:0:0:
320,192,100044,128,0,100220:0:0:0:50:Tom2.wav
64,192,100220,1,4,0:0:0:0:
192,192,100220,1,2,0:0:0:0:
192,192,100396,1,2,0:0:0:0:
320,192,100573,1,8,0:0:0:0:
448,192,100573,1,0,0:0:0:40:Ride.wav
64,192,100749,1,2,0:0:0:0:
448,192,100926,1,0,0:0:0:40:Ride.wav
192,192,101102,1,2,0:0:0:0:
64,192,101279,1,12,0:0:0:0:
320,192,101279,128,2,101632:0:0:0:0:
192,192,101632,1,8,0:0:0:0:
448,192,101632,1,2,0:0:0:0:
64,192,101808,128,8,101985:0:0:0:0:
320,192,101985,1,8,0:0:0:0:
448,192,101985,1,0,0:0:0:0:
192,192,102161,1,0,0:0:0:50:Tom3.wav
64,192,102338,1,2,0:0:0:0:
448,192,102514,1,0,0:0:0:50:Tom3.wav
64,192,102691,128,8,102867:0:0:0:0:
320,192,102691,1,0,0:0:0:0:
192,192,102867,128,0,103044:0:0:0:50:Tom2.wav
320,192,103044,1,4,0:0:0:0:
448,192,103044,1,2,0:0:0:0:
448,192,103220,1,0,0:0:0:50:Tom3.wav
192,192,103396,1,8,0:0:0:0:
320,192,103396,1,0,0:0:0:50:Tom3.wav
192,192,103573,1,0,0:0:0:50:Tom3.wav
64,192,103749,1,2,0:0:0:0:
320,192,103749,1,0,0:0:0:50:Tom3.wav
320,192,103926,1,2,0:0:0:0:
64,192,104102,1,8,0:0:0:0:
448,192,104102,1,0,0:0:0:50:Tom3.wav
192,192,104279,1,0,0:0:0:50:Tom3.wav
320,192,104455,1,2,0:0:0:0:
448,192,104455,1,4,0:0:0:0:
64,192,104808,1,8,0:0:0:0:
192,192,104808,1,0,0:0:0:50:Tom3.wav
64,192,104985,1,0,0:0:0:50:Tom3.wav
192,192,105161,1,2,0:0:0:0:
448,192,105161,1,0,0:0:0:50:Tom3.wav
448,192,105338,1,2,0:0:0:0:
64,192,105514,1,8,0:0:0:0:
320,192,105514,1,0,0:0:0:50:Tom3.wav
192,192,105691,1,0,0:0:0:50:Tom2.wav
64,192,105867,1,4,0:0:0:0:
448,192,105867,1,2,0:0:0:0:
192,192,106220,1,8,0:0:0:0:
320,192,106220,1,0,0:0:0:50:Tom3.wav
320,192,106396,1,0,0:0:0:50:Tom3.wav
192,192,106573,1,2,0:0:0:0:
448,192,106573,1,0,0:0:0:50:Tom3.wav
192,192,106749,1,2,0:0:0:0:
64,192,106926,1,8,0:0:0:0:
320,192,106926,1,0,0:0:0:50:Tom3.wav
448,192,107102,1,0,0:0:0:50:Tom2.wav
64,192,107279,1,10,0:0:0:0:
192,192,107279,1,4,0:0:0:0:
320,192,107455,1,8,0:0:0:0:
448,192,107455,1,0,0:0:0:0:
64,192,107632,1,8,0:0:0:0:
192,192,107632,1,0,0:0:0:0:
320,192,107808,1,0,0:0:0:50:Tom3.wav
64,192,107985,1,8,0:0:0:0:
448,192,107985,1,0,0:0:0:0:
192,192,108161,1,0,0:0:0:50:Tom3.wav
320,192,108338,128,8,108514:0:0:0:0:
448,192,108338,1,0,0:0:0:0:
192,192,108514,128,0,108691:0:0:0:50:Tom2.wav
64,192,108691,1,4,0:0:0:0:
448,192,108691,128,2,109749:0:0:0:0:
192,192,109044,1,8,0:0:0:0:
64,192,109396,1,2,0:0:0:0:
192,192,109573,1,2,0:0:0:0:
64,192,109749,1,8,0:0:0:0:
320,192,109749,1,0,0:0:0:30:Ride.wav
192,192,109926,1,2,0:0:0:0:
320,192,110102,1,6,0:0:0:0:
448,192,110102,1,8,0:0:0:0:
64,192,110279,128,8,110455:0:0:0:0:
320,192,110455,1,8,0:0:0:0:
448,192,110455,1,0,0:0:0:0:
192,192,110632,1,0,0:0:0:50:Tom2.wav
64,192,110808,1,8,0:0:0:0:
448,192,110808,1,0,0:0:0:0:
320,192,110985,1,0,0:0:0:50:Tom3.wav
64,192,111161,1,8,0:0:0:0:
192,192,111161,128,0,111338:0:0:0:0:
320,192,111338,128,0,111514:0:0:0:50:Tom2.wav
192,192,111514,1,6,0:0:0:0:
448,192,111514,1,8,0:0:0:0:
64,192,111867,1,8,0:0:0:20:soft-hitclap.wav
320,192,111867,1,0,0:0:0:50:Tom3.wav
64,192,112044,1,8,0:0:0:24:soft-hitclap.wav
192,192,112220,1,8,0:0:0:28:soft-hitclap.wav
448,192,112220,1,0,0:0:0:50:Tom3.wav
320,192,112396,1,8,0:0:0:32:soft-hitclap.wav
64,192,112573,1,8,0:0:0:36:soft-hitclap.wav
192,192,112573,1,0,0:0:0:50:Tom3.wav
320,192,112749,1,8,0:0:0:40:soft-hitclap.wav
64,192,112926,1,2,0:0:0:0:
448,192,112926,1,4,0:0:0:0:
192,192,113279,1,8,0:0:0:40:soft-hitclap.wav
320,192,113279,1,0,0:0:0:50:Tom3.wav
448,192,113455,1,8,0:0:0:45:soft-hitclap.wav
64,192,113632,1,8,0:0:0:0:
192,192,113632,1,0,0:0:0:50:Tom3.wav
320,192,113808,1,8,0:0:0:0:
192,192,113985,1,8,0:0:0:0:
448,192,113985,1,0,0:0:0:50:Tom3.wav
320,192,114161,1,8,0:0:0:0:
64,192,114338,1,4,0:0:0:0:
448,192,114338,1,2,0:0:0:0:
320,192,114691,1,2,0:0:0:0:
64,192,114867,1,8,0:0:0:0:
192,192,114867,1,0,0:0:0:50:Tom3.wav
320,192,115044,1,8,0:0:0:0:
448,192,115044,1,0,0:0:0:50:Tom3.wav
64,192,115220,1,8,0:0:0:0:
192,192,115220,1,0,0:0:0:50:Tom3.wav
320,192,115396,128,8,115573:0:0:0:0:
448,192,115396,1,0,0:0:0:0:
192,192,115573,128,0,115749:0:0:0:50:Tom2.wav
64,192,115749,1,10,0:0:0:0:
448,192,115749,1,0,0:0:0:30:Hat Open.wav
64,192,117161,1,2,0:0:0:0:
320,192,117161,1,4,0:0:0:0:
320,192,117514,1,2,0:0:0:0:
320,192,117867,1,2,0:0:0:0:
320,192,118220,1,2,0:0:0:0:
192,192,118396,1,0,0:0:0:50:Tom2.wav
320,192,118573,1,2,0:0:0:0:
64,192,118749,1,0,0:0:0:30:Hat Open.wav
192,192,118926,1,2,0:0:0:0:
320,192,119102,1,8,0:0:0:0:
448,192,119102,1,0,0:0:0:0:
64,192,119279,1,2,0:0:0:0:
192,192,119455,1,0,0:0:0:50:Tom2.wav
320,192,119632,1,2,0:0:0:0:
192,192,119808,1,0,0:0:0:0:
64,192,119985,1,2,0:0:0:0:
448,192,119985,1,4,0:0:0:0:
320,192,120161,1,0,0:0:0:0:
192,192,120338,1,2,0:0:0:0:
64,192,120514,1,0,0:0:0:0:
320,192,120691,1,2,0:0:0:0:
192,192,120867,1,8,0:0:0:0:
448,192,120867,1,0,0:0:0:30:Hat Open.wav
64,192,121044,1,2,0:0:0:0:
448,192,121396,1,2,0:0:0:0:
192,192,121573,1,0,0:0:0:0:
320,192,121749,1,2,0:0:0:0:
448,192,121926,1,0,0:0:0:0:
64,192,122102,1,2,0:0:0:0:
192,192,122102,1,8,0:0:0:20:soft-hitclap.wav
320,192,122279,1,10,0:0:0:0:
448,192,122279,1,0,0:0:0:50:Tom3.wav
64,192,122455,1,10,0:0:0:0:
192,192,122455,1,0,0:0:0:50:Tom3.wav
320,192,122632,1,10,0:0:0:0:
448,192,122632,1,0,0:0:0:50:Tom3.wav
