osu file format v14

[General]
AudioFilename: audio.ogg
AudioLeadIn: 0
PreviewTime: 85308
Countdown: 0
SampleSet: Soft
StackLeniency: 0.7
Mode: 3
LetterboxInBreaks: 0
EpilepsyWarning: 1
SpecialStyle: 0
WidescreenStoryboard: 1

[Editor]
DistanceSpacing: 1.6
BeatDivisor: 4
GridSize: 16
TimelineZoom: 2

[Metadata]
Title:Tiny Light (Cut Ver.)
TitleUnicode:Tiny Light (Cut Ver.)
Artist:Kito Akari
ArtistUnicode:鬼頭明里
Creator:ML-ysg
Version:Hard
Source:地縛少年花子くん
Tags:Sun [ Lovega ] anime japanese j-pop jpop pop ed ending 八尋寧々 Yashiro Nene Jibaku Shounen Hanako-kun Toilet-bound PCCG-01871 kitou akari saku
BeatmapID:3878875
BeatmapSetID:1883953

[Difficulty]
HPDrainRate:7.5
CircleSize:4
OverallDifficulty:7.5
ApproachRate:5
SliderMultiplier:1.4
SliderTickRate:1

[Events]
//Background and Video events
0,0,"hanako.jpg",0,0
//Break Periods
//Storyboard Layer 0 (Background)
//Storyboard Layer 1 (Fail)
//Storyboard Layer 2 (Pass)
//Storyboard Layer 3 (Foreground)
//Storyboard Layer 4 (Overlay)
//Storyboard Sound Samples
Sample,41102,0,"Tiny Hihat.wav",35
Sample,43926,0,"Tiny Hihat.wav",35
Sample,46749,0,"Tiny Hihat.wav",35
Sample,49573,0,"Tiny Hihat.wav",35
Sample,52396,0,"Tiny Hihat.wav",35
Sample,55220,0,"Tiny Hihat.wav",35
Sample,58044,0,"Tiny Hihat.wav",35
Sample,60691,0,"Tiny Hihat.wav",35
Sample,60867,0,"Tiny Hihat.wav",35
Sample,64220,0,"Hat Close.wav",40
Sample,64926,0,"LTom3.wav",60
Sample,66338,0,"LTom3.wav",60
Sample,67749,0,"LTom3.wav",60
Sample,69161,0,"LTom3.wav",60
Sample,69867,0,"Hat Close.wav",40
Sample,70573,0,"LTom3.wav",60
Sample,71985,0,"LTom3.wav",60
Sample,72691,0,"Hat Close.wav",40
Sample,73396,0,"LTom3.wav",60
Sample,86808,0,"Hat Open.wav",30
Sample,87514,0,"Hat Open.wav",30
Sample,89632,0,"Hat Open.wav",30
Sample,92455,0,"Hat Open.wav",30
Sample,95279,0,"Hat Open.wav",30
Sample,111691,0,"Tom3.wav",50
Sample,112044,0,"Tom3.wav",50
Sample,113102,0,"Tom3.wav",50
Sample,117514,0,"Hat Close.wav",40
Sample,117867,0,"Hat Close.wav",40
Sample,118220,0,"Hat Close.wav",40
Sample,118573,0,"Tom3.wav",50
Sample,118926,0,"Hat Close.wav",40
Sample,119279,0,"Hat Close.wav",40
Sample,119632,0,"Tom3.wav",50
Sample,119632,0,"Hat Close.wav",40
Sample,120338,0,"Hat Close.wav",40
Sample,120691,0,"Hat Close.wav",40
Sample,121044,0,"Hat Close.wav",40
Sample,122102,0,"Tom3.wav",50

[TimingPoints]
1397,352.941176470588,4,2,1,50,1,0
63514,-100,4,2,1,50,0,1
74632,-100,4,2,1,50,0,0
74808,-100,4,2,1,50,0,1
85573,-100,4,2,1,50,0,0
86102,-100,4,2,1,50,0,1
115749,-100,4,2,1,50,0,0

[HitObjects]
64,192,1397,5,0,0:0:0:60:F5S.wav
448,192,1397,1,0,0:0:0:60:G7S.wav
320,192,1573,1,0,0:0:0:60:B6S.wav
192,192,1749,1,0,0:0:0:60:C7S.wav
64,192,1926,1,0,0:0:0:60:G7S.wav
320,192,2102,1,0,0:0:0:60:B6S.wav
192,192,2279,1,0,0:0:0:60:C7S.wav
64,192,2455,128,0,3514:0:0:0:60:G5S.wav
448,192,2455,1,0,0:0:0:60:G7S.wav
320,192,3514,1,0,0:0:0:60:F7S.wav
192,192,3691,1,0,0:0:0:60:E7S.wav
448,192,3867,1,0,0:0:0:60:D7S.wav
64,192,4044,1,0,0:0:0:60:C7S.wav
192,192,4220,1,0,0:0:0:60:A5S.wav
320,192,4220,1,0,0:0:0:60:B6S.wav
448,192,4396,1,0,0:0:0:60:G6S.wav
64,192,4573,1,0,0:0:0:60:E6S.wav
192,192,4749,128,0,5279:0:0:0:60:C7S.wav
448,192,5279,128,0,7044:0:0:0:60:G6S.wav
320,192,5808,128,0,7044:0:0:0:0:
64,192,7044,1,0,0:0:0:60:F4S.wav
192,192,7044,1,0,0:0:0:60:G6S.wav
320,192,7220,1,0,0:0:0:60:B5S.wav
448,192,7396,1,0,0:0:0:60:C6S.wav
192,192,7573,1,0,0:0:0:60:G6S.wav
320,192,7749,1,0,0:0:0:60:B5S.wav
448,192,7926,1,0,0:0:0:60:C6S.wav
64,192,8102,1,0,0:0:0:60:G4S.wav
192,192,8102,128,0,9161:0:0:0:60:G6S.wav
448,192,9161,1,0,0:0:0:60:F6S.wav
320,192,9338,1,0,0:0:0:60:E6S.wav
64,192,9514,1,0,0:0:0:60:D6S.wav
192,192,9691,1,0,0:0:0:60:C6S.wav
320,192,9867,1,0,0:0:0:60:G#4S_Ab4S.wav
448,192,9867,1,0,0:0:0:60:B5S.wav
64,192,10044,1,0,0:0:0:60:G#5S_Ab5S.wav
448,192,10220,1,0,0:0:0:60:A5S.wav
192,192,10396,128,0,10926:0:0:0:60:F6S.wav
64,192,10926,1,0,0:0:0:60:A4S.wav
320,192,10926,128,0,11632:0:0:0:60:E6S.wav
64,192,11632,1,0,0:0:0:60:B5S.wav
192,192,11749,1,0,0:0:0:60:C6S.wav
320,192,11867,1,0,0:0:0:60:D6S.wav
192,192,11985,1,0,0:0:0:60:E6S.wav
320,192,12102,1,0,0:0:0:60:F6S.wav
448,192,12196,1,0,0:0:0:60:G6S.wav
64,192,12294,1,0,0:0:0:60:A6S.wav
192,192,12404,1,0,0:0:0:60:B6S.wav
448,192,12514,1,0,0:0:0:60:C7S.wav
320,192,12602,1,0,0:0:0:60:D7S.wav
64,192,12691,1,0,0:0:0:60:G#4S_Ab4S.wav
192,192,12691,1,0,0:0:0:60:D#7S_Eb7S.wav
448,192,12867,1,0,0:0:0:60:C7S.wav
192,192,13044,1,0,0:0:0:60:G6S.wav
320,192,13220,1,0,0:0:0:60:C7S.wav
448,192,13220,1,0,0:0:0:0:
64,192,13396,1,0,0:0:0:60:G6S.wav
320,192,13573,1,0,0:0:0:60:D#6S_Eb6S.wav
64,192,13749,1,0,0:0:0:60:G6S.wav
192,192,13749,1,0,0:0:0:0:
448,192,13926,1,0,0:0:0:60:D#6S_Eb6S.wav
192,192,14102,1,0,0:0:0:60:C6S.wav
64,192,14279,1,0,0:0:0:60:D#6S_Eb6S.wav
448,192,14279,1,0,0:0:0:0:
320,192,14455,1,0,0:0:0:60:C6S.wav
64,192,14632,1,0,0:0:0:60:G5S.wav
192,192,14808,1,0,0:0:0:60:C6S.wav
448,192,14808,1,0,0:0:0:0:
320,192,14985,1,0,0:0:0:60:G5S.wav
192,192,15161,128,0,15514:0:0:0:60:D#5S_Eb5S.wav
64,192,15514,1,0,0:0:0:60:G3S.wav
320,192,15514,128,0,16926:0:0:0:60:E5S.wav
64,192,16926,128,0,17985:0:0:0:60:B5S.wav
448,192,16926,128,0,17985:0:0:0:0:
64,192,18338,128,0,18867:0:0:0:0:
320,192,18338,1,0,0:0:0:0:
192,192,18691,1,0,0:0:0:0:
448,192,18867,128,0,19396:0:0:0:0:
192,192,19396,128,0,20279:0:0:0:0:
320,192,19749,1,0,0:0:0:0:
448,192,20455,128,0,20808:0:0:0:0:
64,192,20808,128,0,21161:0:0:0:0:
192,192,21161,1,0,0:0:0:0:
320,192,21161,128,0,21691:0:0:0:0:
448,192,21514,1,0,0:0:0:0:
192,192,21691,128,0,22044:0:0:0:0:
448,192,22220,128,0,23279:0:0:0:0:
64,192,22573,1,0,0:0:0:0:
192,192,23808,128,0,23985:0:0:0:0:
320,192,23985,128,0,24338:0:0:0:0:
448,192,23985,1,0,0:0:0:0:
64,192,24338,128,0,24514:0:0:0:0:
448,192,24514,128,0,25044:0:0:0:0:
192,192,25044,128,0,25220:0:0:0:0:
448,192,25220,128,0,26102:0:0:0:0:
64,192,25396,1,0,0:0:0:0:
320,192,26632,128,0,26808:0:0:0:0:
64,192,26808,128,0,27161:0:0:0:0:
192,192,26808,1,0,0:0:0:0:
448,192,27161,128,0,27338:0:0:0:0:
192,192,27338,128,0,27867:0:0:0:0:
320,192,27867,128,0,28044:0:0:0:0:
192,192,28044,128,0,29102:0:0:0:0:
448,192,28220,1,0,0:0:0:0:
64,192,29632,1,0,0:0:0:0:
448,192,29632,128,0,29985:0:0:0:0:
192,192,29985,1,0,0:0:0:0:
320,192,30161,128,0,30691:0:0:0:0:
192,192,30691,128,0,31573:0:0:0:0:
448,192,31044,1,0,0:0:0:0:
64,192,31749,128,0,32102:0:0:0:0:
448,192,32102,128,0,32455:0:0:0:0:
192,192,32455,1,0,0:0:0:0:
320,192,32455,128,0,32808:0:0:0:0:
64,192,32808,1,0,0:0:0:0:
192,192,32985,128,0,33514:0:0:0:0:
448,192,33514,128,0,34573:0:0:0:0:
64,192,33867,1,0,0:0:0:0:
320,192,34220,1,0,0:0:0:0:
192,192,34396,1,0,0:0:0:0:
64,192,34926,1,0,0:0:0:0:
320,192,35102,1,0,0:0:0:0:
192,192,35279,128,0,35632:0:0:0:0:
448,192,35279,1,0,0:0:0:0:
320,192,35632,1,0,0:0:0:0:
64,192,35808,128,0,36161:0:0:0:0:
448,192,36338,128,0,36514:0:0:0:0:
192,192,36514,128,0,36867:0:0:0:0:
320,192,36691,1,0,0:0:0:0:
448,192,37044,128,0,37396:0:0:0:0:
64,192,37396,128,0,37749:0:0:0:0:
320,192,37749,128,0,38102:0:0:0:0:
64,192,38102,128,0,38632:0:0:0:0:
448,192,38279,1,0,0:0:0:0:
192,192,38455,1,0,0:0:0:0:
448,192,38632,128,0,39867:0:0:0:0:
320,192,38808,1,0,0:0:0:0:
64,192,38985,1,0,0:0:0:0:
192,192,39161,1,0,0:0:0:0:
320,192,39338,1,0,0:0:0:0:
64,192,40573,128,0,40926:0:0:0:0:
192,192,40926,128,0,41279:0:0:0:50:Kick.wav
320,192,40926,1,0,0:0:0:35:Tiny Hihat.wav
448,192,41102,1,0,0:0:0:50:Kick.wav
320,192,41279,128,0,41455:0:0:0:0:
192,192,41455,128,0,41808:0:0:0:35:Tiny Hihat.wav
64,192,41985,128,0,42338:0:0:0:0:
320,192,42338,128,0,42691:0:0:0:35:Tiny Hihat.wav
192,192,42691,128,0,43044:0:0:0:0:
64,192,42867,1,0,0:0:0:0:
448,192,43044,128,0,43396:0:0:0:0:
320,192,43220,1,0,0:0:0:50:Kick.wav
192,192,43396,128,0,43749:0:0:0:35:Tiny Hihat.wav
64,192,43749,1,0,0:0:0:50:Kick.wav
448,192,43749,128,0,44102:0:0:0:35:Tiny Hihat.wav
320,192,43926,1,0,0:0:0:50:Kick.wav
64,192,44102,128,0,44279:0:0:0:0:
320,192,44279,128,0,45514:0:0:0:35:Tiny Hihat.wav
448,192,44632,1,0,0:0:0:0:
192,192,44808,1,0,0:0:0:0:
64,192,44985,1,0,0:0:0:35:Tiny Hihat.wav
192,192,45161,1,0,0:0:0:35:Tiny Hihat.wav
64,192,45514,1,0,0:0:0:50:Kick.wav
448,192,45514,1,0,0:0:0:0:
192,192,45691,1,0,0:0:0:0:
64,192,46044,1,0,0:0:0:50:Kick.wav
448,192,46044,1,0,0:0:0:0:
320,192,46220,128,0,46573:0:0:0:35:Tiny Hihat.wav
64,192,46573,128,0,46926:0:0:0:50:Kick.wav
448,192,46573,1,0,0:0:0:35:Tiny Hihat.wav
192,192,46749,1,0,0:0:0:50:Kick.wav
448,192,46926,128,0,47102:0:0:0:0:
64,192,47102,128,0,47455:0:0:0:35:Tiny Hihat.wav
320,192,47632,128,0,47985:0:0:0:0:
192,192,47985,128,0,48338:0:0:0:35:Tiny Hihat.wav
448,192,48338,128,0,48691:0:0:0:0:
320,192,48514,1,0,0:0:0:0:
192,192,48602,1,0,0:0:0:0:
64,192,48691,128,0,49044:0:0:0:0:
320,192,48867,1,0,0:0:0:50:Kick.wav
192,192,49044,128,0,49396:0:0:0:35:Tiny Hihat.wav
64,192,49396,1,0,0:0:0:50:Kick.wav
448,192,49396,128,0,49749:0:0:0:35:Tiny Hihat.wav
320,192,49573,1,0,0:0:0:50:Kick.wav
64,192,49749,128,0,49926:0:0:0:0:
320,192,49926,128,0,50808:0:0:0:35:Tiny Hihat.wav
64,192,50279,1,0,0:0:0:0:
448,192,50455,1,0,0:0:0:0:
192,192,50632,1,0,0:0:0:35:Tiny Hihat.wav
64,192,50808,1,0,0:0:0:35:Tiny Hihat.wav
448,192,50985,1,0,0:0:0:0:
192,192,51161,1,0,0:0:0:50:Kick.wav
320,192,51161,1,0,0:0:0:0:
64,192,51338,1,0,0:0:0:0:
320,192,51514,1,0,0:0:0:0:
64,192,51691,1,0,0:0:0:50:Kick.wav
192,192,51691,1,0,0:0:0:0:
320,192,51867,1,0,0:0:0:35:Tiny Hihat.wav
448,192,52044,1,0,0:0:0:0:
64,192,52220,1,0,0:0:0:50:Kick.wav
192,192,52220,128,0,52396:0:0:0:35:Tiny Hihat.wav
320,192,52396,1,0,0:0:0:50:Kick.wav
448,192,52573,128,0,52749:0:0:0:0:
64,192,52749,128,0,53279:0:0:0:35:Tiny Hihat.wav
320,192,53279,128,0,53455:0:0:0:50:Kick.wav
192,192,53455,128,0,54161:0:0:0:35:Tiny Hihat.wav
448,192,53632,1,0,0:0:0:35:Tiny Hihat.wav
320,192,53985,1,0,0:0:0:50:Kick.wav
64,192,54161,1,0,0:0:0:0:
320,192,54338,1,0,0:0:0:0:
64,192,54514,1,0,0:0:0:50:Kick.wav
448,192,54514,1,0,0:0:0:0:
192,192,54691,128,0,55044:0:0:0:35:Tiny Hihat.wav
320,192,55044,1,0,0:0:0:50:Kick.wav
448,192,55044,128,0,55396:0:0:0:35:Tiny Hihat.wav
64,192,55220,1,0,0:0:0:50:Kick.wav
192,192,55396,128,0,55573:0:0:0:0:
448,192,55573,128,0,55926:0:0:0:35:Tiny Hihat.wav
64,192,56102,128,0,56279:0:0:0:50:Kick.wav
192,192,56102,1,0,0:0:0:0:
320,192,56279,128,0,57161:0:0:0:35:Tiny Hihat.wav
448,192,56455,1,0,0:0:0:35:Tiny Hihat.wav
64,192,56808,1,0,0:0:0:50:Kick.wav
192,192,56985,1,0,0:0:0:0:
64,192,57338,1,0,0:0:0:50:Kick.wav
192,192,57338,1,0,0:0:0:0:
448,192,57514,128,0,57867:0:0:0:35:Tiny Hihat.wav
192,192,57867,1,0,0:0:0:50:Kick.wav
320,192,57867,128,0,58220:0:0:0:35:Tiny Hihat.wav
64,192,58044,1,0,0:0:0:50:Kick.wav
448,192,58220,128,0,58396:0:0:0:0:
64,192,58396,128,0,58926:0:0:0:35:Tiny Hihat.wav
192,192,58749,1,0,0:0:0:0:
320,192,58926,128,0,59102:0:0:0:50:Kick.wav
448,192,58926,1,0,0:0:0:0:
64,192,59102,128,0,59632:0:0:0:35:Tiny Hihat.wav
192,192,59279,1,0,0:0:0:35:Tiny Hihat.wav
320,192,59632,128,0,59808:0:0:0:50:Kick.wav
448,192,59632,1,0,0:0:0:0:
64,192,59808,128,0,60338:0:0:0:0:
192,192,59985,1,0,0:0:0:0:
448,192,60161,1,0,0:0:0:50:Kick.wav
192,192,60338,128,0,60514:0:0:0:35:Tiny Hihat.wav
320,192,60514,128,0,61573:0:0:0:0:
64,192,60691,1,0,0:0:0:50:Kick.wav
448,192,60867,1,0,0:0:0:50:Kick.wav
192,192,61044,128,0,62102:0:0:0:0:
448,192,61749,1,0,0:0:0:50:Kick.wav
320,192,61926,1,0,0:0:0:35:Tiny Hihat.wav
64,192,62102,128,2,62808:0:0:0:0:
448,192,62102,1,0,0:0:0:35:Tiny Hihat.wav
320,192,62808,128,0,63161:0:0:0:0:
192,192,63161,128,0,63514:0:0:0:0:
64,192,63514,1,2,0:0:0:0:
320,192,63514,1,4,0:0:0:0:
448,192,63514,1,0,0:0:0:60:LTom3.wav
64,192,63691,1,0,0:0:0:60:LTom3.wav
192,192,63691,1,0,0:0:0:0:
320,192,63867,128,2,64044:0:0:0:0:
448,192,63867,1,0,0:0:0:40:Hat Close.wav
64,192,64044,128,0,64396:0:0:0:0:
448,192,64220,1,2,0:0:0:0:
192,192,64573,1,2,0:0:0:0:
320,192,64573,1,0,0:0:0:40:Hat Close.wav
64,192,64749,1,0,0:0:0:60:LTom1.wav
192,192,64838,1,0,0:0:0:60:LTom3.wav
320,192,64926,1,2,0:0:0:0:
448,192,64926,1,0,0:0:0:40:Hat Close.wav
64,192,65102,1,0,0:0:0:60:LTom3.wav
192,192,65102,1,0,0:0:0:0:
320,192,65279,128,2,65455:0:0:0:0:
448,192,65279,1,0,0:0:0:40:Hat Close.wav
192,192,65455,128,0,65632:0:0:0:0:
64,192,65632,1,2,0:0:0:0:
448,192,65632,1,0,0:0:0:40:Hat Close.wav
64,192,65985,1,2,0:0:0:0:
320,192,65985,1,0,0:0:0:40:Hat Close.wav
192,192,66161,1,0,0:0:0:0:
64,192,66338,1,2,0:0:0:0:
448,192,66338,1,0,0:0:0:40:Hat Close.wav
192,192,66514,1,0,0:0:0:60:LTom3.wav
320,192,66514,1,0,0:0:0:0:
64,192,66691,1,2,0:0:0:0:
448,192,66691,128,0,66867:0:0:0:40:Hat Close.wav
192,192,66867,128,0,67044:0:0:0:0:
320,192,67044,1,2,0:0:0:0:
448,192,67044,1,0,0:0:0:40:Hat Close.wav
64,192,67220,128,0,67396:0:0:0:0:
320,192,67396,128,2,67573:0:0:0:0:
448,192,67396,1,0,0:0:0:40:Hat Close.wav
192,192,67573,1,0,0:0:0:60:LTom1.wav
320,192,67661,1,0,0:0:0:60:LTom3.wav
64,192,67749,1,2,0:0:0:0:
448,192,67749,1,0,0:0:0:40:Hat Close.wav
192,192,67926,1,0,0:0:0:60:LTom3.wav
320,192,67926,1,0,0:0:0:0:
64,192,68102,1,2,0:0:0:0:
448,192,68102,1,0,0:0:0:40:Hat Close.wav
64,192,68455,1,2,0:0:0:0:
192,192,68455,1,0,0:0:0:40:Hat Close.wav
192,192,68808,1,2,0:0:0:0:
320,192,68808,128,0,68985:0:0:0:40:Hat Close.wav
64,192,68985,128,0,69161:0:0:0:0:
192,192,69161,1,2,0:0:0:0:
448,192,69161,1,0,0:0:0:40:Hat Close.wav
64,192,69338,1,0,0:0:0:60:LTom3.wav
320,192,69338,1,0,0:0:0:0:
192,192,69514,128,2,69691:0:0:0:0:
448,192,69514,1,0,0:0:0:40:Hat Close.wav
320,192,69691,128,0,70044:0:0:0:0:
64,192,69867,1,2,0:0:0:0:
64,192,70220,1,2,0:0:0:0:
192,192,70220,128,0,70396:0:0:0:40:Hat Close.wav
448,192,70396,1,0,0:0:0:60:LTom1.wav
320,192,70485,1,0,0:0:0:60:LTom3.wav
64,192,70573,1,2,0:0:0:0:
192,192,70573,1,0,0:0:0:40:Hat Close.wav
320,192,70749,1,0,0:0:0:60:LTom3.wav
448,192,70749,1,0,0:0:0:0:
64,192,70926,128,2,71102:0:0:0:0:
192,192,70926,1,0,0:0:0:40:Hat Close.wav
448,192,71102,128,0,71279:0:0:0:0:
192,192,71279,1,2,0:0:0:0:
320,192,71279,1,0,0:0:0:40:Hat Close.wav
64,192,71632,1,2,0:0:0:0:
192,192,71632,128,0,71808:0:0:0:40:Hat Close.wav
320,192,71808,128,0,71985:0:0:0:0:
64,192,71985,1,2,0:0:0:0:
448,192,71985,1,0,0:0:0:40:Hat Close.wav
192,192,72161,1,0,0:0:0:60:LTom3.wav
320,192,72161,1,0,0:0:0:0:
64,192,72338,1,2,0:0:0:0:
448,192,72338,128,0,72514:0:0:0:40:Hat Close.wav
192,192,72514,128,0,72867:0:0:0:0:
320,192,72691,1,2,0:0:0:0:
64,192,72867,128,0,73044:0:0:0:0:
320,192,73044,1,2,0:0:0:0:
448,192,73044,1,0,0:0:0:40:Hat Close.wav
192,192,73220,1,0,0:0:0:60:LTom1.wav
320,192,73308,1,0,0:0:0:60:LTom3.wav
64,192,73396,1,2,0:0:0:0:
448,192,73396,1,0,0:0:0:40:Hat Close.wav
192,192,73573,1,0,0:0:0:60:LTom3.wav
320,192,73573,1,0,0:0:0:0:
64,192,73749,1,2,0:0:0:0:
448,192,73749,1,0,0:0:0:40:Hat Close.wav
64,192,73926,1,0,0:0:0:30:Hat Open.wav
192,192,73926,1,0,0:0:0:50:Snare.wav
320,192,74102,1,2,0:0:0:0:
448,192,74102,1,0,0:0:0:40:Hat Close.wav
192,192,74279,1,0,0:0:0:50:Tom2.wav
320,192,74279,1,0,0:0:0:0:
64,192,74455,1,0,0:0:0:50:Tom3.wav
192,192,74455,1,0,0:0:0:0:
448,192,74632,1,0,0:0:0:60:LTom3.wav
320,192,74720,1,0,0:0:0:60:LTom3.wav
64,192,74808,128,2,75161:0:0:0:0:
192,192,74808,1,4,0:0:0:0:
448,192,74808,1,0,0:0:0:0:
320,192,75161,1,2,0:0:0:0:
448,192,75161,1,0,0:0:0:0:
192,192,75338,1,0,0:0:0:10:Snare.wav
320,192,75426,1,0,0:0:0:10:Snare.wav
192,192,75514,1,2,0:0:0:0:
448,192,75514,1,0,0:0:0:12:Snare.wav
64,192,75602,1,0,0:0:0:14:Snare.wav
320,192,75691,1,0,0:0:0:16:Snare.wav
192,192,75779,1,0,0:0:0:18:Snare.wav
64,192,75867,1,2,0:0:0:0:
320,192,75867,1,0,0:0:0:20:Snare.wav
448,192,75955,1,0,0:0:0:23:Snare.wav
192,192,76044,1,0,0:0:0:26:Snare.wav
320,192,76132,1,0,0:0:0:30:Snare.wav
64,192,76220,1,2,0:0:0:0:
192,192,76220,1,0,0:0:0:33:Snare.wav
448,192,76308,1,0,0:0:0:35:Snare.wav
320,192,76396,1,0,0:0:0:38:Snare.wav
192,192,76485,1,0,0:0:0:40:Snare.wav
320,192,76573,1,2,0:0:0:0:
448,192,76573,1,0,0:0:0:45:Snare.wav
64,192,76661,1,0,0:0:0:50:Snare.wav
192,192,76749,1,0,0:0:0:50:Snare.wav
320,192,76838,1,0,0:0:0:50:Snare.wav
64,192,76926,1,2,0:0:0:0:
192,192,76926,1,0,0:0:0:50:Snare.wav
448,192,77014,1,0,0:0:0:50:Snare.wav
320,192,77102,1,0,0:0:0:50:Snare.wav
192,192,77191,1,0,0:0:0:50:Snare.wav
64,192,77279,1,2,0:0:0:0:
448,192,77279,1,0,0:0:0:50:Snare.wav
320,192,77367,1,0,0:0:0:50:Snare.wav
192,192,77455,1,0,0:0:0:50:Snare.wav
320,192,77544,1,0,0:0:0:50:Snare.wav
64,192,77632,1,2,0:0:0:0:
192,192,77632,1,4,0:0:0:0:
448,192,77632,128,0,77985:0:0:0:0:
64,192,77985,1,2,0:0:0:0:
320,192,77985,1,0,0:0:0:0:
192,192,78161,128,0,78514:0:0:0:0:
448,192,78338,1,2,0:0:0:0:
320,192,78514,1,0,0:0:0:10:Snare.wav
192,192,78602,1,0,0:0:0:15:Snare.wav
64,192,78691,1,2,0:0:0:0:
448,192,78691,1,0,0:0:0:25:Snare.wav
320,192,78867,1,0,0:0:0:15:Snare.wav
192,192,78955,1,0,0:0:0:25:Snare.wav
64,192,79044,1,2,0:0:0:0:
320,192,79044,1,0,0:0:0:30:Snare.wav
448,192,79132,1,0,0:0:0:30:Snare.wav
192,192,79220,1,0,0:0:0:20:Snare.wav
320,192,79308,1,0,0:0:0:30:Snare.wav
64,192,79396,1,2,0:0:0:0:
448,192,79396,1,0,0:0:0:40:Snare.wav
192,192,79573,1,0,0:0:0:40:Snare.wav
320,192,79573,1,0,0:0:0:0:
64,192,79749,1,2,0:0:0:0:
448,192,79749,1,0,0:0:0:15:Snare.wav
320,192,79838,1,0,0:0:0:25:Snare.wav
192,192,79926,1,0,0:0:0:30:Snare.wav
320,192,80014,1,0,0:0:0:40:Snare.wav
64,192,80102,1,2,0:0:0:0:
448,192,80102,1,0,0:0:0:50:Snare.wav
192,192,80191,1,0,0:0:0:50:Snare.wav
320,192,80279,1,0,0:0:0:50:Tom2.wav
192,192,80367,1,0,0:0:0:50:Tom3.wav
64,192,80455,1,2,0:0:0:0:
320,192,80455,1,4,0:0:0:0:
448,192,80455,1,0,0:0:0:0:
192,192,80632,1,2,0:0:0:0:
448,192,80632,1,0,0:0:0:0:
320,192,80808,1,0,0:0:0:30:Hat Open.wav
64,192,80985,1,2,0:0:0:0:
192,192,80985,1,0,0:0:0:0:
64,192,81161,1,8,0:0:0:0:
448,192,81161,1,0,0:0:0:30:Hat Open.wav
192,192,81514,1,2,0:0:0:0:
320,192,81514,1,4,0:0:0:0:
448,192,81514,1,0,0:0:0:0:
64,192,81691,1,2,0:0:0:0:
192,192,81691,1,0,0:0:0:0:
320,192,81867,1,0,0:0:0:30:Hat Open.wav
64,192,82044,1,2,0:0:0:0:
448,192,82044,1,0,0:0:0:0:
64,192,82220,1,8,0:0:0:0:
192,192,82220,1,0,0:0:0:30:Hat Open.wav
320,192,82396,1,2,0:0:0:0:
448,192,82396,1,0,0:0:0:0:
64,192,82573,1,4,0:0:0:0:
192,192,82573,1,8,0:0:0:0:
448,192,82573,1,0,0:0:0:0:
192,192,82749,1,0,0:0:0:50:Tom2.wav
320,192,82749,1,0,0:0:0:0:
64,192,82926,1,2,0:0:0:0:
448,192,82926,1,0,0:0:0:30:Hat Open.wav
320,192,83102,1,0,0:0:0:50:Tom3.wav
448,192,83102,1,0,0:0:0:0:
64,192,83279,1,4,0:0:0:0:
192,192,83279,1,2,0:0:0:0:
320,192,83279,1,0,0:0:0:0:
64,192,83455,1,2,0:0:0:0:
448,192,83455,1,0,0:0:0:0:
320,192,83632,1,0,0:0:0:30:Hat Open.wav
64,192,83808,1,2,0:0:0:0:
192,192,83808,1,0,0:0:0:0:
64,192,83985,1,8,0:0:0:0:
448,192,83985,1,0,0:0:0:30:Hat Open.wav
192,192,84161,1,0,0:0:0:0:
64,192,84338,1,4,0:0:0:0:
320,192,84338,1,2,0:0:0:0:
448,192,84338,1,0,0:0:0:0:
192,192,84514,1,2,0:0:0:0:
320,192,84514,1,0,0:0:0:0:
64,192,84691,1,8,0:0:0:0:
192,192,84691,1,0,0:0:0:0:
448,192,84779,1,8,0:0:0:0:
320,192,84867,1,8,0:0:0:0:
192,192,84955,1,8,0:0:0:0:
64,192,85044,1,2,0:0:0:0:
448,192,85044,1,0,0:0:0:50:Tom2.wav
192,192,85220,1,0,0:0:0:50:Tom3.wav
320,192,85308,1,0,0:0:0:50:Tom3.wav
64,192,85396,1,2,0:0:0:0:
448,192,85396,1,8,0:0:0:0:
192,192,85573,1,10,0:0:0:0:
320,192,85573,1,0,0:0:0:30:Hat Open.wav
64,192,86102,128,2,86455:0:0:0:0:
192,192,86102,1,4,0:0:0:0:
448,192,86102,1,0,0:0:0:0:
192,192,86455,1,8,0:0:0:0:
320,192,86455,1,0,0:0:0:30:Hat Open.wav
448,192,86632,128,0,86985:0:0:0:0:
64,192,86808,1,2,0:0:0:0:
192,192,86985,1,2,0:0:0:0:
320,192,86985,1,0,0:0:0:0:
64,192,87161,1,8,0:0:0:0:
448,192,87161,1,0,0:0:0:30:Hat Open.wav
192,192,87338,128,0,87691:0:0:0:0:
320,192,87426,1,8,0:0:0:0:
448,192,87514,1,2,0:0:0:0:
64,192,87691,1,0,0:0:0:0:
320,192,87867,1,8,0:0:0:0:
448,192,87867,1,0,0:0:0:30:Hat Open.wav
320,192,88044,128,0,88220:0:0:0:0:
64,192,88220,1,2,0:0:0:0:
192,192,88220,1,0,0:0:0:30:Hat Open.wav
192,192,88396,1,2,0:0:0:0:
320,192,88396,1,0,0:0:0:0:
64,192,88573,1,8,0:0:0:0:
448,192,88573,1,0,0:0:0:30:Hat Open.wav
320,192,88749,1,0,0:0:0:30:Hat Open.wav
192,192,88838,1,8,0:0:0:0:
64,192,88926,1,2,0:0:0:0:
448,192,88926,128,0,89279:0:0:0:30:Hat Open.wav
64,192,89279,1,8,0:0:0:0:
192,192,89279,1,0,0:0:0:30:Hat Open.wav
320,192,89455,128,0,89808:0:0:0:0:
192,192,89632,1,2,0:0:0:0:
64,192,89808,1,2,0:0:0:0:
448,192,89808,1,0,0:0:0:0:
192,192,89985,128,8,90338:0:0:0:0:
320,192,89985,1,0,0:0:0:30:Hat Open.wav
64,192,90338,128,2,90867:0:0:0:0:
448,192,90338,1,0,0:0:0:30:Hat Open.wav
192,192,90691,1,8,0:0:0:0:
320,192,90691,1,0,0:0:0:30:Hat Open.wav
448,192,90867,1,0,0:0:0:0:
64,192,91044,1,2,0:0:0:0:
192,192,91044,1,0,0:0:0:30:Hat Open.wav
320,192,91220,1,2,0:0:0:0:
448,192,91220,1,0,0:0:0:0:
64,192,91396,1,8,0:0:0:0:
448,192,91396,1,0,0:0:0:30:Hat Open.wav
192,192,91573,1,8,0:0:0:0:
320,192,91661,1,8,0:0:0:0:
64,192,91749,1,4,0:0:0:0:
192,192,91749,128,2,92102:0:0:0:0:
448,192,91749,1,0,0:0:0:0:
320,192,92102,1,8,0:0:0:0:
448,192,92102,1,0,0:0:0:30:Hat Open.wav
64,192,92279,128,0,92632:0:0:0:0:
192,192,92455,1,2,0:0:0:0:
320,192,92632,1,2,0:0:0:0:
448,192,92632,1,0,0:0:0:0:
64,192,92808,1,8,0:0:0:0:
192,192,92808,1,0,0:0:0:30:Hat Open.wav
448,192,92985,1,0,0:0:0:30:Hat Open.wav
320,192,93073,1,8,0:0:0:0:
64,192,93161,1,2,0:0:0:0:
192,192,93161,1,4,0:0:0:0:
448,192,93161,1,0,0:0:0:0:
64,192,93514,1,8,0:0:0:0:
320,192,93514,1,0,0:0:0:30:Hat Open.wav
192,192,93691,128,0,93867:0:0:0:0:
320,192,93867,1,2,0:0:0:0:
448,192,93867,1,0,0:0:0:30:Hat Open.wav
64,192,94044,1,2,0:0:0:0:
448,192,94044,1,0,0:0:0:0:
64,192,94220,1,8,0:0:0:0:
192,192,94220,1,0,0:0:0:30:Hat Open.wav
320,192,94396,1,8,0:0:0:0:
192,192,94485,1,8,0:0:0:0:
64,192,94573,1,4,0:0:0:0:
320,192,94573,1,2,0:0:0:0:
448,192,94573,128,0,94926:0:0:0:0:
64,192,94926,1,8,0:0:0:0:
192,192,94926,1,0,0:0:0:30:Hat Open.wav
320,192,95102,128,8,95455:0:0:0:30:soft-hitclap.wav
192,192,95191,1,8,0:0:0:30:soft-hitclap.wav
64,192,95279,1,2,0:0:0:0:
192,192,95455,1,2,0:0:0:0:
448,192,95455,1,0,0:0:0:0:
64,192,95632,1,8,0:0:0:0:
448,192,95632,1,0,0:0:0:30:Hat Open.wav
64,192,95808,1,2,0:0:0:0:
192,192,95808,1,4,0:0:0:0:
320,192,95808,1,0,0:0:0:0:
320,192,95985,1,8,0:0:0:0:
448,192,95985,1,0,0:0:0:0:
64,192,96073,1,0,0:0:0:50:Tom1.wav
192,192,96161,1,0,0:0:0:50:Tom2.wav
448,192,96249,1,0,0:0:0:50:Tom3.wav
320,192,96338,1,0,0:0:0:50:Tom2.wav
192,192,96426,1,0,0:0:0:50:Tom3.wav
64,192,96514,1,8,0:0:0:0:
448,192,96514,1,0,0:0:0:0:
320,192,96602,1,8,0:0:0:0:
192,192,96691,1,2,0:0:0:0:
448,192,96779,1,0,0:0:0:50:Tom2.wav
64,192,96867,1,0,0:0:0:50:Tom3.wav
192,192,96955,1,8,0:0:0:0:
320,192,97044,1,8,0:0:0:0:
448,192,97044,1,0,0:0:0:0:
64,192,97132,1,8,0:0:0:0:
192,192,97220,1,0,0:0:0:50:Tom3.wav
320,192,97308,1,0,0:0:0:50:Tom3.wav
64,192,97396,1,4,0:0:0:0:
192,192,97396,128,2,97749:0:0:0:0:
448,192,97396,1,0,0:0:0:0:
320,192,97573,1,2,0:0:0:0:
64,192,97749,1,8,0:0:0:0:
448,192,97749,1,0,0:0:0:40:Ride.wav
192,192,97926,1,2,0:0:0:0:
320,192,97926,128,0,98279:0:0:0:0:
64,192,98102,1,0,0:0:0:40:Ride.wav
192,192,98279,1,2,0:0:0:0:
448,192,98279,1,8,0:0:0:0:
64,192,98455,128,2,98808:0:0:0:0:
320,192,98455,1,4,0:0:0:0:
448,192,98455,1,0,0:0:0:0:
192,192,98808,1,2,0:0:0:0:
320,192,98808,1,0,0:0:0:40:Ride.wav
64,192,98985,1,8,0:0:0:0:
448,192,98985,1,0,0:0:0:0:
64,192,99161,1,8,0:0:0:0:
192,192,99161,1,4,0:0:0:0:
320,192,99161,1,0,0:0:0:0:
320,192,99514,1,2,0:0:0:0:
448,192,99514,1,0,0:0:0:0:
192,192,99691,1,0,0:0:0:50:Tom3.wav
64,192,99867,1,8,0:0:0:0:
448,192,99867,1,0,0:0:0:0:
320,192,99955,1,8,0:0:0:0:
192,192,100044,1,0,0:0:0:50:Tom2.wav
320,192,100132,1,0,0:0:0:50:Tom3.wav
64,192,100220,1,4,0:0:0:0:
192,192,100220,1,2,0:0:0:0:
448,192,100220,128,0,100573:0:0:0:0:
320,192,100396,1,2,0:0:0:0:
64,192,100573,1,8,0:0:0:0:
192,192,100573,1,0,0:0:0:40:Ride.wav
320,192,100749,128,2,101102:0:0:0:0:
448,192,100749,1,0,0:0:0:0:
192,192,100926,1,0,0:0:0:40:Ride.wav
64,192,101102,1,2,0:0:0:0:
448,192,101102,1,0,0:0:0:0:
64,192,101279,128,8,101632:0:0:0:0:
192,192,101279,1,4,0:0:0:0:
320,192,101279,1,2,0:0:0:0:
320,192,101632,1,8,0:0:0:0:
448,192,101632,1,2,0:0:0:0:
64,192,101808,1,8,0:0:0:0:
192,192,101808,1,0,0:0:0:0:
320,192,101896,1,8,0:0:0:0:
448,192,101896,1,0,0:0:0:0:
64,192,101985,1,8,0:0:0:0:
192,192,101985,1,0,0:0:0:0:
448,192,102161,1,0,0:0:0:50:Tom3.wav
64,192,102338,1,2,0:0:0:0:
320,192,102338,1,0,0:0:0:0:
192,192,102514,1,0,0:0:0:50:Tom3.wav
320,192,102691,1,8,0:0:0:0:
448,192,102691,1,0,0:0:0:0:
64,192,102779,1,8,0:0:0:0:
192,192,102867,1,0,0:0:0:50:Tom2.wav
320,192,102955,1,0,0:0:0:50:Tom3.wav
64,192,103044,1,4,0:0:0:0:
192,192,103044,1,2,0:0:0:0:
448,192,103044,1,0,0:0:0:0:
448,192,103220,1,0,0:0:0:50:Tom3.wav
64,192,103396,1,8,0:0:0:0:
320,192,103396,1,0,0:0:0:50:Tom3.wav
64,192,103573,1,0,0:0:0:50:Tom3.wav
192,192,103749,1,2,0:0:0:0:
448,192,103749,1,0,0:0:0:50:Tom3.wav
192,192,103926,1,2,0:0:0:0:
320,192,103926,1,0,0:0:0:50:Tom3.wav
64,192,104102,1,8,0:0:0:0:
320,192,104102,1,0,0:0:0:50:Tom3.wav
192,192,104279,1,0,0:0:0:50:Tom3.wav
320,192,104367,1,0,0:0:0:50:Tom2.wav
64,192,104455,1,2,0:0:0:0:
192,192,104455,1,4,0:0:0:0:
448,192,104455,1,0,0:0:0:0:
64,192,104632,1,0,0:0:0:50:Tom3.wav
192,192,104808,1,8,0:0:0:0:
320,192,104808,1,0,0:0:0:50:Tom3.wav
320,192,104985,1,0,0:0:0:50:Tom3.wav
64,192,105161,1,2,0:0:0:0:
448,192,105161,1,0,0:0:0:50:Tom3.wav
64,192,105338,1,2,0:0:0:0:
192,192,105338,1,0,0:0:0:50:Tom3.wav
320,192,105514,1,8,0:0:0:0:
448,192,105514,1,0,0:0:0:50:Tom3.wav
192,192,105691,1,0,0:0:0:50:Tom2.wav
320,192,105779,1,8,0:0:0:0:
64,192,105867,1,4,0:0:0:0:
192,192,105867,1,2,0:0:0:0:
448,192,105867,1,0,0:0:0:0:
448,192,106044,1,0,0:0:0:50:Tom3.wav
192,192,106220,1,8,0:0:0:0:
320,192,106220,1,0,0:0:0:50:Tom3.wav
192,192,106396,1,0,0:0:0:50:Tom3.wav
448,192,106396,1,0,0:0:0:0:
64,192,106573,1,2,0:0:0:0:
448,192,106573,1,0,0:0:0:50:Tom3.wav
64,192,106749,1,2,0:0:0:0:
320,192,106749,1,0,0:0:0:50:Tom3.wav
192,192,106926,1,8,0:0:0:0:
448,192,106926,1,0,0:0:0:50:Tom3.wav
320,192,107102,1,0,0:0:0:50:Tom2.wav
192,192,107191,1,8,0:0:0:0:
64,192,107279,1,8,0:0:0:0:
320,192,107279,1,2,0:0:0:0:
448,192,107279,1,4,0:0:0:0:
64,192,107455,1,8,0:0:0:0:
192,192,107455,1,0,0:0:0:0:
320,192,107632,1,8,0:0:0:0:
448,192,107632,1,0,0:0:0:0:
192,192,107808,1,0,0:0:0:50:Tom3.wav
64,192,107985,1,8,0:0:0:0:
448,192,107985,1,0,0:0:0:0:
320,192,108161,1,0,0:0:0:50:Tom3.wav
64,192,108338,1,8,0:0:0:0:
192,192,108338,1,0,0:0:0:0:
320,192,108426,1,8,0:0:0:0:
192,192,108514,1,0,0:0:0:50:Tom2.wav
320,192,108602,1,0,0:0:0:50:Tom3.wav
64,192,108691,1,4,0:0:0:0:
192,192,108691,1,2,0:0:0:0:
448,192,108691,1,0,0:0:0:0:
320,192,108867,1,0,0:0:0:0:
64,192,109044,1,8,0:0:0:0:
448,192,109044,1,0,0:0:0:30:Ride.wav
192,192,109220,1,0,0:0:0:30:Ride.wav
320,192,109396,1,2,0:0:0:0:
448,192,109396,1,0,0:0:0:30:Ride.wav
64,192,109573,1,2,0:0:0:0:
192,192,109573,1,0,0:0:0:30:Ride.wav
64,192,109749,1,8,0:0:0:0:
448,192,109749,1,0,0:0:0:30:Ride.wav
192,192,109926,1,2,0:0:0:0:
320,192,109926,1,0,0:0:0:30:Ride.wav
64,192,110102,1,2,0:0:0:0:
320,192,110102,1,4,0:0:0:0:
448,192,110102,1,8,0:0:0:0:
64,192,110279,1,8,0:0:0:0:
192,192,110279,1,0,0:0:0:0:
320,192,110367,1,8,0:0:0:0:
448,192,110367,1,0,0:0:0:0:
64,192,110455,1,8,0:0:0:0:
192,192,110455,1,0,0:0:0:0:
320,192,110632,1,0,0:0:0:50:Tom2.wav
64,192,110808,1,8,0:0:0:0:
448,192,110808,1,0,0:0:0:0:
192,192,110985,1,0,0:0:0:50:Tom3.wav
64,192,111161,1,8,0:0:0:0:
320,192,111161,1,0,0:0:0:0:
448,192,111249,1,8,0:0:0:0:
192,192,111338,1,0,0:0:0:50:Tom2.wav
320,192,111426,1,0,0:0:0:50:Tom3.wav
64,192,111514,1,4,0:0:0:0:
192,192,111514,1,2,0:0:0:0:
448,192,111514,1,8,0:0:0:0:
320,192,111691,1,2,0:0:0:0:
64,192,111867,1,8,0:0:0:20:soft-hitclap.wav
448,192,111867,1,0,0:0:0:50:Tom3.wav
192,192,112044,1,8,0:0:0:24:soft-hitclap.wav
64,192,112220,1,8,0:0:0:28:soft-hitclap.wav
448,192,112220,1,0,0:0:0:50:Tom3.wav
64,192,112396,1,8,0:0:0:32:soft-hitclap.wav
448,192,112396,1,0,0:0:0:50:Tom3.wav
192,192,112573,1,8,0:0:0:36:soft-hitclap.wav
320,192,112573,1,0,0:0:0:50:Tom3.wav
192,192,112749,1,8,0:0:0:40:soft-hitclap.wav
320,192,112749,1,0,0:0:0:50:Tom3.wav
64,192,112926,1,2,0:0:0:0:
320,192,112926,1,4,0:0:0:0:
448,192,112926,1,0,0:0:0:0:
192,192,113102,1,8,0:0:0:40:soft-hitclap.wav
320,192,113279,1,8,0:0:0:40:soft-hitclap.wav
448,192,113279,1,0,0:0:0:50:Tom3.wav
320,192,113455,1,8,0:0:0:45:soft-hitclap.wav
448,192,113455,1,0,0:0:0:50:Tom3.wav
64,192,113632,1,8,0:0:0:0:
192,192,113632,1,0,0:0:0:50:Tom3.wav
64,192,113808,1,8,0:0:0:0:
192,192,113808,1,0,0:0:0:50:Tom3.wav
320,192,113985,1,8,0:0:0:0:
448,192,113985,1,0,0:0:0:50:Tom3.wav
320,192,114161,1,8,0:0:0:0:
448,192,114161,1,0,0:0:0:50:Tom3.wav
64,192,114338,1,4,0:0:0:0:
192,192,114338,1,2,0:0:0:0:
448,192,114338,1,0,0:0:0:0:
320,192,114514,1,0,0:0:0:50:Tom3.wav
192,192,114602,1,0,0:0:0:50:Tom3.wav
64,192,114691,1,2,0:0:0:0:
448,192,114691,1,0,0:0:0:50:Tom3.wav
192,192,114867,1,8,0:0:0:0:
320,192,114867,1,0,0:0:0:50:Tom3.wav
192,192,115044,1,8,0:0:0:0:
320,192,115044,1,0,0:0:0:50:Tom3.wav
192,192,115220,1,8,0:0:0:0:
320,192,115220,1,0,0:0:0:50:Tom3.wav
64,192,115396,1,8,0:0:0:0:
448,192,115396,1,0,0:0:0:0:
192,192,115485,1,8,0:0:0:0:
320,192,115573,1,0,0:0:0:50:Tom2.wav
64,192,115661,1,0,0:0:0:50:Tom2.wav
192,192,115749,1,10,0:0:0:0:
448,192,115749,1,0,0:0:0:30:Hat Open.wav
64,192,117161,128,2,118396:0:0:0:0:
192,192,117161,1,4,0:0:0:0:
448,192,117161,1,0,0:0:0:0:
320,192,117514,1,2,0:0:0:0:
448,192,117867,1,2,0:0:0:0:
320,192,118220,1,2,0:0:0:0:
192,192,118396,1,0,0:0:0:50:Tom2.wav
320,192,118485,1,0,0:0:0:50:Tom2.wav
64,192,118573,1,2,0:0:0:0:
448,192,118573,128,0,119808:0:0:0:40:Hat Close.wav
192,192,118749,1,0,0:0:0:30:Hat Open.wav
320,192,118926,1,2,0:0:0:0:
64,192,119102,1,8,0:0:0:0:
192,192,119102,1,0,0:0:0:0:
320,192,119279,1,2,0:0:0:0:
192,192,119455,1,0,0:0:0:50:Tom2.wav
64,192,119632,1,2,0:0:0:0:
320,192,119808,1,0,0:0:0:0:
64,192,119985,1,2,0:0:0:0:
192,192,119985,128,4,121396:0:0:0:0:
448,192,119985,1,0,0:0:0:0:
320,192,120338,1,2,0:0:0:0:
64,192,120691,1,2,0:0:0:0:
320,192,120867,1,8,0:0:0:0:
448,192,120867,1,0,0:0:0:30:Hat Open.wav
64,192,121044,1,2,0:0:0:0:
320,192,121396,128,2,122102:0:0:0:0:
448,192,121396,1,0,0:0:0:40:Hat Close.wav
64,192,121749,1,2,0:0:0:0:
448,192,121749,1,0,0:0:0:30:Hat Open.wav
64,192,122102,1,2,0:0:0:0:
192,192,122102,1,8,0:0:0:20:soft-hitclap.wav
64,192,122279,1,10,0:0:0:0:
192,192,122279,1,0,0:0:0:50:Tom3.wav
320,192,122455,1,10,0:0:0:0:
448,192,122455,1,0,0:0:0:50:Tom3.wav
320,192,122632,1,10,0:0:0:0:
448,192,122632,1,0,0:0:0:50:Tom3.wav
