osu file format v14

[General]
AudioFilename: audio.ogg
AudioLeadIn: 0
PreviewTime: 85308
Countdown: 0
SampleSet: Soft
StackLeniency: 0.7
Mode: 3
LetterboxInBreaks: 0
EpilepsyWarning: 1
SpecialStyle: 0
WidescreenStoryboard: 1

[Editor]
DistanceSpacing: 1.6
BeatDivisor: 2
GridSize: 16
TimelineZoom: 1.3

[Metadata]
Title:Tiny Light (Cut Ver.)
TitleUnicode:Tiny Light (Cut Ver.)
Artist:Kito Akari
ArtistUnicode:鬼頭明里
Creator:ML-ysg
Version:Easy
Source:地縛少年花子くん
Tags:Sun [ Lovega ] anime japanese j-pop jpop pop ed ending 八尋寧々 Yashiro Nene Jibaku Shounen Hanako-kun Toilet-bound PCCG-01871 kitou akari saku
BeatmapID:3878874
BeatmapSetID:1883953

[Difficulty]
HPDrainRate:6.5
CircleSize:4
OverallDifficulty:6.5
ApproachRate:5
SliderMultiplier:1.4
SliderTickRate:1

[Events]
//Background and Video events
0,0,"hanako.jpg",0,0
//Break Periods
//Storyboard Layer 0 (Background)
//Storyboard Layer 1 (Fail)
//Storyboard Layer 2 (Pass)
//Storyboard Layer 3 (Foreground)
//Storyboard Layer 4 (Overlay)
//Storyboard Sound Samples
Sample,4220,0,"B6S.wav",60
Sample,40926,0,"Tiny Hihat.wav",35
Sample,43749,0,"Tiny Hihat.wav",35
Sample,46573,0,"Tiny Hihat.wav",35
Sample,49396,0,"Tiny Hihat.wav",35
Sample,52220,0,"Tiny Hihat.wav",35
Sample,55044,0,"Tiny Hihat.wav",35
Sample,57867,0,"Tiny Hihat.wav",35
Sample,62102,0,"Tiny Hihat.wav",35
Sample,63867,0,"Hat Close.wav",40
Sample,64220,0,"Hat Close.wav",40
Sample,64573,0,"Hat Close.wav",40
Sample,64926,0,"Hat Close.wav",40
Sample,64926,0,"LTom3.wav",60
Sample,65279,0,"Hat Close.wav",40
Sample,65632,0,"Hat Close.wav",40
Sample,65985,0,"Hat Close.wav",40
Sample,66338,0,"Hat Close.wav",40
Sample,66338,0,"LTom3.wav",60
Sample,66691,0,"Hat Close.wav",40
Sample,67396,0,"Hat Close.wav",40
Sample,67749,0,"Hat Close.wav",40
Sample,67749,0,"LTom3.wav",60
Sample,68102,0,"Hat Close.wav",40
Sample,68455,0,"Hat Close.wav",40
Sample,68808,0,"Hat Close.wav",40
Sample,69161,0,"Hat Close.wav",40
Sample,69161,0,"LTom3.wav",60
Sample,69514,0,"Hat Close.wav",40
Sample,69867,0,"Hat Close.wav",40
Sample,70220,0,"Hat Close.wav",40
Sample,70573,0,"Hat Close.wav",40
Sample,70573,0,"LTom3.wav",60
Sample,70926,0,"Hat Close.wav",40
Sample,71279,0,"Hat Close.wav",40
Sample,71632,0,"Hat Close.wav",40
Sample,71985,0,"Hat Close.wav",40
Sample,71985,0,"LTom3.wav",60
Sample,72338,0,"Hat Close.wav",40
Sample,73044,0,"Hat Close.wav",40
Sample,73396,0,"Hat Close.wav",40
Sample,73396,0,"LTom3.wav",60
Sample,73749,0,"Hat Close.wav",40
Sample,74102,0,"Hat Close.wav",40
Sample,75867,0,"Snare.wav",20
Sample,76573,0,"Snare.wav",45
Sample,76926,0,"Snare.wav",50
Sample,77279,0,"Snare.wav",50
Sample,78691,0,"Snare.wav",25
Sample,79044,0,"Snare.wav",30
Sample,79396,0,"Snare.wav",40
Sample,79749,0,"Snare.wav",15
Sample,80102,0,"Snare.wav",50
Sample,81161,0,"Hat Open.wav",30
Sample,82220,0,"Hat Open.wav",30
Sample,82926,0,"Hat Open.wav",30
Sample,83985,0,"Hat Open.wav",30
Sample,85044,0,"Tom2.wav",50
Sample,85573,0,"Hat Open.wav",30
Sample,86455,0,"Hat Open.wav",30
Sample,86808,0,"Hat Open.wav",30
Sample,87161,0,"Hat Open.wav",30
Sample,87514,0,"Hat Open.wav",30
Sample,87867,0,"Hat Open.wav",30
Sample,88220,0,"Hat Open.wav",30
Sample,88573,0,"Hat Open.wav",30
Sample,88926,0,"Hat Open.wav",30
Sample,89279,0,"Hat Open.wav",30
Sample,89632,0,"Hat Open.wav",30
Sample,89985,0,"Hat Open.wav",30
Sample,90338,0,"Hat Open.wav",30
Sample,90691,0,"Hat Open.wav",30
Sample,91044,0,"Hat Open.wav",30
Sample,91396,0,"Hat Open.wav",30
Sample,92102,0,"Hat Open.wav",30
Sample,92455,0,"Hat Open.wav",30
Sample,92808,0,"Hat Open.wav",30
Sample,93514,0,"Hat Open.wav",30
Sample,93867,0,"Hat Open.wav",30
Sample,94220,0,"Hat Open.wav",30
Sample,94926,0,"Hat Open.wav",30
Sample,95279,0,"Hat Open.wav",30
Sample,95632,0,"Hat Open.wav",30
Sample,97749,0,"Ride.wav",40
Sample,100573,0,"Ride.wav",40
Sample,103396,0,"Tom3.wav",50
Sample,103749,0,"Tom3.wav",50
Sample,104102,0,"Tom3.wav",50
Sample,104808,0,"Tom3.wav",50
Sample,105161,0,"Tom3.wav",50
Sample,105514,0,"Tom3.wav",50
Sample,106220,0,"Tom3.wav",50
Sample,106926,0,"Tom3.wav",50
Sample,109044,0,"Ride.wav",30
Sample,109396,0,"Ride.wav",30
Sample,109573,0,"Ride.wav",30
Sample,109749,0,"Ride.wav",30
Sample,111867,0,"Tom3.wav",50
Sample,112220,0,"Tom3.wav",50
Sample,112573,0,"Tom3.wav",50
Sample,113279,0,"Tom3.wav",50
Sample,113632,0,"Tom3.wav",50
Sample,113985,0,"Tom3.wav",50
Sample,114691,0,"Tom3.wav",50
Sample,115044,0,"Tom3.wav",50
Sample,115220,0,"Tom3.wav",50
Sample,115749,0,"Hat Open.wav",30
Sample,117514,0,"Hat Close.wav",40
Sample,117867,0,"Hat Close.wav",40
Sample,118220,0,"Hat Close.wav",40
Sample,118573,0,"Hat Close.wav",40
Sample,118573,0,"Tom3.wav",50
Sample,118926,0,"Hat Close.wav",40
Sample,119279,0,"Hat Close.wav",40
Sample,119632,0,"Hat Close.wav",40
Sample,119632,0,"Tom3.wav",50
Sample,120338,0,"Hat Close.wav",40
Sample,120691,0,"Hat Close.wav",40
Sample,121044,0,"Hat Close.wav",40
Sample,121396,0,"Hat Close.wav",40
Sample,121749,0,"Hat Open.wav",30
Sample,122102,0,"soft-hitclap.wav",20
Sample,122102,0,"Tom3.wav",50
Sample,122279,0,"Tom3.wav",50
Sample,122455,0,"Tom3.wav",50
Sample,122632,0,"Tom3.wav",50

[TimingPoints]
1397,352.941176470588,4,2,1,50,1,0
63514,-100.0,4,2,1,50,0,1
74632,-100.0,4,2,1,50,0,0
74808,-100.0,4,2,1,50,0,1
85573,-100.0,4,2,1,50,0,0
86102,-100.0,4,2,1,50,0,1
115749,-100.0,4,2,1,50,0,0

[HitObjects]
64,192,1397,128,0,2455:0:0:0:60:F5S.wav
320,192,1397,1,0,0:0:0:60:G7S.wav
448,192,1926,1,0,0:0:0:60:G7S.wav
192,192,2455,1,0,0:0:0:60:G5S.wav
320,192,2455,128,0,4220:0:0:0:60:G7S.wav
64,192,3514,1,0,0:0:0:60:F7S.wav
448,192,3867,1,0,0:0:0:60:D7S.wav
192,192,4220,128,0,5279:0:0:0:60:A5S.wav
64,192,4749,1,0,0:0:0:60:C7S.wav
448,192,5279,128,0,7044:0:0:0:60:G6S.wav
64,192,7044,128,0,8102:0:0:0:60:F4S.wav
320,192,7044,1,0,0:0:0:60:G6S.wav
192,192,7573,1,0,0:0:0:60:G6S.wav
320,192,8102,1,0,0:0:0:60:G4S.wav
448,192,8102,128,0,9867:0:0:0:60:G6S.wav
64,192,9161,1,0,0:0:0:60:F6S.wav
320,192,9514,1,0,0:0:0:60:D6S.wav
64,192,9867,1,0,0:0:0:60:G#4S_Ab4S.wav
192,192,9867,128,0,10396:0:0:0:60:B5S.wav
448,192,10396,128,0,10926:0:0:0:60:F6S.wav
64,192,10926,1,0,0:0:0:60:A4S.wav
320,192,10926,128,0,11632:0:0:0:60:E6S.wav
64,192,11632,128,0,11985:0:0:0:60:B5S.wav
448,192,11985,128,0,12338:0:0:0:60:E6S.wav
192,192,12338,128,0,12691:0:0:0:0:
64,192,12691,128,0,13220:0:0:0:60:G#4S_Ab4S.wav
320,192,12691,1,0,0:0:0:60:D#7S_Eb7S.wav
448,192,13220,128,0,13749:0:0:0:60:C7S.wav
320,192,13749,128,0,14279:0:0:0:60:G6S.wav
192,192,14279,128,0,14808:0:0:0:60:D#6S_Eb6S.wav
64,192,14808,128,0,15514:0:0:0:60:C6S.wav
320,192,15514,1,0,0:0:0:60:G3S.wav
448,192,15514,128,0,16926:0:0:0:60:E5S.wav
192,192,16926,128,0,17985:0:0:0:60:B5S.wav
64,192,18338,128,0,18867:0:0:0:0:
320,192,18867,128,0,19396:0:0:0:0:
192,192,19396,128,0,20455:0:0:0:0:
448,192,19749,1,0,0:0:0:0:
320,192,20455,1,0,0:0:0:0:
64,192,20808,1,0,0:0:0:0:
320,192,21161,128,0,21691:0:0:0:0:
64,192,21691,128,0,22220:0:0:0:0:
448,192,22220,128,0,23279:0:0:0:0:
192,192,22573,1,0,0:0:0:0:
192,192,23808,1,0,0:0:0:0:
320,192,23985,128,0,24338:0:0:0:0:
64,192,24338,1,0,0:0:0:0:
448,192,24514,128,0,25044:0:0:0:0:
192,192,25044,1,0,0:0:0:0:
320,192,25220,128,0,26102:0:0:0:0:
448,192,26632,1,0,0:0:0:0:
64,192,26808,128,0,27161:0:0:0:0:
320,192,27161,1,0,0:0:0:0:
192,192,27338,128,0,27867:0:0:0:0:
448,192,27867,1,0,0:0:0:0:
64,192,28044,128,0,29102:0:0:0:0:
320,192,29632,128,0,30161:0:0:0:0:
192,192,30161,128,0,30691:0:0:0:0:
448,192,30691,128,0,31749:0:0:0:0:
64,192,31044,1,0,0:0:0:0:
192,192,31749,1,0,0:0:0:0:
64,192,32102,1,0,0:0:0:0:
320,192,32455,128,0,32985:0:0:0:0:
64,192,32985,128,0,33514:0:0:0:0:
192,192,33514,128,0,34573:0:0:0:0:
448,192,33867,1,0,0:0:0:0:
448,192,35102,1,0,0:0:0:0:
64,192,35279,128,0,35632:0:0:0:0:
320,192,35632,1,0,0:0:0:0:
192,192,35808,128,0,36338:0:0:0:0:
448,192,36338,1,0,0:0:0:0:
64,192,36514,128,0,37044:0:0:0:0:
320,192,37044,1,0,0:0:0:0:
192,192,37396,1,0,0:0:0:0:
448,192,37749,1,0,0:0:0:0:
320,192,38102,128,0,38632:0:0:0:0:
192,192,38632,128,0,39867:0:0:0:0:
320,192,40573,1,0,0:0:0:0:
64,192,40926,1,0,0:0:0:50:Kick.wav
448,192,41279,1,0,0:0:0:0:
192,192,41455,128,0,41985:0:0:0:35:Tiny Hihat.wav
448,192,41985,1,0,0:0:0:0:
192,192,42338,1,0,0:0:0:35:Tiny Hihat.wav
320,192,42691,1,0,0:0:0:0:
64,192,43044,1,0,0:0:0:0:
192,192,43396,1,0,0:0:0:35:Tiny Hihat.wav
320,192,43749,1,0,0:0:0:50:Kick.wav
64,192,44102,1,0,0:0:0:0:
448,192,44279,128,0,45691:0:0:0:35:Tiny Hihat.wav
64,192,45161,1,0,0:0:0:35:Tiny Hihat.wav
192,192,45691,1,0,0:0:0:0:
320,192,46220,1,0,0:0:0:35:Tiny Hihat.wav
448,192,46573,1,0,0:0:0:50:Kick.wav
192,192,46926,1,0,0:0:0:0:
320,192,47102,128,0,47632:0:0:0:35:Tiny Hihat.wav
64,192,47632,1,0,0:0:0:0:
320,192,47985,1,0,0:0:0:35:Tiny Hihat.wav
192,192,48338,1,0,0:0:0:0:
448,192,48691,1,0,0:0:0:0:
320,192,49044,1,0,0:0:0:35:Tiny Hihat.wav
192,192,49396,1,0,0:0:0:50:Kick.wav
448,192,49749,1,0,0:0:0:0:
64,192,49926,128,0,50808:0:0:0:35:Tiny Hihat.wav
320,192,51161,1,0,0:0:0:50:Kick.wav
192,192,51514,1,0,0:0:0:0:
448,192,51691,1,0,0:0:0:50:Kick.wav
64,192,51867,1,0,0:0:0:35:Tiny Hihat.wav
320,192,52044,1,0,0:0:0:0:
192,192,52220,1,0,0:0:0:50:Kick.wav
448,192,52573,1,0,0:0:0:0:
64,192,52749,128,0,53279:0:0:0:35:Tiny Hihat.wav
320,192,53279,1,0,0:0:0:50:Kick.wav
192,192,53455,128,0,54338:0:0:0:35:Tiny Hihat.wav
448,192,53985,1,0,0:0:0:50:Kick.wav
320,192,54691,1,0,0:0:0:35:Tiny Hihat.wav
64,192,55044,1,0,0:0:0:50:Kick.wav
448,192,55396,1,0,0:0:0:0:
192,192,55573,128,0,56102:0:0:0:35:Tiny Hihat.wav
448,192,56102,1,0,0:0:0:50:Kick.wav
64,192,56279,128,0,57161:0:0:0:35:Tiny Hihat.wav
320,192,56808,1,0,0:0:0:50:Kick.wav
192,192,57514,1,0,0:0:0:35:Tiny Hihat.wav
448,192,57867,1,0,0:0:0:50:Kick.wav
64,192,58220,1,0,0:0:0:0:
320,192,58396,128,0,58926:0:0:0:35:Tiny Hihat.wav
192,192,58926,1,0,0:0:0:50:Kick.wav
448,192,59102,128,0,59632:0:0:0:35:Tiny Hihat.wav
64,192,59632,1,0,0:0:0:50:Kick.wav
192,192,59808,128,0,60338:0:0:0:0:
448,192,60338,1,0,0:0:0:35:Tiny Hihat.wav
64,192,60514,128,0,61749:0:0:0:0:
448,192,61749,1,0,0:0:0:50:Kick.wav
192,192,62102,128,2,62808:0:0:0:0:
320,192,62808,128,0,63161:0:0:0:0:
64,192,63514,128,6,63867:0:0:0:0:
448,192,63514,1,0,0:0:0:60:LTom3.wav
320,192,63867,1,2,0:0:0:0:
192,192,64044,1,0,0:0:0:0:
448,192,64220,1,2,0:0:0:0:
64,192,64573,1,2,0:0:0:0:
320,192,64749,1,0,0:0:0:60:LTom1.wav
192,192,64926,1,2,0:0:0:0:
448,192,65279,1,2,0:0:0:0:
64,192,65455,1,0,0:0:0:0:
320,192,65632,1,2,0:0:0:0:
192,192,65985,1,2,0:0:0:0:
448,192,66161,1,0,0:0:0:0:
64,192,66338,128,2,66691:0:0:0:0:
320,192,66691,1,2,0:0:0:0:
192,192,66867,128,0,67220:0:0:0:0:
448,192,67220,1,0,0:0:0:0:
320,192,67396,128,2,68455:0:0:0:0:
64,192,67749,1,2,0:0:0:0:
192,192,68102,1,2,0:0:0:0:
64,192,68455,1,2,0:0:0:0:
448,192,68808,1,2,0:0:0:0:
192,192,68985,1,0,0:0:0:0:
320,192,69161,1,2,0:0:0:0:
64,192,69514,1,2,0:0:0:0:
448,192,69691,1,0,0:0:0:0:
192,192,69867,1,2,0:0:0:0:
320,192,70220,1,2,0:0:0:0:
64,192,70396,1,0,0:0:0:60:LTom1.wav
448,192,70573,1,2,0:0:0:0:
192,192,70926,1,2,0:0:0:0:
320,192,71102,1,0,0:0:0:0:
64,192,71279,1,2,0:0:0:0:
448,192,71632,1,2,0:0:0:0:
192,192,71808,1,0,0:0:0:0:
320,192,71985,128,2,72338:0:0:0:0:
64,192,72338,1,2,0:0:0:0:
448,192,72514,128,0,72867:0:0:0:0:
192,192,72867,1,0,0:0:0:0:
64,192,73044,128,2,73396:0:0:0:0:
320,192,73396,128,2,74102:0:0:0:0:
192,192,73749,1,2,0:0:0:0:
64,192,74102,1,2,0:0:0:0:
192,192,74279,1,0,0:0:0:50:Tom2.wav
448,192,74455,1,0,0:0:0:50:Tom3.wav
320,192,74632,1,0,0:0:0:60:LTom3.wav
64,192,74808,128,2,75161:0:0:0:0:
192,192,74808,1,4,0:0:0:0:
448,192,75161,1,2,0:0:0:0:
320,192,75338,128,0,75867:0:0:0:10:Snare.wav
64,192,75867,1,2,0:0:0:0:
192,192,76044,128,0,76573:0:0:0:26:Snare.wav
448,192,76573,1,2,0:0:0:0:
64,192,76749,1,0,0:0:0:50:Snare.wav
320,192,76926,1,2,0:0:0:0:
192,192,77279,1,2,0:0:0:0:
448,192,77455,1,0,0:0:0:50:Snare.wav
64,192,77632,128,2,77985:0:0:0:0:
320,192,77632,1,4,0:0:0:0:
448,192,77985,1,2,0:0:0:0:
192,192,78161,128,0,78691:0:0:0:0:
320,192,78691,128,2,79044:0:0:0:0:
64,192,79044,128,2,79396:0:0:0:0:
448,192,79396,128,2,79749:0:0:0:0:
320,192,79749,128,2,80102:0:0:0:0:
192,192,80102,128,2,80455:0:0:0:0:
64,192,80455,1,2,0:0:0:0:
448,192,80455,1,4,0:0:0:0:
320,192,80632,1,2,0:0:0:0:
192,192,80985,1,2,0:0:0:0:
448,192,81161,1,8,0:0:0:0:
64,192,81514,1,2,0:0:0:0:
320,192,81514,1,4,0:0:0:0:
192,192,81691,1,2,0:0:0:0:
448,192,82044,1,2,0:0:0:0:
64,192,82220,1,8,0:0:0:0:
192,192,82573,1,4,0:0:0:0:
320,192,82573,1,8,0:0:0:0:
448,192,82926,1,2,0:0:0:0:
64,192,83279,1,4,0:0:0:0:
320,192,83279,1,2,0:0:0:0:
192,192,83455,1,2,0:0:0:0:
320,192,83808,1,2,0:0:0:0:
64,192,83985,1,8,0:0:0:0:
192,192,84338,1,4,0:0:0:0:
448,192,84338,1,2,0:0:0:0:
320,192,84691,128,8,85044:0:0:0:0:
192,192,85044,128,2,85396:0:0:0:0:
448,192,85396,1,10,0:0:0:0:
64,192,85573,1,10,0:0:0:0:
192,192,86102,1,2,0:0:0:0:
320,192,86102,1,4,0:0:0:0:
448,192,86455,1,8,0:0:0:0:
64,192,86808,1,2,0:0:0:0:
192,192,86985,1,2,0:0:0:0:
320,192,87161,1,8,0:0:0:0:
192,192,87514,1,2,0:0:0:0:
64,192,87867,1,8,0:0:0:0:
448,192,88220,1,2,0:0:0:0:
320,192,88396,1,2,0:0:0:0:
192,192,88573,1,8,0:0:0:0:
64,192,88926,1,2,0:0:0:0:
320,192,89279,1,8,0:0:0:0:
192,192,89632,1,2,0:0:0:0:
448,192,89808,1,2,0:0:0:0:
64,192,89985,1,8,0:0:0:0:
448,192,90338,1,2,0:0:0:0:
192,192,90691,1,8,0:0:0:0:
320,192,91044,1,2,0:0:0:0:
64,192,91220,1,2,0:0:0:0:
448,192,91396,1,8,0:0:0:0:
192,192,91749,1,4,0:0:0:0:
320,192,91749,1,2,0:0:0:0:
64,192,92102,1,8,0:0:0:0:
448,192,92455,1,2,0:0:0:0:
320,192,92632,1,2,0:0:0:0:
192,192,92808,1,8,0:0:0:0:
64,192,93161,1,2,0:0:0:0:
320,192,93161,1,4,0:0:0:0:
448,192,93514,1,8,0:0:0:0:
64,192,93867,1,2,0:0:0:0:
192,192,94044,1,2,0:0:0:0:
320,192,94220,1,8,0:0:0:0:
64,192,94573,1,4,0:0:0:0:
448,192,94573,1,2,0:0:0:0:
192,192,94926,1,8,0:0:0:0:
320,192,95279,1,2,0:0:0:0:
64,192,95455,1,2,0:0:0:0:
448,192,95632,1,8,0:0:0:0:
192,192,95985,128,8,96514:0:0:0:0:
320,192,96514,128,8,97044:0:0:0:0:
64,192,97044,1,8,0:0:0:0:
448,192,97220,1,0,0:0:0:50:Tom3.wav
192,192,97396,128,4,97749:0:0:0:0:
320,192,97396,1,2,0:0:0:0:
448,192,97749,1,8,0:0:0:0:
64,192,97926,128,2,98279:0:0:0:0:
320,192,98279,1,10,0:0:0:0:
192,192,98455,1,2,0:0:0:0:
448,192,98455,128,4,98985:0:0:0:0:
64,192,98985,1,8,0:0:0:0:
192,192,99161,1,8,0:0:0:0:
320,192,99161,1,4,0:0:0:0:
64,192,99514,1,2,0:0:0:0:
192,192,99691,1,0,0:0:0:50:Tom3.wav
448,192,99867,1,8,0:0:0:0:
320,192,100044,1,0,0:0:0:50:Tom2.wav
64,192,100220,128,4,100573:0:0:0:0:
192,192,100220,1,2,0:0:0:0:
320,192,100573,1,8,0:0:0:0:
192,192,100749,128,2,101102:0:0:0:0:
320,192,101102,1,2,0:0:0:0:
64,192,101279,1,12,0:0:0:0:
448,192,101279,128,2,101632:0:0:0:0:
192,192,101632,1,10,0:0:0:0:
320,192,101808,1,8,0:0:0:0:
64,192,101985,1,8,0:0:0:0:
320,192,102338,1,2,0:0:0:0:
448,192,102338,1,0,0:0:0:0:
192,192,102691,1,8,0:0:0:0:
320,192,102867,1,0,0:0:0:50:Tom2.wav
64,192,103044,1,4,0:0:0:0:
448,192,103044,128,2,103396:0:0:0:0:
192,192,103396,128,8,103749:0:0:0:0:
320,192,103749,128,2,104102:0:0:0:0:
64,192,104102,128,8,104808:0:0:0:0:
448,192,104455,1,6,0:0:0:0:
320,192,104808,128,8,105161:0:0:0:0:
192,192,105161,128,2,105514:0:0:0:0:
448,192,105514,128,8,106220:0:0:0:0:
64,192,105867,1,6,0:0:0:0:
320,192,106220,1,8,0:0:0:0:
64,192,106573,1,2,0:0:0:0:
192,192,106573,1,0,0:0:0:50:Tom3.wav
448,192,106926,1,8,0:0:0:0:
320,192,107102,1,0,0:0:0:50:Tom2.wav
64,192,107279,1,10,0:0:0:0:
192,192,107279,1,4,0:0:0:0:
320,192,107632,1,8,0:0:0:0:
64,192,107808,1,0,0:0:0:50:Tom3.wav
448,192,107985,1,8,0:0:0:0:
192,192,108161,1,0,0:0:0:50:Tom3.wav
320,192,108338,128,8,108691:0:0:0:0:
64,192,108691,1,4,0:0:0:0:
448,192,108691,1,2,0:0:0:0:
192,192,109044,1,8,0:0:0:0:
320,192,109396,1,2,0:0:0:0:
64,192,109573,1,2,0:0:0:0:
448,192,109749,1,8,0:0:0:0:
64,192,110102,1,6,0:0:0:0:
192,192,110102,1,8,0:0:0:0:
320,192,110279,1,8,0:0:0:0:
192,192,110455,1,8,0:0:0:0:
448,192,110808,1,8,0:0:0:0:
320,192,110985,1,0,0:0:0:50:Tom3.wav
192,192,111161,128,8,111514:0:0:0:0:
320,192,111514,1,6,0:0:0:0:
448,192,111514,128,8,111867:0:0:0:0:
64,192,111867,128,8,112220:0:0:0:20:soft-hitclap.wav
320,192,112220,128,8,112573:0:0:0:28:soft-hitclap.wav
192,192,112573,128,8,113279:0:0:0:36:soft-hitclap.wav
448,192,112926,1,6,0:0:0:0:
320,192,113279,128,8,113632:0:0:0:40:soft-hitclap.wav
64,192,113632,128,8,113985:0:0:0:0:
448,192,113985,128,8,114691:0:0:0:0:
192,192,114338,1,6,0:0:0:0:
64,192,114691,1,2,0:0:0:0:
448,192,115044,1,8,0:0:0:0:
320,192,115220,1,8,0:0:0:0:
64,192,115396,1,8,0:0:0:0:
192,192,115573,1,0,0:0:0:50:Tom2.wav
320,192,115749,1,10,0:0:0:0:
64,192,117161,128,2,118573:0:0:0:0:
192,192,117161,1,4,0:0:0:0:
448,192,117514,1,2,0:0:0:0:
320,192,117867,1,2,0:0:0:0:
192,192,118220,1,2,0:0:0:0:
448,192,118573,128,2,119985:0:0:0:0:
192,192,118926,1,2,0:0:0:0:
320,192,119279,1,2,0:0:0:0:
64,192,119632,1,2,0:0:0:0:
192,192,119985,128,2,121396:0:0:0:0:
320,192,119985,1,4,0:0:0:0:
448,192,120338,1,2,0:0:0:0:
320,192,120691,1,2,0:0:0:0:
64,192,121044,1,2,0:0:0:0:
320,192,121396,128,2,122102:0:0:0:0:
64,192,121749,1,2,0:0:0:0:
192,192,122102,1,2,0:0:0:0:
448,192,122279,1,10,0:0:0:0:
192,192,122455,1,10,0:0:0:0:
448,192,122632,1,10,0:0:0:0:
