osu file format v14

[General]
AudioFilename: audio.mp3
AudioLeadIn: 0
PreviewTime:57854
Countdown: 0
SampleSet: Soft
StackLeniency: 0.4
Mode: 0
LetterboxInBreaks: 0
WidescreenStoryboard: 1

[Editor]
DistanceSpacing: 0.9
BeatDivisor: 3
GridSize: 32
TimelineZoom: 2.799999

[Metadata]
Title:No Continue (TV Size)
TitleUnicode:No Continue (TV Size)
Artist:Kito Akari
ArtistUnicode:鬼頭明里
Creator:-Mercury-
Version:Expert
Source:出会って5秒でバトル
Tags:battle in 5 five seconds after meeting deatte go-byou de 5-byou kitou kaleidoscope anime japanese rock jrock opening anchor koldnoodl lewski
BeatmapID:3370788
BeatmapSetID:1552772

[Difficulty]
HPDrainRate:5.6
CircleSize:4.2
OverallDifficulty:8.6
ApproachRate:9.3
SliderMultiplier:1.7
SliderTickRate:1

[Events]
//Background and Video events
0,0,"qIAH4266.jpg",0,0
Video,-548,"Deatte 5-byou opening.mp4"
//Break Periods
//Storyboard Layer 0 (Background)
//Storyboard Layer 1 (Fail)
//Storyboard Layer 2 (Pass)
//Storyboard Layer 3 (Foreground)
//Storyboard Layer 4 (Overlay)
//Storyboard Sound Samples

[TimingPoints]
412,222.222222222222,4,2,1,60,1,0
11078,-83.3333333333333,4,2,1,75,0,0
11411,-100,4,2,1,75,0,0
18189,-83.3333333333333,4,2,1,75,0,0
18523,-100,4,2,1,75,0,0
25078,-142.857142857143,4,2,1,75,0,0
25300,-1000,4,2,1,60,0,0
25356,-1000,4,2,1,5,0,0
25634,-1000,4,2,1,60,0,0
25967,-1000,4,2,1,60,0,0
26023,-1000,4,2,1,5,0,0
26300,-1000,4,2,1,60,0,0
26634,-1000,4,2,1,60,0,0
26689,-1000,4,2,1,5,0,0
27078,-125,4,2,1,60,0,0
39523,-100,4,2,2,60,0,0
40189,-100,4,2,1,60,0,0
41300,-100,4,2,1,60,0,0
50189,-111.111111111111,4,2,1,60,0,0
55523,-90.9090909090908,4,2,1,60,0,0
56300,-200,4,2,1,60,0,0
58189,-333.333333333333,4,2,1,60,0,0
58578,-250,4,2,3,60,0,0
58745,-250,4,2,1,60,0,0
59078,-83.3333333333333,4,2,1,90,0,1
59411,-100,4,2,1,90,0,1
73300,-125,4,2,1,80,0,0
80411,-100,4,2,1,90,0,1
83967,-250.000000000001,4,2,1,60,0,0
85967,-500,4,2,1,60,0,0
86189,-500,4,2,1,5,0,0
86300,-500,4,2,1,60,0,0

[Colours]
Combo1 : 132,132,132
Combo2 : 203,216,112
Combo3 : 218,98,88
Combo4 : 114,152,123

[HitObjects]
256,192,8411,12,0,10411,0:0:0:0:
62,333,10745,5,0,1:0:0:0:
78,327,10856,1,0,1:0:0:0:
94,321,10967,1,0,1:0:0:0:
194,310,11078,6,0,P|111:295|9:214,1,203.999993774414,4|8,1:2|0:2,0:0:0:0:
50,127,11411,1,0,0:0:0:0:
132,179,11523,2,0,P|199:156|227:119,1,85,0|0,1:0|1:0,0:0:0:0:
149,0,11745,2,0,P|135:69|153:112,1,85,8|0,0:2|0:0,0:0:0:0:
242,58,11967,2,0,P|283:47|324:38,1,85,0|0,1:0|1:0,0:0:0:0:
500,62,12189,1,8,0:2:0:0:
424,0,12300,2,0,P|410:83|396:167,1,170,0|0,1:0|1:0,0:0:0:0:
329,291,12634,2,0,P|322:249|315:207,1,85,8|0,0:2|0:0,0:0:0:0:
221,71,12856,6,0,B|168:86|168:86|139:132|139:132|81:150,1,170,0|8,1:0|0:2,0:0:0:0:
17,216,13189,1,0,0:0:0:0:
110,230,13300,2,0,P|136:261|132:303,1,85,0|0,1:0|1:0,0:0:0:0:
0,384,13523,2,0,P|14:345|52:328,1,85,8|0,0:2|0:0,0:0:0:0:
176,380,13745,2,0,P|262:360|346:344,1,170,0|8,1:0|0:2,0:0:0:0:
432,372,14078,1,0,1:0:0:0:
488,311,14189,2,0,P|487:266|452:234,1,85,0|0,0:0|1:0,0:0:0:0:
453,93,14411,2,0,P|416:113|403:152,1,85,8|0,0:2|0:0,0:0:0:0:
353,244,14634,6,0,P|267:224|183:208,1,170,0|8,1:0|0:2,0:0:0:0:
112,156,14967,1,0,0:0:0:0:
112,156,15078,2,0,P|113:109|157:76,1,85,0|0,1:0|1:0,0:0:0:0:
233,80,15300,2,0,P|259:48|258:6,1,85,8|0,0:2|0:0,0:0:0:0:
156,0,15523,2,0,P|199:84|222:169,1,170,0|8,1:0|0:2,0:0:0:0:
315,253,15856,2,0,P|370:188|436:136,1,170,0|0,1:0|1:0,0:0:0:0:
355,51,16189,1,8,0:2:0:0:
151,258,16411,6,0,P|82:214|-23:180,2,170,0|8|0,1:0|0:2|1:0,0:0:0:0:
210,342,16967,1,0,0:0:0:0:
296,282,17078,2,0,P|322:272|348:266,3,42.5,8|8|8|8,0:2|0:2|0:2|0:2,0:0:0:0:
356,279,17300,5,8,0:2:0:0:
68,370,17634,5,8,1:2:0:0:
212,330,17967,5,8,1:2:0:0:
388,374,18189,6,0,B|510:343|510:343|525:293|481:266,1,203.999993774414,2|8,1:1|0:2,0:0:0:0:
411,231,18523,1,0,0:0:0:0:
411,231,18634,2,0,P|409:179|434:142,1,85,0|0,1:0|1:0,0:0:0:0:
509,19,18856,2,0,P|511:71|486:108,1,85,8|0,0:2|0:0,0:0:0:0:
319,163,19078,2,0,B|260:143|260:143|242:101|242:101|183:80,1,170,0|8,1:0|0:2,0:0:0:0:
99,26,19411,1,0,1:0:0:0:
51,113,19523,2,0,P|63:153|76:194,1,85,0|0,0:0|1:0,0:0:0:0:
151,339,19745,2,0,P|164:298|176:257,1,85,8|0,0:2|0:0,0:0:0:0:
319,163,19967,6,0,P|401:179|473:225,1,170,0|8,1:0|0:2,0:0:0:0:
496,317,20300,1,0,0:0:0:0:
393,318,20411,2,0,P|340:298|304:274,1,85,0|0,1:0|1:0,0:0:0:0:
179,164,20634,2,0,P|126:184|90:208,1,85,8|0,0:2|0:0,0:0:0:0:
191,384,20856,2,0,P|207:321|254:210,1,170,0|8,1:0|0:2,0:0:0:0:
329,82,21189,1,0,1:0:0:0:
393,142,21300,2,0,P|435:143|471:120,1,85,0|0,0:0|1:0,0:0:0:0:
261,26,21523,2,0,P|220:24|184:47,1,85,8|0,0:2|0:0,0:0:0:0:
18,108,21745,6,0,P|99:130|178:163,1,170,0|8,1:0|0:2,0:0:0:0:
246,223,22078,1,0,0:0:0:0:
313,162,22189,2,0,P|349:143|410:147,1,85,0|0,1:0|1:0,0:0:0:0:
388,310,22411,2,0,P|345:308|308:289,1,85,8|0,0:2|0:0,0:0:0:0:
178,163,22634,2,0,P|102:175|8:245,1,170,0|8,1:0|0:2,0:0:0:0:
89,293,22967,2,0,P|172:307|242:354,1,170,0|0,1:0|1:0,0:0:0:0:
318,384,23300,1,8,0:2:0:0:
184,46,23523,5,4,1:2:0:0:
337,378,23745,1,8,0:2:0:0:
358,373,23856,1,8,0:2:0:0:
379,368,23967,2,0,P|395:322|378:273,1,85,8|8,1:2|0:2,0:0:0:0:
265,143,24189,2,0,P|258:101|274:63,1,85,8|8,0:2|0:2,0:0:0:0:
398,185,24411,5,8,1:2:0:0:
323,208,24523,1,8,0:2:0:0:
248,231,24634,1,8,0:2:0:0:
173,254,24745,1,8,0:2:0:0:
91,219,24856,6,0,P|105:191|97:156,2,56.6666666666667,8|8|0,0:3|0:3|0:0,0:0:0:0:
21,96,25078,6,0,P|23:68|42:47,2,39.6666654561361,4|4|0,0:3|0:3|0:0,0:0:0:0:
104,0,25300,6,0,L|129:6,1,25.5,0|0,0:2|0:0,0:0:0:0:
261,159,25967,6,0,L|286:153,1,25.5,0|0,0:2|0:0,0:0:0:0:
447,30,26634,6,0,L|472:36,1,25.5,0|0,0:2|0:0,0:0:0:0:
483,35,27078,6,0,P|456:89|473:172,1,136,4|8,1:2|0:2,0:0:0:0:
409,228,27411,1,0,0:0:0:0:
409,228,27523,2,0,L|391:307,1,68,2|0,1:2|1:0,0:0:0:0:
291,372,27745,2,0,L|275:305,1,68,2|0,0:2|0:0,0:0:0:0:
173,217,27967,2,0,P|106:209|49:259,1,136,2|8,1:2|0:2,0:0:0:0:
0,384,28300,2,0,L|150:349,1,136,2|0,1:2|1:0,0:0:0:0:
271,210,28634,2,0,P|270:176|248:151,1,68,10|0,0:2|0:2,0:0:0:0:
274,39,28856,6,0,P|220:78|155:71,1,136,2|8,1:2|0:2,0:0:0:0:
89,6,29189,1,2,0:2:0:0:
24,64,29300,2,0,P|17:103|36:131,1,68,0|0,1:2|1:0,0:0:0:0:
122,169,29523,2,0,P|129:201|115:232,1,68,10|0,0:2|0:0,0:0:0:0:
0,271,29745,6,0,L|154:242,1,136,0|8,1:0|0:2,0:0:0:0:
213,337,30078,2,0,L|367:366,1,136,0|0,1:0|1:0,0:0:0:0:
461,310,30411,1,8,0:2:0:0:
310,155,30634,6,0,B|287:64|287:64|321:24,2,136,0|8|2,1:0|0:2|1:2,0:0:0:0:
400,202,31189,1,0,1:0:0:0:
400,202,31300,2,0,P|442:186|453:152,1,68,10|0,0:2|0:0,0:0:0:0:
486,41,31523,6,0,P|455:81|349:74,1,136,2|8,1:2|0:2,0:0:0:0:
198,106,31856,2,0,P|264:106|309:154,1,136,2|0,1:2|1:0,0:0:0:0:
400,202,32189,2,0,L|413:268,1,68,10|0,0:2|0:0,0:0:0:0:
333,362,32411,2,0,B|255:348|299:301|206:290,1,136,2|8,1:2|0:2,0:0:0:0:
84,332,32745,2,0,P|108:356|142:360,1,68,2|0,0:2|1:0,0:0:0:0:
140,360,32967,1,0,1:0:0:0:
183,205,33078,2,0,P|127:243|61:243,1,136,10|0,0:2|1:0,0:0:0:0:
14,48,33523,5,8,0:2:0:0:
75,100,33634,2,0,P|108:95|135:75,1,68,0|0,1:0|1:2,0:0:0:0:
265,0,33856,5,8,0:2:0:0:
230,68,33967,1,8,0:2:0:0:
259,137,34078,1,8,0:2:0:0:
324,182,34189,6,0,B|394:168|394:168|398:165|398:165|456:154,1,136,4|8,1:2|0:2,0:0:0:0:
512,221,34523,1,0,0:0:0:0:
512,221,34634,2,0,L|497:302,1,68,2|0,1:2|1:0,0:0:0:0:
355,346,34856,2,0,L|340:265,1,68,10|0,0:2|0:0,0:0:0:0:
259,137,35078,2,0,P|194:156|136:208,1,136,2|8,1:2|0:2,0:0:0:0:
34,258,35411,2,0,P|98:276|150:320,1,136,2|0,1:2|1:0,0:0:0:0:
205,383,35745,2,0,P|244:370|269:338,1,68,10|0,0:2|0:0,0:0:0:0:
388,371,35967,6,0,P|357:312|359:245,1,136,2|8,1:2|0:2,0:0:0:0:
427,171,36300,1,2,0:2:0:0:
327,152,36411,2,0,P|294:160|262:172,1,68,0|0,1:2|1:0,0:0:0:0:
112,267,36634,5,10,0:2:0:0:
260,57,36856,1,0,1:0:0:0:
23,33,37078,2,0,P|57:32|84:53,1,68,10|0,0:2|1:0,0:0:0:0:
174,123,37300,2,0,P|158:152|128:166,1,68,2|0,0:2|1:0,0:0:0:0:
21,208,37523,2,0,P|4:180|8:147,1,68,10|0,0:2|0:0,0:0:0:0:
158,245,37745,6,0,P|90:265|46:320,2,136,2|8|2,1:2|0:2|1:2,0:0:0:0:
234,295,38300,1,0,1:0:0:0:
234,295,38411,2,0,P|283:283|300:260,1,68,10|0,0:2|0:0,0:0:0:0:
403,305,38634,6,0,P|388:248|367:155,1,136,0|8,1:0|0:2,0:0:0:0:
247,56,38967,1,0,1:0:0:0:
247,56,39078,2,0,P|244:89|260:119,1,68,2|0,0:2|1:0,0:0:0:0:
439,91,39300,2,0,P|441:57|425:27,1,68,10|0,0:2|0:0,0:0:0:0:
326,0,39523,6,0,L|346:83,1,85,2|0,1:2|0:0,0:0:0:0:
479,231,39745,2,0,L|499:148,1,85,10|0,0:2|0:0,0:0:0:0:
301,303,39967,2,0,L|281:220,1,85,2|0,1:2|0:0,0:0:0:0:
459,370,40189,2,0,L|504:353,3,42.5,8|8|8|8,0:2|0:2|0:2|0:2,0:0:0:0:
511,338,40411,5,0,1:0:0:0:
210,275,40745,5,0,1:0:0:0:
20,40,41078,5,8,0:2:0:0:
60,125,41189,1,8,0:2:0:0:
60,125,41300,6,0,P|114:109|151:100,1,85,2|0,1:0|1:0,0:0:0:0:
309,0,41523,2,0,P|266:3|233:29,1,85,0|0,1:0|1:0,0:0:0:0:
270,150,41745,2,0,P|313:147|346:121,1,85,8|0,0:2|1:0,0:0:0:0:
423,45,41967,1,0,1:0:0:0:
423,45,42078,1,0,1:0:0:0:
423,45,42189,6,0,B|474:72|474:72|435:201,1,170,8|0,0:2|1:0,0:0:0:0:
493,248,42523,2,0,P|426:224|346:302,1,170,0|0,1:0|1:0,0:0:0:0:
252,363,42856,1,0,1:2:0:0:
203,348,42967,1,0,1:0:0:0:
154,333,43078,2,0,P|152:291|187:239,1,85,0|0,1:0|1:0,0:0:0:0:
265,168,43300,1,0,1:0:0:0:
265,168,43411,1,0,1:0:0:0:
265,168,43523,2,0,P|272:119|245:79,1,85,8|0,1:2|1:0,0:0:0:0:
56,115,43745,2,0,P|49:163|76:204,1,85,0|0,1:0|1:0,0:0:0:0:
194,269,43967,5,8,0:2:0:0:
194,269,44078,2,0,L|279:246,1,85,0|0,1:0|1:0,0:0:0:0:
345,360,44300,1,0,1:0:0:0:
345,360,44411,2,0,L|427:382,1,85,8|0,0:2|1:0,0:0:0:0:
509,287,44634,1,0,1:0:0:0:
509,287,44745,1,0,1:0:0:0:
509,287,44856,6,0,P|514:244|478:197,1,85,4|0,1:2|1:0,0:0:0:0:
398,87,45078,2,0,L|480:65,1,85,0|0,1:0|1:0,0:0:0:0:
416,263,45300,2,0,L|334:242,1,85,8|0,1:2|1:0,0:0:0:0:
240,121,45523,1,0,1:0:0:0:
240,121,45634,1,0,1:0:0:0:
240,121,45745,2,0,P|164:113|101:200,1,170,8|0,0:2|0:0,0:0:0:0:
17,201,46078,2,0,P|100:220|182:242,1,170,0|8,1:0|0:2,0:0:0:0:
244,312,46411,1,8,0:2:0:0:
180,374,46523,1,8,0:2:0:0:
228,307,46634,6,0,P|300:276|409:272,1,170,4|0,1:2|1:0,0:0:0:0:
478,191,46967,1,12,0:2:0:0:
478,191,47078,2,0,P|415:174|379:154,1,85,0|0,1:0|1:0,0:0:0:0:
306,37,47300,2,0,P|390:42|468:74,1,170,12|0,1:2|1:0,1:0:0:0:
491,190,47634,1,8,0:2:0:0:
491,190,47745,2,0,P|481:241|453:298,1,85,8|0,0:2|1:0,0:0:0:0:
343,378,47967,5,8,0:2:0:0:
302,365,48078,1,8,0:3:0:0:
261,352,48189,1,8,0:3:0:0:
221,340,48300,1,4,0:3:0:0:
180,327,48411,6,0,P|181:275|244:153,1,170,4|0,1:2|1:0,0:0:0:0:
132,14,48745,1,12,0:2:0:0:
132,14,48856,2,0,P|159:51|157:108,1,85,0|0,0:0|1:0,0:0:0:0:
228,169,49078,2,0,P|167:120|72:121,1,170,12|0,0:2|1:0,0:0:0:0:
17,189,49411,1,8,0:2:0:0:
75,264,49523,2,0,P|127:249|176:237,1,85,0|0,1:0|1:0,0:0:0:0:
240,71,49745,5,8,0:2:0:0:
295,25,49856,1,8,0:2:0:0:
366,13,49967,1,8,0:2:0:0:
430,46,50078,1,8,0:2:0:0:
471,105,50189,6,0,P|483:175|451:279,1,152.999995330811,2|0,1:0|1:0,0:0:0:0:
299,246,50523,2,0,P|327:220|363:210,1,76.4999976654053,0|0,1:0|1:0,0:0:0:0:
446,357,50745,2,0,P|409:344|382:318,1,76.4999976654053,0|0,1:0|1:0,0:0:0:0:
266,144,50967,1,0,1:0:0:0:
192,203,51078,5,8,1:2:0:0:
192,203,51189,2,0,B|141:193|141:193|116:150|116:150|57:138,2,152.999995330811,0|0|0,1:0|1:0|1:0,0:0:0:0:
266,144,51745,2,0,P|311:146|348:179,1,76.4999976654053,0|0,1:0|1:0,0:0:0:0:
435,208,51967,6,0,P|390:245|380:344,1,152.999995330811,0|0,1:0|0:0,0:0:0:0:
297,384,52300,2,0,P|249:371|221:341,1,76.4999976654053,0|0,1:0|0:0,0:0:0:0:
136,222,52523,2,0,P|88:235|60:265,1,76.4999976654053,0|0,1:0|0:0,0:0:0:0:
269,221,52745,1,0,1:0:0:0:
229,133,52856,1,8,0:2:0:0:
229,133,52967,2,0,P|173:90|59:93,1,152.999995330811,0|0,1:0|1:0,0:0:0:0:
45,179,53300,2,0,P|60:219|72:286,1,76.4999976654053,8|0,0:2|1:0,0:0:0:0:
175,330,53523,2,0,P|184:292|197:257,1,76.4999976654053,0|0,1:0|1:0,0:0:0:0:
318,149,53745,5,4,1:2:0:0:
381,203,53856,2,0,P|425:192|448:165,1,76.4999976654053,0|0,1:0|1:0,0:0:0:0:
252,19,54078,2,0,P|246:68|244:106,1,76.4999976654053,12|0,0:2|1:0,0:0:0:0:
98,215,54300,1,0,1:0:0:0:
153,128,54411,2,0,P|79:115|18:157,1,152.999995330811,12|0,0:2|1:0,0:0:0:0:
43,302,54745,2,0,P|116:315|178:273,1,152.999995330811,12|0,0:2|1:0,0:0:0:0:
336,97,55078,5,8,0:2:0:0:
318,175,55189,1,8,0:2:0:0:
300,253,55300,1,8,0:2:0:0:
282,331,55411,1,8,0:2:0:0:
346,384,55523,6,0,B|406:370|478:354|478:354|491:304,1,187.000005706787,0|8,1:0|0:2,0:0:0:0:
419,221,55856,1,8,0:2:0:0:
346,284,55967,2,0,P|284:261|240:247,1,93.5000028533936,8|0,0:2|0:0,0:0:0:0:
64,206,56189,1,8,0:2:0:0:
137,288,56300,5,0,1:0:0:0:
256,192,56411,12,0,57856,0:0:0:0:
42,52,58578,5,2,0:2:0:0:
384,283,59078,6,0,B|418:240|418:240|267:274,1,203.999993774414,2|8,1:0|0:2,0:0:0:0:
82,306,59411,1,2,0:2:0:0:
153,208,59523,2,0,P|166:253|177:297,1,85,0|0,1:2|1:0,0:0:0:0:
47,163,59745,2,0,P|91:118|221:115,1,170,10|0,0:2|1:0,0:0:0:0:
295,186,60078,2,0,P|331:174|364:138,1,85,2|8,1:2|0:2,0:0:0:0:
360,22,60300,5,2,1:2:0:0:
284,93,60411,1,2,0:2:0:0:
195,69,60523,1,0,1:0:0:0:
106,45,60634,1,10,0:2:0:0:
17,21,60745,1,0,0:0:0:0:
100,71,60856,6,0,P|74:150|45:244,1,170,2|8,1:2|0:2,0:0:0:0:
116,343,61189,2,0,P|161:334|192:294,1,85,2|0,0:2|1:0,0:0:0:0:
398,213,61411,2,0,P|439:219|468:249,1,85,2|8,1:2|0:2,0:0:0:0:
327,363,61634,2,0,P|305:284|270:186,1,170,2|0,0:2|1:0,0:0:0:0:
181,29,61967,1,8,0:2:0:0:
276,92,62078,2,0,B|333:86|353:55|328:36|365:-4|430:19,1,170,0|0,1:0|1:0,0:0:0:0:
494,98,62411,1,10,0:2:0:0:
494,98,62523,1,2,0:2:0:0:
494,98,62634,6,0,P|455:134|452:251,1,170,2|8,1:2|0:2,0:0:0:0:
376,359,62967,2,0,P|328:348|291:309,1,85,2|0,0:2|1:0,0:0:0:0:
135,205,63189,2,0,P|87:216|50:255,1,85,2|8,1:2|0:2,0:0:0:0:
194,361,63411,2,0,P|208:292|241:185,1,170,2|0,0:2|0:2,0:0:0:0:
382,105,63745,2,0,P|423:105|459:128,1,85,10|0,0:2|1:0,0:0:0:0:
417,288,63967,2,0,P|375:287|339:264,1,85,2|0,0:2|1:0,0:0:0:0:
173,5,64189,1,10,0:2:0:0:
237,54,64300,1,0,0:0:0:0:
216,133,64411,6,0,P|232:218|246:321,1,170,2|8,1:2|0:2,0:0:0:0:
100,383,64745,2,0,P|59:365|10:354,1,85,2|0,0:2|1:2,0:0:0:0:
17,200,64967,2,0,P|55:182|96:172,1,85,2|8,1:2|0:2,0:0:0:0:
260,53,65189,2,0,P|216:31|92:19,1,170,2|0,0:2|1:0,0:0:0:0:
0,117,65523,2,0,P|11:163|20:213,1,85,8|0,0:2|1:0,0:0:0:0:
267,379,65745,5,8,0:2:0:0:
220,309,65856,1,8,0:2:0:0:
214,225,65967,1,8,0:2:0:0:
250,156,66078,1,8,0:2:0:0:
330,129,66189,6,0,P|390:145|508:203,1,170,4|8,1:2|0:2,0:0:0:0:
396,291,66523,2,0,P|347:273|293:238,1,85,2|0,0:2|1:0,0:0:0:0:
131,149,66745,1,0,1:0:0:0:
200,268,66856,2,0,P|218:180|240:98,1,170,10|0,0:2|1:0,0:0:0:0:
7,37,67189,2,0,P|28:119|45:202,1,170,2|0,1:2|1:0,0:0:0:0:
58,374,67523,1,2,0:2:0:0:
5,294,67634,1,2,1:2:0:0:
45,202,67745,2,0,P|87:205|126:220,1,85,10|0,0:2|0:0,0:0:0:0:
323,174,67967,6,0,P|277:243|276:327,1,170,2|8,1:2|0:2,0:0:0:0:
400,336,68300,2,0,P|425:297|419:241,1,85,2|0,0:2|1:0,0:0:0:0:
262,95,68523,2,0,P|264:53|288:19,1,85,2|8,1:2|0:2,0:0:0:0:
484,119,68745,2,0,P|432:131|318:176,1,170,2|0,0:2|1:0,0:0:0:0:
106,346,69078,2,0,P|146:357|185:374,1,85,10|0,0:2|0:0,0:0:0:0:
377,267,69300,2,0,P|415:250|456:238,1,85,2|0,1:2|1:0,0:0:0:0:
193,165,69523,2,0,P|152:177|113:194,1,85,10|0,0:2|0:0,0:0:0:0:
337,60,69745,6,0,P|390:56|489:129,2,170,4|8|0,1:2|0:2|1:0,0:0:0:0:
267,141,70300,1,0,1:0:0:0:
173,81,70411,2,0,P|187:25|199:-10,1,85,8|0,0:2|0:0,0:0:0:0:
13,104,70634,2,0,P|26:144|36:186,1,85,0|0,1:0|1:0,0:0:0:0:
128,271,70856,1,8,0:2:0:0:
302,222,70967,2,0,P|220:201|136:184,1,170,0|0,1:0|1:0,0:0:0:0:
0,375,71300,2,0,P|40:362|81:352,1,85,8|0,0:2|0:0,0:0:0:0:
403,193,71523,6,0,P|411:234|387:272,1,85,0|0,1:0|1:0,0:0:0:0:
188,366,71745,1,8,0:2:0:0:
110,278,71856,1,0,1:0:0:0:
199,378,71967,2,0,P|254:357|305:345,1,85,8|0,0:2|1:0,0:0:0:0:
474,120,72189,5,8,0:2:0:0:
390,67,72300,1,8,0:2:0:0:
294,109,72411,2,0,P|228:130|188:155,1,85,12|0,0:2|1:0,0:0:0:0:
80,302,72634,2,0,P|38:291|0:273,1,85,12|0,0:2|1:0,0:0:0:0:
262,363,72856,5,8,0:2:0:0:
336,328,72967,1,8,0:3:0:0:
384,265,73078,1,8,0:3:0:0:
386,183,73189,1,4,0:3:0:0:
322,128,73300,6,0,P|257:133|190:189,1,136,4|0,1:2|0:0,0:0:0:0:
14,187,73634,2,0,P|79:192|146:248,1,136,0|0,1:0|0:0,0:0:0:0:
171,307,73967,1,0,1:0:0:0:
477,118,74189,6,0,P|445:109|413:99,1,68,12|0,0:2|0:0,0:0:0:0:
331,236,74411,2,0,P|363:225|395:215,1,68
486,362,74634,2,0,P|453:351|421:341,1,68
162,357,74856,1,0,1:0:0:0:
235,308,74967,1,0,1:0:0:0:
140,361,75078,6,0,P|126:307|102:225,1,136,4|0,1:2|0:0,0:0:0:0:
264,71,75411,2,0,P|244:136|227:202,1,136,0|0,1:0|0:0,0:0:0:0:
265,294,75745,1,0,1:0:0:0:
61,98,75967,6,0,P|8:122|-16:134,1,68,12|0,0:2|0:0,0:0:0:0:
103,229,76189,2,0,P|133:244|165:258,1,68,8|8,0:2|0:2,0:0:0:0:
275,355,76411,1,8,0:2:0:0:
315,342,76523,1,8,0:3:0:0:
355,329,76634,1,8,0:3:0:0:
395,316,76745,1,4,0:3:0:0:
435,303,76856,6,0,P|446:249|394:166,1,136,4|0,1:2|0:0,0:0:0:0:
271,160,77189,2,0,P|238:101|247:35,1,136,0|0,1:0|0:0,0:0:0:0:
348,0,77523,1,0,1:0:0:0:
145,233,77745,6,0,P|111:225|79:213,1,68,12|0,0:2|0:0,0:0:0:0:
239,341,77967,2,0,P|271:329|305:322,1,68,0|0,0:2|0:0,0:0:0:0:
446,241,78189,2,0,P|403:230|366:215,1,68,0|0,0:2|0:0,0:0:0:0:
154,65,78411,1,0,1:0:0:0:
240,24,78523,1,0,1:0:0:0:
143,82,78634,6,0,P|152:137|174:234,1,136,4|0,1:2|0:0,0:0:0:0:
2,349,78967,2,0,P|16:282|28:215,1,136,0|0,1:0|0:0,0:0:0:0:
28,104,79300,1,0,1:0:0:0:
258,318,79523,6,0,P|295:308|326:270,1,68,8|0,0:2|0:0,0:0:0:0:
451,92,79745,1,8,0:2:0:0:
405,158,79856,1,8,0:2:0:0:
324,156,79967,2,0,P|287:146|256:108,1,68,8|0,0:2|0:0,0:0:0:0:
344,0,80189,2,0,P|381:10|412:48,1,68,8|8,0:2|0:2,0:0:0:0:
344,250,80411,6,0,P|276:197|193:181,1,170,2|0,1:0|0:0,0:0:0:0:
95,260,80745,1,0,0:0:0:0:
95,260,80856,2,0,P|42:246|20:220,1,85,8|8,0:2|0:2,0:0:0:0:
95,48,81078,2,0,P|148:62|170:88,1,85,0|0,0:2|0:2,0:0:0:0:
333,132,81300,6,0,P|382:117|501:81,2,170,0|0|8,1:0|0:0|0:2,0:0:0:0:
134,376,81967,2,0,P|175:376|209:351,1,85
305,246,82189,5,0,1:0:0:0:
26,337,82411,1,0,1:0:0:0:
381,368,82634,5,8,0:2:0:0:
50,134,82856,1,0,1:0:0:0:
406,21,83078,5,0,1:0:0:0:
400,52,83189,1,0,1:0:0:0:
394,83,83300,1,0,1:0:0:0:
388,114,83411,1,0,1:0:0:0:
382,146,83523,5,8,0:2:0:0:
316,186,83634,1,8,0:2:0:0:
240,176,83745,1,8,0:2:0:0:
186,121,83856,1,8,0:2:0:0:
186,41,83967,5,4,1:2:0:0:
256,192,84023,12,0,85634,0:0:0:0:
209,212,85967,6,0,L|247:204,1,34
256,192,86300,1,0,0:0:0:0:
