osu file format v14

[General]
AudioFilename: audio.ogg
AudioLeadIn: 0
PreviewTime: 48799
Countdown: 0
SampleSet: Soft
StackLeniency: 0.4
Mode: 0
LetterboxInBreaks: 0
WidescreenStoryboard: 1

[Editor]
DistanceSpacing: 1
BeatDivisor: 4
GridSize: 16
TimelineZoom: 2

[Metadata]
Title:Kimi no Tonari de (TV Size)
TitleUnicode:キミのとなりで (TV Size)
Artist:Kito Akari
ArtistUnicode:鬼頭明里
Creator:crewfantasy
Version:Kirishima-'s Insane
Source:安達としまむら
Tags:anime japanese jpop j-pop pop adachi to and shimamura adashima ending ed short 3rd third single シングル yuri kitou kitō theneg neg kirishima- torriru lesbian
BeatmapID:2997773
BeatmapSetID:1424733

[Difficulty]
HPDrainRate:5
CircleSize:3.5
OverallDifficulty:7.5
ApproachRate:9
SliderMultiplier:1.6
SliderTickRate:1

[Events]
//Background and Video events
0,0,"bg.png",0,0
//Break Periods
//Storyboard Layer 0 (Background)
//Storyboard Layer 1 (Fail)
//Storyboard Layer 2 (Pass)
//Storyboard Layer 3 (Foreground)
//Storyboard Layer 4 (Overlay)
//Storyboard Sound Samples

[TimingPoints]
529,303.030303030303,4,2,1,40,1,0
529,-166.666666666667,4,2,1,40,0,0
9316,-125,4,2,1,40,0,0
10225,-125,4,2,1,50,0,0
10453,-125,4,2,1,5,0,0
10528,-125,4,2,1,50,0,0
14695,-125,4,2,1,5,0,0
14771,-125,4,2,1,50,0,0
14998,-125,4,2,1,5,0,0
15074,-125,4,2,1,50,0,0
20150,-125,4,2,1,5,0,0
20225,-125,4,2,1,50,0,0
22574,-125,4,2,1,5,0,0
22650,-125,4,2,1,50,0,0
26210,-125,4,2,1,5,0,0
26286,-125,4,2,1,50,0,0
27422,-125,4,2,1,5,0,0
27498,-125,4,2,1,50,0,0
28710,-117.647058823529,4,2,1,50,0,0
29619,-133.333333333333,4,2,1,50,0,0
38104,-117.647058823529,4,2,1,50,0,0
39316,-133.333333333333,4,2,1,60,0,0
44165,-117.647058823529,4,2,1,70,0,0
46589,-105.263157894737,4,2,1,70,0,0
46892,-105.263157894737,4,2,1,50,0,0
47044,-105.263157894737,4,2,1,55,0,0
47271,-105.263157894737,4,2,1,60,0,0
47422,-105.263157894737,4,2,1,65,0,0
47650,-105.263157894737,4,2,1,70,0,0
48862,-90.9090909090909,4,2,1,80,0,1
68256,-83.3333333333333,4,2,1,80,0,1
73559,-83.3333333333333,4,2,1,60,0,1
73862,-83.3333333333333,4,2,1,63,0,1
74165,-83.3333333333333,4,2,1,66,0,1
74468,-83.3333333333333,4,2,1,69,0,1
74771,-83.3333333333333,4,2,1,72,0,1
75074,-83.3333333333333,4,2,1,75,0,1
75377,-83.3333333333333,4,2,1,78,0,1
75680,-83.3333333333333,4,2,1,80,0,1
75983,-83.3333333333333,4,2,1,50,0,1
76286,-83.3333333333333,4,2,1,54,0,1
76589,-83.3333333333333,4,2,1,57,0,1
76892,-83.3333333333333,4,2,1,60,0,1
77195,-83.3333333333333,4,2,1,63,0,1
77498,-83.3333333333333,4,2,1,66,0,1
77801,-83.3333333333333,4,2,1,70,0,1
78104,-90.9090909090909,4,2,1,70,0,1
80528,-90.9090909090909,4,2,1,60,0,1
87650,-133.333333333333,4,2,1,60,0,0
87953,-133.333333333333,4,2,1,30,0,0
91286,-133.333333333333,4,2,1,35,0,0
91892,-133.333333333333,4,2,1,40,0,0
92044,-133.333333333333,4,2,1,45,0,0
92195,-133.333333333333,4,2,1,50,0,0
92347,-133.333333333333,4,2,1,55,0,0
92498,-133.333333333333,4,2,1,60,0,0

[Colours]
Combo1 : 228,215,41
Combo2 : 45,242,253
Combo3 : 239,52,103
Combo4 : 73,67,203
Combo5 : 237,107,218

[HitObjects]
55,35,529,6,0,L|8:26,2,47.9999985351563,6|0|2,1:2|0:0|0:0,0:0:0:0:
141,87,983,2,0,L|235:70,2,95.9999970703126,2|2|2,0:0|0:0|0:0,0:0:0:0:
57,137,1741,2,0,L|48:184,2,47.9999985351563,2|2|2,0:0|0:0|0:0,0:0:0:0:
145,185,2195,2,0,L|153:232,1,47.9999985351563,2|0,0:0|0:0,0:0:0:0:
246,169,2498,2,0,L|241:192,2,23.9999992675781,2|2|2,0:0|0:0|0:0,0:0:0:0:
325,111,2801,1,0,3:0:0:0:
429,141,2953,6,0,L|437:188,1,47.9999985351563,2|0,0:0|0:0,0:0:0:0:
336,266,3256,2,0,L|344:218,1,47.9999985351563,2|0,0:0|0:0,0:0:0:0:
489,267,3559,2,0,L|497:314,1,47.9999985351563,2|0,0:0|0:0,0:0:0:0:
395,384,3862,2,0,L|403:336,1,47.9999985351563,2|0,0:0|0:0,0:0:0:0:
301,268,4165,2,0,L|309:315,1,47.9999985351563,2|2,0:0|0:0,0:0:0:0:
210,222,4468,1,2,0:0:0:0:
210,222,4619,2,0,L|201:269,1,47.9999985351563,2|2,0:0|0:0,0:0:0:0:
104,282,4922,1,2,0:0:0:0:
104,282,4998,1,2,0:0:0:0:
104,282,5074,2,0,L|108:305,2,23.9999992675781,2|2|2,3:0|0:0|0:0,0:0:0:0:
113,108,5377,6,0,L|104:155,2,47.9999985351563,6|0|2,1:2|0:0|0:0,0:0:0:0:
171,46,5831,2,0,P|129:23|82:29,2,95.9999970703126,2|2|2,0:0|0:0|0:0,0:0:0:0:
197,129,6589,2,0,L|205:176,2,47.9999985351563,2|2|2,0:0|0:0|0:0,0:0:0:0:
263,18,7044,2,0,L|255:66,1,47.9999985351563,2|0,0:0|0:0,0:0:0:0:
312,132,7346,2,0,L|315:154,2,23.9999992675781,2|2|2,0:0|0:0|0:0,0:0:0:0:
385,68,7649,1,0,3:0:0:0:
505,208,7801,6,0,L|457:199,1,47.9999985351563,2|0,0:0|0:0,0:0:0:0:
310,274,8104,2,0,L|357:265,1,47.9999985351563,10|0,0:0|0:0,0:0:0:0:
502,240,8407,2,0,L|454:231,1,47.9999985351563,2|0,0:0|0:0,0:0:0:0:
310,306,8710,2,0,L|357:297,1,47.9999985351563,10|0,0:0|0:0,0:0:0:0:
496,271,9013,2,0,L|448:262,1,47.9999985351563,2|2,0:0|0:0,0:0:0:0:
309,343,9316,1,10,0:0:0:0:
226,241,9468,2,0,L|231:209,2,32,10|8|10,0:0|0:0|0:0,0:0:0:0:
129,306,9771,1,10,0:3:0:0:
47,256,9922,2,0,L|35:193,1,64,4|4,0:3|0:3,0:0:0:0:
185,45,10225,6,0,B|168:139,1,96,6|0,1:2|0:0,0:0:0:0:
161,171,10528,2,0,L|34:193,1,128,8|2,0:0|3:0,0:0:0:0:
61,16,10983,1,2,0:0:0:0:
61,16,11135,2,0,L|72:79,1,64,10|0,0:0|0:0,0:0:0:0:
270,140,11438,2,0,P|208:131|161:171,1,128,2|10,3:0|0:0,0:0:0:0:
60,284,11892,2,0,P|121:275|170:314,1,128,0|2,0:0|0:0,0:0:0:0:
238,218,12347,1,8,0:0:0:0:
238,218,12498,1,2,1:0:0:0:
386,323,12650,6,0,L|259:301,1,128,2|10,1:0|0:0,0:0:0:0:
112,240,13104,2,0,L|239:218,1,128
135,77,13559,2,0,L|123:140,1,64,8|0,0:0|0:0,0:0:0:0:
41,185,13862,1,0,3:0:0:0:
41,185,14013,1,0,0:0:0:0:
30,27,14165,2,0,L|41:90,1,64,8|0,0:0|0:0,0:0:0:0:
150,233,14468,2,0,P|196:240|238:217,1,96,2|0,3:0|0:0,0:0:0:0:
256,191,14771,2,0,P|233:232|240:279,1,96,10|0,0:0|0:0,0:0:0:0:
344,334,15074,6,0,B|280:312|291:374|224:355,1,128,6|8,1:2|0:0,0:0:0:0:
33,278,15528,2,0,L|160:300,1,128,2|0,0:0|0:0,0:0:0:0:
77,371,15983,2,0,L|13:382,1,64,10|0,0:0|0:0,0:0:0:0:
2,167,16286,2,0,P|41:216|33:278,1,128,2|8,3:0|0:0,0:0:0:0:
65,88,16741,2,0,L|192:66,1,128
213,182,17195,2,0,L|149:170,1,64,8|0,0:0|1:0,0:0:0:0:
282,26,17498,6,0,L|293:89,1,64,2|0,1:0|0:0,0:0:0:0:
320,246,17801,1,10,0:0:0:0:
422,192,17953,2,0,B|358:213|369:151|302:170,1,128,2|0,0:0|0:0,0:0:0:0:
396,346,18407,2,0,L|407:282,1,64,8|0,0:0|0:0,0:0:0:0:
310,336,18710,1,0,3:0:0:0:
310,336,18862,1,0,1:0:0:0:
213,182,19013,2,0,L|224:245,1,64,8|8,0:0|0:3,0:0:0:0:
234,281,19241,1,4,0:3:0:0:
234,281,19316,1,4,0:3:0:0:
188,359,19468,1,4,3:0:0:0:
128,242,19619,2,0,L|116:305,1,64,0|0,1:0|1:0,0:0:0:0:
2,177,19922,6,0,B|96:160,1,96,4|0,1:2|0:0,0:0:0:0:
128,154,20225,1,8,0:0:0:0:
203,5,20377,1,2,0:0:0:0:
292,104,20529,2,0,L|165:82,1,128,2|8,3:0|0:0,0:0:0:0:
297,14,20983,1,2,0:0:0:0:
351,169,21135,2,0,L|414:157,1,64,2|2,3:0|0:0,0:0:0:0:
292,104,21438,1,8,0:0:0:0:
233,299,21589,2,0,P|272:250|264:189,1,128,2|2,0:0|0:0,0:0:0:0:
290,366,22044,2,0,L|353:377,1,64,8|0,0:0|1:0,0:0:0:0:
456,249,22347,6,0,P|433:290|440:337,1,96,6|0,1:2|0:0,0:0:0:0:
452,367,22650,1,10,0:0:0:0:
364,212,22801,2,0,L|300:200,1,64,0|2,0:0|3:0,0:0:0:0:
169,284,23104,2,0,L|232:272,1,64,2|10,0:0|0:0,0:0:0:0:
292,104,23407,2,0,L|165:82,1,128,2|2,0:0|0:0,0:0:0:0:
141,187,23862,2,0,L|204:175,1,64,8|0,0:0|0:0,0:0:0:0:
75,75,24165,2,0,L|63:138,1,64,2|0,3:0|0:0,0:0:0:0:
155,19,24468,2,0,L|166:82,1,64,10|0,0:0|3:0,0:0:0:0:
293,193,24771,6,0,B|356:214|345:152|412:171,1,128,2|8,1:0|0:0,0:0:0:0:
401,250,25225,1,0,0:0:0:0:
315,67,25377,2,0,L|293:194,1,128,2|8,3:0|0:0,0:0:0:0:
273,309,25832,1,2,0:0:0:0:
152,160,25983,2,0,B|168:254,1,96,2|0,3:0|0:0,0:0:0:0:
175,286,26286,1,10,0:0:0:0:
1,384,26438,2,0,P|49:345|111:353,1,128,2|2,0:0|0:0,0:0:0:0:
13,270,26892,2,0,L|24:206,1,64,8|0,0:0|1:0,0:0:0:0:
181,54,27195,6,0,P|139:76|92:69,1,96,2|0,1:0|0:0,0:0:0:0:
62,58,27498,1,10,0:0:0:0:
197,160,27650,2,0,L|175:287,1,128,2|2,0:0|1:0,0:0:0:0:
105,172,28104,1,8,0:0:0:0:
265,268,28256,1,0,1:0:0:0:
99,373,28407,2,0,L|87:309,1,64,10|0,0:0|1:0,0:0:0:0:
197,160,28710,1,10,0:0:0:0:
244,362,28862,1,8,0:0:0:0:
244,362,28938,1,8,0:0:0:0:
244,362,29013,2,0,L|310:373,1,68.0000012969971,8|8,0:0|0:3,0:0:0:0:
412,174,29316,1,4,0:3:0:0:
265,268,29468,1,0,1:0:0:0:
472,331,29619,6,0,B|426:310|376:336|407:364|356:393|311:372,1,180.000006866455,4|10,1:2|0:3,0:0:0:0:
236,193,30529,2,0,B|275:148|275:148|265:267,1,180.000006866455,10|2,0:3|1:0,0:0:0:0:
97,353,31438,1,4,0:3:0:0:
97,353,31589,1,0,1:0:0:0:
44,201,31741,2,0,L|33:260,1,60.0000022888184,10|0,0:0|0:0,0:0:0:0:
153,258,32044,5,6,1:2:0:0:
153,258,32195,2,0,L|132:139,1,120.000004577637,2|8,0:0|0:3,0:0:0:0:
271,80,32801,2,0,L|260:139,1,60.0000022888184,2|4,0:0|0:3,0:0:0:0:
340,34,33104,2,0,P|293:-1|234:4,1,120.000004577637,2|2,0:0|1:0,0:0:0:0:
185,74,33559,1,2,0:0:0:0:
335,186,33862,1,4,0:3:0:0:
335,186,34013,1,0,1:0:0:0:
271,80,34165,2,0,L|260:139,1,60.0000022888184,10|0,0:0|0:0,0:0:0:0:
458,14,34468,6,0,L|339:34,1,120.000004577637,4|2,1:2|0:0,0:0:0:0:
492,144,34922,2,0,P|445:108|386:114,1,120.000004577637,10|2,0:3|0:0,0:0:0:0:
423,190,35377,1,6,0:3:0:0:
276,371,35832,1,0,1:0:0:0:
208,275,35983,2,0,L|197:334,1,60.0000022888184,2|0,0:0|0:0,0:0:0:0:
105,227,36286,2,0,L|115:286,1,60.0000022888184,2|0,1:0|1:0,0:0:0:0:
54,353,36589,1,8,0:0:0:0:
22,119,36892,5,4,1:2:0:0:
105,227,37043,1,2,0:0:0:0:
170,110,37195,2,0,L|110:99,1,60.0000022888184,2|8,0:0|0:3,0:0:0:0:
105,227,37498,2,0,L|164:216,1,60.0000022888184,0|2,0:0|0:0,0:0:0:0:
202,89,37801,2,0,L|142:78,1,60.0000022888184,6|2,0:3|0:0,0:0:0:0:
270,239,38104,2,0,L|258:172,1,68.0000012969971,2|8,1:0|0:0,0:0:0:0:
309,45,38407,1,6,1:2:0:0:
422,196,38559,1,10,0:0:0:0:
422,196,38635,1,8,0:0:0:0:
422,196,38710,2,0,L|355:184,1,68.0000012969971,8|2,0:0|0:0,0:0:0:0:
495,282,39013,1,10,0:3:0:0:
495,282,39165,1,6,0:3:0:0:
362,349,39316,5,4,1:2:0:0:
362,349,39468,2,0,L|243:328,1,120.000004577637,2|2,0:0|1:0,0:0:0:0:
184,245,39922,2,0,L|243:234,1,60.0000022888184,8|0,0:0|0:0,0:0:0:0:
290,151,40225,2,0,L|230:140,1,60.0000022888184,2|2,1:0|1:0,0:0:0:0:
293,57,40528,2,0,L|352:46,1,60.0000022888184,2|8,3:0|0:0,0:0:0:0:
290,151,40832,1,2,0:0:0:0:
205,15,40983,2,0,L|145:4,1,60.0000022888184,2|8,1:0|0:0,0:0:0:0:
85,107,41286,2,0,L|144:96,1,60.0000022888184,2|0,0:0|1:0,0:0:0:0:
51,18,41589,1,2,0:0:0:0:
60,212,41741,5,2,1:0:0:0:
60,212,41892,2,0,P|51:154|86:107,1,120.000004577637,0|2,0:0|1:0,0:0:0:0:
193,186,42347,2,0,L|133:175,1,60.0000022888184,10|0,0:0|0:0,0:0:0:0:
237,265,42650,2,0,L|177:275,1,60.0000022888184,2|0,1:0|1:0,0:0:0:0:
283,188,42953,1,6,3:2:0:0:
301,329,43104,2,0,L|360:339,1,60.0000022888184,8|2,0:0|0:0,0:0:0:0:
507,166,43407,1,0,1:0:0:0:
345,249,43559,1,8,0:3:0:0:
507,354,43710,1,4,0:3:0:0:
421,181,43862,2,0,L|431:240,1,60.0000022888184,12|2,0:2|0:0,0:0:0:0:
512,84,44165,6,0,L|378:61,1,136.000002593994,6|10,1:2|0:0,0:0:0:0:
265,202,44619,2,0,P|306:151|296:85,1,136.000002593994,4|10,1:2|0:0,0:0:0:0:
185,31,45074,2,0,B|255:49|244:-12|313:8,1,136.000002593994,4|0,1:2|1:0,0:0:0:0:
225,127,45528,1,8,0:0:0:0:
225,127,45604,1,8,0:0:0:0:
225,127,45680,2,0,L|158:138,1,68.0000012969971,8|8,0:0|0:0,0:0:0:0:
75,63,45983,1,4,0:3:0:0:
14,201,46135,2,0,L|80:212,1,68.0000012969971,4|0,0:3|1:0,0:0:0:0:
225,127,46437,1,2,0:0:0:0:
192,359,46589,6,0,L|178:285,1,75.9999979705811,4|0,1:2|0:0,0:0:0:0:
280,258,46892,2,0,L|273:294,3,37.9999989852906,8|8|8|8,0:0|0:0|0:0|0:0,0:0:0:0:
361,332,47195,2,0,L|367:368,3,37.9999989852906,8|8|8|8,0:0|0:0|0:0|0:0,0:0:0:0:
442,271,47498,1,8,0:0:0:0:
442,271,47574,1,8,0:0:0:0:
442,271,47650,6,0,B|477:234|477:234|376:242,1,151.999995941162,8|0,0:0|1:0,0:0:0:0:
93,257,48104,1,8,0:0:0:0:
93,257,48862,6,0,B|115:221|168:221|168:221|193:263|242:258,1,176.000005371094,4|2,1:0|3:0,0:0:0:0:
253,89,49316,2,0,L|238:176,1,88.000002685547,10|0,0:0|3:0,0:0:0:0:
410,231,49619,2,0,L|394:144,1,88.000002685547,2|0,1:0|3:0,0:0:0:0:
360,18,49922,1,10,0:0:0:0:
238,176,50074,6,0,L|151:191,1,88.000002685547,0|0,3:0|1:0,0:0:0:0:
84,23,50377,2,0,L|170:38,1,88.000002685547,2|8,3:0|0:0,0:0:0:0:
35,219,50680,2,0,L|19:132,1,88.000002685547,2|0,3:0|1:0,0:0:0:0:
157,286,50983,1,0,3:0:0:0:
13,342,51135,1,10,0:0:0:0:
152,161,51286,6,0,L|238:176,1,88.000002685547,0|0,3:0|1:0,0:0:0:0:
214,367,51589,2,0,L|127:382,1,88.000002685547,2|10,3:0|0:0,0:0:0:0:
239,176,51892,1,0,3:0:0:0:
325,335,52044,2,0,B|368:355|416:328|387:300|438:272|482:294,1,176.000005371094,2|10,1:0|0:0,0:0:0:0:
345,257,52498,6,0,L|360:170,1,88.000002685547,0|0,3:0|1:0,0:0:0:0:
464,26,52801,1,2,3:0:0:0:
500,208,52953,2,0,L|484:121,1,88.000002685547,8|0,0:0|3:0,0:0:0:0:
302,31,53256,1,2,1:0:0:0:
273,184,53407,1,2,3:0:0:0:
382,61,53559,1,10,0:0:0:0:
500,208,53710,6,0,P|441:148|360:170,1,176.000005371094,6|0,1:2|3:0,0:0:0:0:
436,317,54165,2,0,L|420:230,1,88.000002685547,10|0,0:0|3:0,0:0:0:0:
283,221,54468,2,0,L|267:307,1,88.000002685547,0|0,1:0|3:0,0:0:0:0:
360,170,54771,1,10,0:0:0:0:
217,141,54922,6,0,B|276:136|276:136|310:88|310:88|368:83,1,176.000005371094,6|2,1:2|1:0,0:0:0:0:
360,170,55377,1,8,0:0:0:0:
121,9,55528,2,0,B|167:46|167:46|120:153,1,176.000005371094,6|2,1:2|1:0,0:0:0:0:
46,339,55983,1,8,0:0:0:0:
240,266,56135,6,0,B|218:302|165:302|165:302|140:260|91:265,1,176.000005371094,6|2,1:2|1:0,0:0:0:0:
196,192,56589,1,8,0:0:0:0:
94,349,56741,1,2,1:0:0:0:
34,154,56892,1,8,0:0:0:0:
165,302,57044,1,2,1:0:0:0:
185,82,57195,1,8,0:0:0:0:
29,267,57347,6,0,B|72:287|120:260|91:232|142:204|186:226,1,176.000005371094,6|2,1:2|1:0,0:0:0:0:
250,288,57725,1,0,0:0:0:0:
250,288,57801,2,0,L|293:280,1,44.0000013427735,10|2,0:0|0:0,0:0:0:0:
378,152,57953,2,0,L|334:144,1,44.0000013427735,2|0,1:0|0:0,0:0:0:0:
382,306,58104,2,0,L|426:298,3,44.0000013427735,10|8|4|2,0:0|0:3|0:3|1:0,0:0:0:0:
475,213,58407,1,10,0:0:0:0:
331,65,58559,6,0,P|393:122|475:104,1,176.000005371094,14|2,0:2|3:0,0:0:0:0:
232,125,59013,2,0,L|216:211,1,88.000002685547,8|0,0:0|3:0,0:0:0:0:
109,60,59316,2,0,L|124:146,1,88.000002685547,2|0,1:0|3:0,0:0:0:0:
144,292,59619,1,10,0:0:0:0:
232,125,59771,6,0,L|318:109,1,88.000002685547,2|0,3:0|1:0,0:0:0:0:
382,306,60074,2,0,L|295:290,1,88.000002685547,2|8,3:0|0:0,0:0:0:0:
393,160,60377,1,0,3:0:0:0:
488,345,60528,1,0,1:0:0:0:
502,188,60680,1,2,3:0:0:0:
414,384,60832,1,10,0:0:0:0:
306,201,60983,6,0,B|247:205|247:205|212:253|212:253|154:258,1,176.000005371094,2|2,3:0|3:0,0:0:0:0:
4,113,61438,1,8,0:0:0:0:
167,166,61589,1,2,3:0:0:0:
30,297,61741,2,0,L|46:210,1,88.000002685547,0|0,1:0|3:0,0:0:0:0:
78,46,62044,1,10,0:0:0:0:
242,243,62195,6,0,L|155:258,1,88.000002685547,0|0,3:0|1:0,0:0:0:0:
258,8,62498,2,0,B|304:45|304:45|257:152,1,176.000005371094,2|0,3:0|3:0,0:0:0:0:
353,300,62953,2,0,L|337:213,1,88.000002685547,0|0,1:0|3:0,0:0:0:0:
197,71,63256,1,8,0:0:0:0:
372,132,63407,1,2,3:0:0:0:
217,276,63559,5,4,1:2:0:0:
273,119,63710,1,2,3:0:0:0:
440,285,63862,2,0,L|353:300,1,88.000002685547,10|0,0:0|3:0,0:0:0:0:
157,180,64165,2,0,L|243:195,1,88.000002685547,2|0,1:0|3:0,0:0:0:0:
109,336,64468,1,14,0:0:0:0:
30,200,64619,1,0,0:0:0:0:
199,363,64771,2,0,L|183:276,1,88.000002685547,2|0,1:0|3:0,0:0:0:0:
141,76,65074,1,8,0:0:0:0:
102,251,65225,1,2,3:0:0:0:
229,63,65377,6,0,B|251:27|304:27|304:27|329:69|378:64,1,176.000005371094,6|10,1:2|0:0,0:0:0:0:
500,184,65832,2,0,B|457:164|409:191|438:219|387:247|343:225,1,176.000005371094,6|2,1:2|1:0,0:0:0:0:
194,180,66286,1,10,0:0:0:0:
366,148,66438,1,2,0:0:0:0:
276,324,66589,2,0,L|260:237,1,88.000002685547,2|2,1:0|0:0,0:0:0:0:
99,151,66892,2,0,L|83:237,1,88.000002685547,10|2,0:0|0:0,0:0:0:0:
278,36,67195,5,2,1:0:0:0:
141,76,67347,1,2,0:0:0:0:
317,173,67498,2,0,P|237:151|178:211,1,176.000005371094,10|4,0:0|3:0,0:0:0:0:
104,334,67953,2,0,L|60:326,2,44.0000013427735,8|8|8,0:0|0:0|0:0,0:0:0:0:
252,377,68256,6,0,B|316:371|316:371|355:319|355:319|417:313,1,191.999994140625,4|2,1:2|1:0,0:0:0:0:
358,123,68710,1,10,0:0:0:0:
268,290,68862,1,2,1:0:0:0:
282,83,69013,1,8,0:0:0:0:
378,229,69165,1,2,1:0:0:0:
352,38,69316,1,10,0:0:0:0:
190,212,69468,6,0,L|206:117,1,95.9999970703126,6|0,1:2|0:0,0:0:0:0:
431,74,69771,1,2,1:0:0:0:
280,260,69922,1,10,0:0:0:0:
317,43,70074,2,0,L|333:137,1,95.9999970703126,2|8,1:0|0:0,0:0:0:0:
464,240,70377,2,0,L|480:145,1,95.9999970703126,2|10,1:0|0:0,0:0:0:0:
345,361,70680,6,0,L|439:344,1,95.9999970703126,6|0,1:2|0:0,0:0:0:0:
236,186,70983,1,0,1:0:0:0:
175,345,71135,1,10,0:0:0:0:
319,225,71286,1,0,1:0:0:0:
132,123,71438,1,10,0:0:0:0:
132,123,71741,6,0,B|172:173|172:173|289:122,1,191.999994140625,14|0,0:0|0:0,0:0:0:0:
78,211,72195,2,0,L|69:258,1,47.9999985351563,2|0,1:0|0:0,0:0:0:0:
168,309,72347,2,0,L|159:261,3,47.9999985351563,10|2|2|2,0:0|0:0|1:0|0:0,0:0:0:0:
50,205,72650,1,8,0:0:0:0:
50,205,72725,1,8,0:3:0:0:
50,205,72801,2,0,L|41:252,1,47.9999985351563,4|0,0:3|1:0,0:0:0:0:
142,95,72953,2,0,L|158:0,1,95.9999970703126,8|0,0:0|0:0,0:0:0:0:
297,178,73256,6,0,B|272:138|214:138|214:138|187:184|133:179,1,191.999994140625,2|10,1:0|1:2,0:0:0:0:
33,73,73710,2,0,L|49:166,1,95.9999970703126,10|8,1:2|1:2,0:0:0:0:
159,296,74013,1,8,1:2:0:0:
142,95,74165,1,8,1:2:0:0:
39,276,74316,1,10,1:2:0:0:
250,234,74468,6,0,L|233:140,1,95.9999970703126,10|10,1:2|1:2,0:0:0:0:
164,1,74771,1,10,1:2:0:0:
126,190,74922,2,0,L|142:96,1,95.9999970703126,10|8,1:2|1:2,0:0:0:0:
293,63,75225,1,8,1:2:0:0:
126,190,75377,1,8,1:2:0:0:
164,1,75528,1,10,1:2:0:0:
270,205,75680,6,0,B|316:226|368:197|337:167|392:136|439:160,1,191.999994140625,4|8,1:2|0:0,0:0:0:0:
499,224,76059,1,8,0:0:0:0:
499,224,76135,2,0,L|507:271,1,47.9999985351563,8|8,0:0|0:0,0:0:0:0:
416,261,76286,1,10,0:0:0:0:
416,261,76362,1,8,0:0:0:0:
416,261,76438,2,0,L|407:308,1,47.9999985351563,8|8,0:0|0:0,0:0:0:0:
353,373,76589,6,0,L|305:381,3,47.9999985351563,10|8|10|8,0:0|0:0|0:0|0:0,0:0:0:0:
240,324,76892,2,0,L|192:315,3,47.9999985351563,10|8|8|8,0:0|0:0|0:0|0:0,0:0:0:0:
93,301,77195,2,0,L|84:253,3,47.9999985351563,10|10|8|8,0:0|0:0|0:0|0:0,0:0:0:0:
0,181,77498,2,0,L|8:133,3,47.9999985351563,10|8|10|8,0:0|0:0|0:0|0:0,0:0:0:0:
139,40,77801,1,10,0:0:0:0:
139,40,77877,1,10,0:0:0:0:
139,40,77953,2,0,L|147:87,1,47.9999985351563,10|10,0:0|0:0,0:0:0:0:
224,217,78104,6,0,L|239:130,1,88.000002685547,6|2,1:2|0:0,0:0:0:0:
262,18,78407,1,10,0:0:0:0:
428,179,78559,2,0,P|368:120|390:39,1,176.000005371094,4|8,1:2|0:0,0:0:0:0:
311,232,79013,2,0,L|224:216,1,88.000002685547,4|0,1:2|0:0,0:0:0:0:
335,129,79316,1,8,0:0:0:0:
359,335,79468,2,0,P|440:356|498:296,1,176.000005371094,4|0,1:2|1:0,0:0:0:0:
426,232,79922,1,8,0:0:0:0:
426,232,79998,1,8,0:3:0:0:
426,232,80074,2,0,L|418:275,1,44.0000013427735,4|0,0:3|1:0,0:0:0:0:
281,379,80225,2,0,L|194:363,1,88.000002685547,12|0,0:2|0:0,0:0:0:0:
40,327,80528,6,0,B|45:268|45:268|92:233|92:233|97:175,1,176.000005371094,6|10,1:2|0:0,0:0:0:0:
9,50,80983,2,0,B|46:96|46:96|153:49,1,176.000005371094,2|10,1:0|0:0,0:0:0:0:
331,133,81438,2,0,B|309:97|256:97|256:97|231:139|182:134,1,176.000005371094,2|8,1:0|0:0,0:0:0:0:
264,292,81892,2,0,L|279:205,1,88.000002685547,0|0,1:0|3:0,0:0:0:0:
178,361,82195,2,0,L|162:274,1,88.000002685547,8|2,0:0|3:0,0:0:0:0:
361,292,82498,1,2,1:0:0:0:
185,169,82650,1,8,0:0:0:0:
269,326,82801,1,2,0:0:0:0:
356,133,82953,6,0,B|399:113|447:140|418:168|469:196|513:174,1,176.000005371094,4|10,1:2|0:0,0:0:0:0:
297,75,83407,2,0,P|275:156|335:214,1,176.000005371094,2|10,1:0|0:0,0:0:0:0:
198,83,83862,2,0,B|139:88|139:88|104:135|104:135|46:140,1,176.000005371094,2|8,1:0|0:0,0:0:0:0:
170,256,84316,2,0,L|185:169,1,88.000002685547,2|2,1:0|3:0,0:0:0:0:
32,227,84619,2,0,L|47:313,1,88.000002685547,10|8,0:0|0:3,0:0:0:0:
60,361,84847,1,4,0:3:0:0:
60,361,84922,2,0,L|103:368,1,44.0000013427735,6|0,0:3|1:0,0:0:0:0:
179,203,85074,1,14,0:0:0:0:
240,363,85225,1,2,0:0:0:0:
409,215,85377,6,0,B|363:252|363:252|409:359,1,176.000005371094,4|10,1:2|0:0,0:0:0:0:
335,168,85832,2,0,B|313:132|260:132|260:132|235:174|186:169,1,176.000005371094,6|10,1:2|0:0,0:0:0:0:
147,34,86286,2,0,B|167:77|140:125|112:96|84:147|106:191,1,176.000005371094,6|10,1:2|0:0,0:0:0:0:
146,339,86741,2,0,L|161:252,1,88.000002685547,4|0,1:2|0:0,0:0:0:0:
246,45,87044,1,10,0:0:0:0:
246,45,87119,1,8,0:0:0:0:
246,45,87195,2,0,L|261:131,1,88.000002685547,10|8,0:0|3:0,0:0:0:0:
295,266,87498,1,4,3:0:0:0:
364,96,87650,6,0,P|422:88|469:123,1,120.000004577637,4|0,1:2|3:0,0:0:0:0:
412,230,88104,2,0,L|401:170,1,60.0000022888184,8|0,0:0|3:0,0:0:0:0:
495,267,88407,2,0,L|505:206,1,60.0000022888184,0|0,1:0|3:0,0:0:0:0:
432,384,88710,2,0,L|426:354,3,30.0000011444092,0|4|4|8,1:0|0:3|0:3|0:3,0:0:0:0:
420,324,89013,6,0,L|301:303,1,120.000004577637,0|0,1:0|1:0,0:0:0:0:
177,354,89468,2,0,L|237:343,1,60.0000022888184,8|0,0:0|3:0,0:0:0:0:
265,229,89771,1,8,0:0:0:0:
184,217,89922,2,0,L|189:247,3,30.0000011444092,0|4|4|8,1:0|0:3|0:3|0:3,0:0:0:0:
196,276,90225,6,0,P|242:310|301:303,1,120.000004577637,0|0,1:0|1:0,0:0:0:0:
276,170,90680,2,0,L|265:231,1,60.0000022888184,8|0,0:0|3:0,0:0:0:0:
168,122,90983,2,0,L|179:182,1,60.0000022888184,0|0,1:0|1:0,0:0:0:0:
196,276,91286,5,10,0:0:0:0:
251,77,91438,2,0,L|369:97,1,120.000004577637,8|2,0:0|1:0,0:0:0:0:
489,247,91892,1,10,0:0:0:0:
304,181,92044,1,10,1:2:0:0:
501,110,92195,1,10,1:2:0:0:
386,319,92347,1,10,0:0:0:0:
251,77,92498,1,10,0:2:0:0:
