osu file format v14

[General]
AudioFilename: audio.ogg
AudioLeadIn: 0
PreviewTime: 48799
Countdown: 0
SampleSet: Soft
StackLeniency: 0.7
Mode: 0
LetterboxInBreaks: 0
WidescreenStoryboard: 1

[Editor]
DistanceSpacing: 1.4
BeatDivisor: 4
GridSize: 4
TimelineZoom: 1

[Metadata]
Title:Kimi no Tonari de (TV Size)
TitleUnicode:キミのとなりで (TV Size)
Artist:Kito Akari
ArtistUnicode:鬼頭明里
Creator:crewfantasy
Version:Hard
Source:安達としまむら
Tags:anime japanese jpop j-pop pop adachi to and shimamura adashima ending ed short 3rd third single シングル yuri kitou kitō theneg neg kirishima- torriru lesbian
BeatmapID:2948346
BeatmapSetID:1424733

[Difficulty]
HPDrainRate:4
CircleSize:3.5
OverallDifficulty:7
ApproachRate:8
SliderMultiplier:1.5
SliderTickRate:1

[Events]
//Background and Video events
0,0,"bg.png",0,0
//Break Periods
//Storyboard Layer 0 (Background)
//Storyboard Layer 1 (Fail)
//Storyboard Layer 2 (Pass)
//Storyboard Layer 3 (Foreground)
//Storyboard Layer 4 (Overlay)
//Storyboard Sound Samples

[TimingPoints]
529,303.030303030303,4,2,1,40,1,0
529,-142.857142857143,4,2,1,40,0,0
10225,-125,4,2,1,50,0,0
28407,-111.111111111111,4,2,1,50,0,0
29619,-125,4,2,1,50,0,0
39316,-117.647058823529,4,2,1,60,0,0
44165,-111.111111111111,4,2,1,70,0,0
46589,-105.263157894737,4,2,1,70,0,0
46892,-105.263157894737,4,2,1,50,0,0
47044,-105.263157894737,4,2,1,55,0,0
47271,-105.263157894737,4,2,1,60,0,0
47422,-105.263157894737,4,2,1,65,0,0
47650,-105.263157894737,4,2,1,70,0,0
48862,-95.2380952380952,4,2,1,80,0,1
68256,-90.9090909090909,4,2,1,80,0,1
73256,-100,4,2,1,80,0,1
73559,-100,4,2,1,60,0,1
73862,-100,4,2,1,63,0,1
74165,-100,4,2,1,66,0,1
74468,-100,4,2,1,69,0,1
74771,-100,4,2,1,72,0,1
75074,-100,4,2,1,75,0,1
75377,-100,4,2,1,78,0,1
75680,-90.9090909090909,4,2,1,80,0,1
75983,-105.263157894737,4,2,1,50,0,1
76286,-105.263157894737,4,2,1,54,0,1
76589,-105.263157894737,4,2,1,57,0,1
76892,-95.2380952380952,4,2,1,60,0,1
77195,-95.2380952380952,4,2,1,63,0,1
77498,-95.2380952380952,4,2,1,66,0,1
77801,-95.2380952380952,4,2,1,70,0,1
78104,-90.9090909090909,4,2,1,70,0,1
80528,-100,4,2,1,60,0,1
87650,-133.333333333333,4,2,1,60,0,0

[Colours]
Combo1 : 228,215,41
Combo2 : 45,242,253
Combo3 : 239,52,103
Combo4 : 73,67,203
Combo5 : 237,107,218

[HitObjects]
144,117,529,6,0,L|138:64,1,52.4999983978272,6|0,1:2|0:0,0:0:0:0:
47,75,832,1,2,0:0:0:0:
47,75,983,2,0,L|62:203,1,104.999996795654,2|2,0:0|0:0,0:0:0:0:
76,368,1589,6,0,B|140:348|120:392|188:376,1,104.999996795654,2|2,0:0|0:0,0:0:0:0:
242,308,2044,2,0,P|268:301|294:306,1,52.4999983978272,2|2,0:0|0:0,0:0:0:0:
355,378,2347,1,0,0:0:0:0:
412,304,2498,2,0,L|444:300,2,26.2499991989136,2|2|2,0:0|0:0|0:0,0:0:0:0:
350,238,2801,1,0,3:0:0:0:
350,238,2953,6,0,L|365:129,1,104.999996795654,2|2,0:0|0:0,0:0:0:0:
217,252,3559,2,0,L|204:356,1,104.999996795654,2|2,0:0|0:0,0:0:0:0:
168,170,4165,6,0,P|203:153|242:159,1,78.7499975967408,2|2,0:0|0:0,0:0:0:0:
280,186,4468,2,0,P|306:180|330:169,1,52.4999983978272,2|2,0:0|0:0,0:0:0:0:
384,90,4771,1,2,0:0:0:0:
432,169,4922,2,0,L|459:172,4,26.2499991989136,2|2|2|2|2,0:0|0:0|3:0|0:0|0:0,0:0:0:0:
380,251,5377,6,0,L|387:303,1,52.4999983978272,6|0,1:2|0:0,0:0:0:0:
296,315,5680,1,2,0:0:0:0:
296,315,5831,2,0,L|283:210,1,104.999996795654,2|2,0:0|0:0,0:0:0:0:
170,55,6438,6,0,B|126:33|126:33|75:55,1,104.999996795654,2|2,0:0|0:0,0:0:0:0:
24,135,6892,2,0,P|20:160|26:186,1,52.4999983978272,2|2,0:0|0:0,0:0:0:0:
92,255,7195,1,0,0:0:0:0:
160,191,7347,2,0,L|157:159,2,26.2499991989136,2|2|2,0:0|0:0|0:0,0:0:0:0:
226,265,7649,1,0,3:0:0:0:
226,265,7801,6,0,L|240:378,1,104.999996795654,2|10,0:0|0:0,0:0:0:0:
422,324,8407,2,0,L|435:219,1,104.999996795654,2|10,0:0|0:0,0:0:0:0:
356,47,9013,6,0,P|308:28|261:49,1,104.999996795654,2|10,0:0|0:0,0:0:0:0:
214,133,9468,1,10,0:0:0:0:
214,133,9544,1,8,0:0:0:0:
214,133,9619,2,0,L|266:126,1,52.4999983978272,10|10,0:0|0:3,0:0:0:0:
284,218,9922,2,0,L|231:211,1,52.4999983978272,4|4,0:3|0:3,0:0:0:0:
201,314,10225,5,6,1:2:0:0:
373,344,10528,2,0,L|433:351,1,60,8|0,0:0|0:0,0:0:0:0:
484,269,10832,1,2,3:0:0:0:
452,184,10983,1,2,0:0:0:0:
452,184,11135,2,0,L|459:124,1,60,10|0,0:0|0:0,0:0:0:0:
400,48,11438,6,0,B|349:20|349:20|289:34,1,120,2|10,3:0|0:0,0:0:0:0:
196,8,11892,2,0,L|213:136,1,120,0|2,0:0|0:0,0:0:0:0:
252,216,12347,1,8,0:0:0:0:
224,312,12498,1,2,1:0:0:0:
224,312,12650,6,0,B|152:292|178:337|107:320,1,120,2|10,1:0|0:0,0:0:0:0:
68,232,13104,2,0,P|128:232|168:184,1,120
200,100,13559,1,8,0:0:0:0:
388,60,13862,6,0,L|378:135,1,60,0|0,3:0|0:0,0:0:0:0:
448,188,14165,2,0,L|457:263,1,60,8|0,0:0|0:0,0:0:0:0:
424,340,14468,1,2,3:0:0:0:
272,224,14771,2,0,P|242:229|215:241,1,60,10|0,0:0|3:0,0:0:0:0:
132,292,15074,6,0,P|121:228|95:170,1,120,6|8,1:2|0:0,0:0:0:0:
40,104,15528,2,0,P|81:63|139:66,1,120,2|0,0:0|0:0,0:0:0:0:
220,120,15983,1,10,0:0:0:0:
392,32,16286,6,0,B|424:68|424:68|400:140,1,120,2|8,3:0|0:0,0:0:0:0:
324,192,16741,2,0,L|339:319,1,120
408,376,17195,1,8,0:0:0:0:
484,316,17347,1,0,1:0:0:0:
484,316,17498,6,0,B|489:270|489:270|478:248|478:248|483:200,1,120,2|10,1:0|0:0,0:0:0:0:
460,104,17953,2,0,B|396:124|404:80|340:100,1,120,2|0,0:0|0:0,0:0:0:0:
320,192,18407,2,0,P|307:219|302:248,1,60,8|0,0:0|0:0,0:0:0:0:
220,296,18710,6,0,P|207:235|183:180,1,120,0|8,3:0|0:0,0:0:0:0:
108,236,19165,1,8,0:3:0:0:
108,236,19240,1,4,0:3:0:0:
108,236,19316,2,0,P|80:223|51:218,1,60,4|4,0:3|3:0,0:0:0:0:
24,124,19619,2,0,P|51:111|80:106,1,60,0|0,1:0|1:0,0:0:0:0:
148,36,19922,6,0,P|212:32|248:76,1,120,4|8,1:2|0:0,0:0:0:0:
256,172,20377,1,2,0:0:0:0:
256,172,20529,2,0,P|285:166|312:153,1,60,2|0,3:0|0:0,0:0:0:0:
380,84,20832,1,8,0:0:0:0:
428,168,20983,1,2,0:0:0:0:
428,168,21135,6,0,L|412:295,1,120,2|8,3:0|0:0,0:0:0:0:
432,380,21589,2,0,L|372:372,1,60,2|2,0:0|3:0,0:0:0:0:
296,312,21892,2,0,L|236:319,1,60,2|8,0:0|0:0,0:0:0:0:
156,368,22195,1,0,1:0:0:0:
156,368,22347,6,0,B|130:307|130:307|156:252,1,120,6|10,1:2|0:0,0:0:0:0:
124,164,22801,2,0,P|183:144|228:182,1,120,0|2,0:0|0:0,0:0:0:0:
284,260,23256,1,10,0:0:0:0:
284,260,23407,6,0,B|330:255|330:255|352:266|352:266|400:261,1,120,2|2,0:0|0:0,0:0:0:0:
455,181,23862,1,8,0:0:0:0:
314,49,24165,2,0,P|286:61|257:66,1,60,2|0,3:0|0:0,0:0:0:0:
216,152,24468,2,0,P|186:146|159:134,1,60,10|0,0:0|3:0,0:0:0:0:
76,88,24771,6,0,L|61:207,1,120,2|8,1:0|0:0,0:0:0:0:
144,264,25225,1,0,0:0:0:0:
144,264,25377,2,0,L|159:383,1,120,2|8,3:0|0:0,0:0:0:0:
252,348,25832,1,2,0:0:0:0:
252,348,25983,6,0,B|324:324|296:384|380:360,1,120,2|10,3:0|0:0,0:0:0:0:
424,284,26438,2,0,P|430:254|442:227,1,60,2|2,0:0|3:0,0:0:0:0:
376,156,26741,2,0,P|370:126|358:99,1,60,2|8,0:0|0:0,0:0:0:0:
400,16,27044,1,0,1:0:0:0:
400,16,27195,6,0,B|364:-8|364:-8|291:16,1,120,2|10,1:0|0:0,0:0:0:0:
248,104,27650,2,0,L|188:96,1,60,2|0,0:0|3:0,0:0:0:0:
132,17,27953,1,2,1:0:0:0:
75,94,28104,2,0,L|83:154,1,60,8|0,0:0|1:0,0:0:0:0:
133,241,28407,6,0,L|123:315,1,67.4999979400635,10|0,0:0|1:0,0:0:0:0:
192,383,28710,1,10,0:0:0:0:
266,313,28862,1,8,0:0:0:0:
266,313,28938,1,8,0:0:0:0:
266,313,29013,2,0,P|299:319|329:333,1,67.4999979400635,8|8,0:0|0:3,0:0:0:0:
421,377,29316,2,0,P|451:363|484:356,1,67.4999979400635,4|0,0:3|1:0,0:0:0:0:
496,248,29619,6,0,P|480:182|370:156,1,180,4|10,1:2|0:3,0:0:0:0:
240,336,30529,2,0,P|305:355|382:272,1,180,10|2,0:3|1:0,0:0:0:0:
272,76,31438,2,0,L|264:136,1,60,4|0,0:3|1:0,0:0:0:0:
252,220,31741,1,10,0:0:0:0:
112,148,32044,6,0,L|135:336,1,180,6|8,1:2|0:3,0:0:0:0:
364,372,32953,2,0,L|385:193,1,180,4|2,0:3|1:0,0:0:0:0:
204,44,33862,2,0,L|211:104,1,60,4|0,0:3|1:0,0:0:0:0:
224,193,34165,1,10,0:0:0:0:
332,80,34468,6,0,P|368:80|444:152,1,120,4|2,1:2|0:0,0:0:0:0:
504,164,34922,2,0,P|468:164|392:236,1,120,10|2,0:3|0:0,0:0:0:0:
372,284,35377,2,0,B|301:275|301:275|265:287|265:287|190:278,1,180,6|0,0:3|1:0,0:0:0:0:
72,80,36286,2,0,L|132:87,1,60,2|0,1:0|1:0,0:0:0:0:
208,96,36589,1,8,0:0:0:0:
284,232,36892,6,0,B|249:135|325:163|293:52,2,180,4|8|6,1:2|0:3|0:3,0:0:0:0:
444,316,38104,6,0,P|450:286|462:259,1,60,2|8,1:0|0:0,0:0:0:0:
412,184,38407,1,6,1:2:0:0:
344,240,38559,1,10,0:0:0:0:
344,240,38635,1,8,0:0:0:0:
344,240,38710,2,0,L|264:230,1,60,8|2,0:0|0:0,0:0:0:0:
232,308,39013,2,0,L|172:315,1,60,10|6,0:3|0:3,0:0:0:0:
84,276,39316,6,0,P|48:220|64:152,1,127.50000243187,4|0,1:2|0:0,0:0:0:0:
152,132,39771,1,2,1:0:0:0:
152,132,39922,2,0,L|143:199,1,63.7500012159348,8|0,0:0|0:0,0:0:0:0:
236,164,40225,2,0,L|228:227,1,63.7500012159348,2|2,1:0|1:0,0:0:0:0:
300,296,40528,1,2,3:0:0:0:
300,296,40680,2,0,B|336:324|336:324|412:296,1,127.50000243187,8|2,0:0|1:0,0:0:0:0:
444,204,41135,2,0,L|376:212,1,63.7500012159348,8|2,0:0|0:0,0:0:0:0:
412,120,41438,1,0,1:0:0:0:
240,36,41741,6,0,B|171:11|191:64|113:42,1,127.50000243187,2|2,1:0|0:0,0:0:0:0:
60,120,42195,1,2,1:0:0:0:
60,120,42347,2,0,P|72:149|78:180,1,63.7500012159348,10|0,0:0|0:0,0:0:0:0:
152,244,42650,2,0,P|139:273|133:304,1,63.7500012159348,2|0,1:0|1:0,0:0:0:0:
196,384,42953,1,6,3:2:0:0:
196,384,43104,2,0,L|271:374,1,63.7500012159348,8|2,0:0|0:0,0:0:0:0:
292,288,43407,1,0,1:0:0:0:
292,288,43558,2,0,L|228:295,1,63.7500012159348,8|4,0:3|0:3,0:0:0:0:
256,204,43862,1,12,0:2:0:0:
368,372,44165,6,0,L|386:221,1,134.999995880127,6|10,1:2|0:0,0:0:0:0:
481,263,44619,2,0,L|462:112,1,134.999995880127,4|10,1:2|0:0,0:0:0:0:
503,35,45074,2,0,B|450:28|450:28|423:37|423:37|368:30,1,134.999995880127,4|0,1:2|1:0,0:0:0:0:
310,113,45528,1,8,0:0:0:0:
310,113,45604,1,8,0:0:0:0:
310,113,45680,1,8,0:0:0:0:
351,211,45832,1,8,0:0:0:0:
351,211,45983,2,0,P|337:241|330:274,1,67.4999979400635,4|4,0:3|0:3,0:0:0:0:
302,372,46286,1,0,1:0:0:0:
207,163,46589,5,4,1:2:0:0:
112,372,46892,2,0,L|118:316,3,35.6249990487099,8|8|8|8,0:0|0:0|0:0|0:0,0:0:0:0:
72,296,47195,1,8,0:0:0:0:
80,284,47271,1,8,0:0:0:0:
87,271,47347,2,0,L|80:215,3,35.6249990487099,8|8|8|8,0:0|0:0|0:0|0:0,0:0:0:0:
75,181,47650,6,0,B|146:197|146:197|207:164,1,142.49999619484,8|0,0:0|1:0,0:0:0:0:
300,96,48104,1,8,0:0:0:0:
67,64,48862,6,0,B|151:32|136:103|217:73,1,157.499995193482,4|2,1:0|3:0,0:0:0:0:
300,0,49316,2,0,L|310:79,1,78.7499975967408,10|0,0:0|3:0,0:0:0:0:
420,64,49619,2,0,L|410:143,1,78.7499975967408,2|0,1:0|3:0,0:0:0:0:
348,236,49922,1,10,0:0:0:0:
348,236,50074,6,0,P|308:249|264:242,1,78.7499975967408,0|0,3:0|1:0,0:0:0:0:
212,152,50377,2,0,P|172:138|128:145,1,78.7499975967408,2|8,3:0|0:0,0:0:0:0:
52,212,50680,1,2,3:0:0:0:
52,212,50832,2,0,L|62:291,1,78.7499975967408,0|0,1:0|3:0,0:0:0:0:
132,380,51135,1,10,0:0:0:0:
132,380,51286,6,0,L|211:370,1,78.7499975967408,0|0,3:0|1:0,0:0:0:0:
200,260,51589,2,0,L|279:270,1,78.7499975967408,2|10,3:0|0:0,0:0:0:0:
367,343,51892,1,0,3:0:0:0:
367,343,52044,2,0,P|388:311|396:273,1,78.7499975967408,2|0,1:0|3:0,0:0:0:0:
503,240,52347,1,10,0:0:0:0:
503,240,52499,6,0,P|485:204|456:179,1,78.7499975967408,0|0,3:0|1:0,0:0:0:0:
420,76,52801,2,0,B|356:68|356:68|328:85|328:85|260:77,1,157.499995193482,2|0,3:0|3:0,0:0:0:0:
180,148,53256,1,2,1:0:0:0:
184,152,53407,1,2,3:0:0:0:
124,60,53559,1,10,0:0:0:0:
40,132,53710,6,0,B|27:151|3:163|3:163|35:267,1,157.499995193482,6|0,1:2|3:0,0:0:0:0:
36,376,54165,2,0,B|112:348|112:348|183:374,1,157.499995193482,10|0,0:0|1:0,0:0:0:0:
340,224,54771,1,10,0:0:0:0:
448,244,54922,6,0,L|467:85,1,157.499995193482,6|2,1:2|1:0,0:0:0:0:
380,16,55377,1,8,0:0:0:0:
356,124,55528,6,0,B|256:96|256:96|208:122,1,157.499995193482,6|2,1:2|1:0,0:0:0:0:
116,184,55983,1,8,0:0:0:0:
204,252,56135,6,0,B|288:228|272:284|356:264,1,157.499995193482,6|2,1:2|1:0,0:0:0:0:
436,180,56589,2,0,P|449:143|446:104,1,78.7499975967408,8|2,0:0|1:0,0:0:0:0:
372,28,56892,1,8,0:0:0:0:
372,28,57044,1,2,1:0:0:0:
284,92,57195,1,8,0:0:0:0:
208,12,57347,6,0,L|45:31,1,157.499995193482,6|2,1:2|1:0,0:0:0:0:
4,128,57801,2,0,L|11:191,3,39.3749987983704,10|2|2|0,0:0|0:0|1:0|0:0,0:0:0:0:
44,208,58104,1,10,0:0:0:0:
52,220,58180,1,8,0:3:0:0:
60,232,58256,2,0,L|54:279,3,39.3749987983704,4|2|10|0,0:3|1:0|0:0|0:0,0:0:0:0:
48,324,58559,6,0,L|131:334,1,78.7499975967408,14|0,0:2|0:0,0:0:0:0:
204,256,58862,2,0,L|282:245,1,78.7499975967408,2|8,3:0|0:0,0:0:0:0:
232,152,59165,1,0,3:0:0:0:
232,152,59316,2,0,B|218:55|218:55|252:37|265:17,1,157.499995193482,2|10,1:0|0:0,0:0:0:0:
364,68,59771,6,0,P|376:104|374:143,1,78.7499975967408,2|0,3:0|1:0,0:0:0:0:
300,224,60074,2,0,P|287:260|289:299,1,78.7499975967408,2|8,3:0|0:0,0:0:0:0:
404,320,60377,1,0,3:0:0:0:
404,320,60528,2,0,P|416:283|414:244,2,78.7499975967408,0|2|10,1:0|3:0|0:0,0:0:0:0:
312,380,60983,6,0,L|220:368,1,78.7499975967408,2|0,3:0|1:0,0:0:0:0:
168,288,61286,1,2,3:0:0:0:
168,288,61438,2,0,L|259:276,1,78.7499975967408,8|2,0:0|3:0,0:0:0:0:
332,208,61740,2,0,B|373:202|373:202|406:218,2,78.7499975967408,0|0|10,1:0|3:0|0:0,0:0:0:0:
228,164,62195,6,0,L|238:85,1,78.7499975967408,0|0,3:0|1:0,0:0:0:0:
320,8,62498,2,0,L|332:99,1,78.7499975967408,2|10,3:0|0:0,0:0:0:0:
400,172,62801,2,0,P|439:174|476:162,1,78.7499975967408,0|0,3:0|1:0,0:0:0:0:
508,56,63104,2,0,P|470:43|431:46,1,78.7499975967408,0|8,3:0|0:0,0:0:0:0:
330,86,63407,5,2,3:0:0:0:
330,86,63559,2,0,L|239:98,1,78.7499975967408,4|2,1:2|3:0,0:0:0:0:
176,16,63862,2,0,L|85:4,1,78.7499975967408,10|0,0:0|3:0,0:0:0:0:
24,88,64165,2,0,P|11:126|14:165,1,78.7499975967408,2|0,1:0|3:0,0:0:0:0:
68,260,64468,1,14,0:0:0:0:
148,184,64619,1,0,0:0:0:0:
148,184,64771,6,0,B|231:157|214:223|308:190,1,157.499995193482,2|8,1:0|0:0,0:0:0:0:
372,276,65225,1,2,3:0:0:0:
448,196,65377,2,0,B|472:94|472:94|449:47,1,157.499995193482,6|10,1:2|0:0,0:0:0:0:
340,76,65832,6,0,B|276:68|276:68|245:81|245:81|183:73,1,157.499995193482,6|2,1:2|1:0,0:0:0:0:
89,20,66286,2,0,L|98:99,1,78.7499975967408,10|2,0:0|0:0,0:0:0:0:
20,176,66589,2,0,L|0:338,1,157.499995193482,2|10,1:0|0:0,0:0:0:0:
216,384,67195,6,0,L|295:374,1,78.7499975967408,2|2,1:0|0:0,0:0:0:0:
368,292,67498,2,0,L|446:301,1,78.7499975967408,10|2,0:0|0:0,0:0:0:0:
512,212,67801,1,4,3:0:0:0:
452,120,67953,2,0,L|457:72,2,39.3749987983704,8|8|8,0:0|0:0|0:0,0:0:0:0:
360,192,68256,6,0,P|296:172|184:156,1,165.000005035401,4|2,1:2|1:0,0:0:0:0:
108,224,68710,1,10,0:0:0:0:
108,224,68862,1,2,1:0:0:0:
28,140,69013,2,0,P|22:99|10:59,1,82.5000025177003,8|2,0:0|1:0,0:0:0:0:
112,4,69316,1,10,0:0:0:0:
200,76,69468,6,0,B|296:52|264:120|368:100,1,165.000005035401,6|2,1:2|1:0,0:0:0:0:
464,52,69922,1,10,0:0:0:0:
464,52,70074,1,2,1:0:0:0:
508,160,70225,2,0,P|496:199|490:240,1,82.5000025177003,8|2,0:0|1:0,0:0:0:0:
396,308,70528,1,10,0:0:0:0:
344,204,70680,6,0,P|277:155|202:179,1,165.000005035401,6|0,1:2|1:0,0:0:0:0:
152,284,71135,1,10,0:0:0:0:
152,284,71286,1,0,1:0:0:0:
264,248,71438,1,10,0:0:0:0:
40,184,71741,6,0,B|48:102|60:24|60:24|108:0|148:32,1,247.500007553101,14|2,0:0|1:0,0:0:0:0:
228,104,72347,2,0,P|248:108|267:114,3,41.2500012588501,10|2|2|2,0:0|0:0|1:0|0:0,0:0:0:0:
320,88,72650,2,0,P|340:84|359:78,3,41.2500012588501,8|8|4|0,0:0|0:3|0:3|1:0,0:0:0:0:
412,104,72953,1,8,0:0:0:0:
300,284,73256,5,2,1:0:0:0:
508,280,73559,6,0,L|497:198,1,75,10|10,1:2|1:2,0:0:0:0:
392,220,73862,2,0,L|401:294,1,75,10|10,1:2|1:2,0:0:0:0:
300,284,74165,1,8,1:2:0:0:
300,284,74316,1,10,1:2:0:0:
260,188,74468,6,0,P|218:185|177:176,1,75,10|10,1:2|1:2,0:0:0:0:
153,76,74771,2,0,P|190:77|227:84,1,75,10|10,1:2|1:2,0:0:0:0:
309,18,75074,1,8,1:2:0:0:
309,18,75225,1,8,1:2:0:0:
373,108,75377,1,8,1:2:0:0:
373,108,75528,1,10,1:2:0:0:
456,28,75680,6,0,B|471:46|492:64|492:64|478:96|468:132,1,123.75000377655,4|0,1:2|0:0,0:0:0:0:
440,172,75983,2,0,L|444:211,3,35.6249990487099,8|8|8|8,0:0|0:0|0:0|0:0,0:0:0:0:
464,252,76286,2,0,L|459:291,3,35.6249990487099,10|8|8|8,0:0|0:0|0:0|0:0,0:0:0:0:
440,332,76589,2,0,L|404:336,3,35.6249990487099,10|8|10|8,0:0|0:0|0:0|0:0,0:0:0:0:
360,304,76892,6,0,L|348:399,1,78.7499975967408,10|8,0:0|0:0,0:0:0:0:
268,308,77195,2,0,L|258:229,1,78.7499975967408,10|8,0:0|0:0,0:0:0:0:
152,188,77498,1,10,0:0:0:0:
152,188,77650,1,10,0:0:0:0:
176,304,77801,2,0,L|171:343,2,39.3749987983704,10|10|10,0:0|0:0|0:0,0:0:0:0:
248,144,78104,6,0,B|336:112|316:184|416:152,1,165.000005035401,6|10,1:2|0:0,0:0:0:0:
508,80,78559,2,0,P|456:21|380:43,1,165.000005035401,4|8,1:2|0:0,0:0:0:0:
332,168,79013,6,0,L|352:338,1,165.000005035401,4|8,1:2|0:0,0:0:0:0:
244,256,79468,2,0,B|179:248|179:248|147:264|147:264|82:256,1,165.000005035401,4|0,1:2|1:0,0:0:0:0:
12,148,79922,6,0,L|18:96,3,41.2500012588501,8|8|4|0,0:0|0:3|0:3|1:0,0:0:0:0:
24,64,80225,2,0,B|104:41|104:41|137:67,1,123.75000377655,12|0,0:2|0:0,0:0:0:0:
176,148,80528,6,0,P|216:116|208:16,1,150,6|10,1:2|0:0,0:0:0:0:
264,116,80983,2,0,B|344:144|332:84|416:108,1,150,2|10,1:0|0:0,0:0:0:0:
492,172,81438,2,0,L|472:326,1,150,2|8,1:0|0:0,0:0:0:0:
376,360,81892,2,0,L|394:211,1,150,0|8,1:0|0:0,0:0:0:0:
408,106,82347,2,0,P|371:97|335:105,1,75,2|2,3:0|1:0,0:0:0:0:
248,164,82650,1,8,0:0:0:0:
248,164,82801,1,2,0:0:0:0:
200,72,82953,6,0,B|80:86|80:86|109:54,1,150,4|10,1:2|0:0,0:0:0:0:
12,8,83407,2,0,B|39:82|39:82|23:150,1,150,2|10,1:0|0:0,0:0:0:0:
16,256,83862,2,0,P|84:232|143:274,1,150,2|8,1:0|0:0,0:0:0:0:
200,360,84316,2,0,P|131:383|72:341,1,150,2|10,1:0|0:0,0:0:0:0:
120,252,84771,5,8,0:3:0:0:
120,252,84847,1,4,0:3:0:0:
120,252,84922,1,6,0:3:0:0:
156,152,85074,2,0,B|222:131|222:131|259:153,1,112.5,14|0,0:0|0:0,0:0:0:0:
284,200,85377,6,0,L|434:181,1,150,4|10,1:2|0:0,0:0:0:0:
448,76,85832,2,0,P|418:11|347:14,1,150,6|10,1:2|0:0,0:0:0:0:
280,92,86286,2,0,B|220:84|220:84|190:99|190:99|130:92,1,150,6|10,1:2|0:0,0:0:0:0:
72,8,86741,1,4,1:2:0:0:
20,216,87044,5,10,0:0:0:0:
20,216,87119,1,8,0:0:0:0:
20,216,87195,2,0,L|29:291,1,75,10|8,0:0|3:0,0:0:0:0:
96,371,87498,1,4,3:0:0:0:
162,281,87650,5,4,1:2:0:0:
256,192,87801,12,10,92498,0:2:0:0:
