osu file format v14

[General]
AudioFilename: audio.ogg
AudioLeadIn: 0
PreviewTime: 48799
Countdown: 0
SampleSet: Soft
StackLeniency: 0.7
Mode: 0
LetterboxInBreaks: 0
WidescreenStoryboard: 1

[Editor]
DistanceSpacing: 1
BeatDivisor: 4
GridSize: 4
TimelineZoom: 2.3

[Metadata]
Title:Kimi no Tonari de (TV Size)
TitleUnicode:キミのとなりで (TV Size)
Artist:Kito Akari
ArtistUnicode:鬼頭明里
Creator:crewfantasy
Version:Emotions
Source:安達としまむら
Tags:anime japanese jpop j-pop pop adachi to and shimamura adashima ending ed short 3rd third single シングル yuri kitou kitō theneg neg kirishima- torriru lesbian
BeatmapID:2933991
BeatmapSetID:1424733

[Difficulty]
HPDrainRate:5
CircleSize:3.8
OverallDifficulty:9
ApproachRate:9.2
SliderMultiplier:1.8
SliderTickRate:1

[Events]
//Background and Video events
0,0,"bg.png",0,0
//Break Periods
//Storyboard Layer 0 (Background)
//Storyboard Layer 1 (Fail)
//Storyboard Layer 2 (Pass)
//Storyboard Layer 3 (Foreground)
//Storyboard Layer 4 (Overlay)
//Storyboard Sound Samples

[TimingPoints]
529,303.030303030303,4,2,1,40,1,0
529,-166.666666666667,4,2,1,40,0,0
9468,-125,4,2,1,40,0,0
10225,-125,4,2,1,50,0,0
28862,-117.647058823529,4,2,1,50,0,0
29619,-133.333333333333,4,2,1,50,0,0
30529,-153.846153846154,4,2,1,50,0,0
38104,-117.647058823529,4,2,1,50,0,0
39316,-133.333333333333,4,2,1,60,0,0
44165,-117.647058823529,4,2,1,70,0,0
46589,-105.263157894737,4,2,1,70,0,0
46892,-105.263157894737,4,2,1,50,0,0
47044,-105.263157894737,4,2,1,55,0,0
47271,-105.263157894737,4,2,1,60,0,0
47422,-105.263157894737,4,2,1,65,0,0
47650,-105.263157894737,4,2,1,70,0,0
48862,-98.0392156862745,4,2,1,80,0,1
68256,-90.9090909090909,4,2,1,80,0,1
73559,-90.9090909090909,4,2,1,60,0,1
73862,-90.9090909090909,4,2,1,63,0,1
74165,-90.9090909090909,4,2,1,66,0,1
74468,-90.9090909090909,4,2,1,69,0,1
74771,-90.9090909090909,4,2,1,72,0,1
75074,-90.9090909090909,4,2,1,75,0,1
75377,-90.9090909090909,4,2,1,78,0,1
75680,-90.9090909090909,4,2,1,80,0,1
75983,-111.111111111111,4,2,1,50,0,1
76286,-111.111111111111,4,2,1,54,0,1
76589,-111.111111111111,4,2,1,57,0,1
76892,-111.111111111111,4,2,1,60,0,1
77195,-111.111111111111,4,2,1,63,0,1
77498,-111.111111111111,4,2,1,66,0,1
77801,-111.111111111111,4,2,1,70,0,1
78104,-95.2380952380952,4,2,1,70,0,1
80528,-98.0392156862745,4,2,1,60,0,1
85074,-86.9565217391304,4,2,1,60,0,1
85377,-98.0392156862745,4,2,1,60,0,1
87650,-111.111111111111,4,2,1,60,0,0
87953,-133.333333333333,4,2,1,30,0,0
91286,-133.333333333333,4,2,1,35,0,0
91892,-133.333333333333,4,2,1,40,0,0
92044,-133.333333333333,4,2,1,45,0,0
92195,-133.333333333333,4,2,1,50,0,0
92347,-133.333333333333,4,2,1,55,0,0
92498,-133.333333333333,4,2,1,60,0,0

[Colours]
Combo1 : 228,215,41
Combo2 : 45,242,253
Combo3 : 239,52,103
Combo4 : 73,67,203
Combo5 : 237,107,218

[HitObjects]
77,5,529,6,0,L|69:64,1,53.9999983520508,6|0,1:2|0:0,0:0:0:0:
97,165,832,1,2,0:0:0:0:
169,69,983,2,0,P|195:64|222:68,1,53.9999983520508,2|0,0:0|0:0,0:0:0:0:
229,209,1286,2,0,P|211:188|202:163,1,53.9999983520508,2|0,0:0|0:0,0:0:0:0:
316,49,1589,6,0,B|384:29|384:29|424:53,1,107.999996704102,2|2,0:0|0:0,0:0:0:0:
488,141,2044,2,0,L|424:148,1,53.9999983520508,2|2,0:0|0:0,0:0:0:0:
345,212,2347,1,0,0:0:0:0:
446,247,2498,2,0,L|472:250,2,26.9999991760254,2|2|2,0:0|0:0|0:0,0:0:0:0:
350,127,2801,1,0,3:0:0:0:
370,300,2953,6,0,P|343:304|316:299,1,53.9999983520508,2|0,0:0|0:0,0:0:0:0:
206,220,3256,2,0,P|222:241|232:267,1,53.9999983520508,2|0,0:0|0:0,0:0:0:0:
117,340,3559,2,0,P|127:314|144:293,1,53.9999983520508,2|0,0:0|0:0,0:0:0:0:
266,358,3862,2,0,P|238:362|211:357,1,53.9999983520508,2|0,0:0|0:0,0:0:0:0:
32,304,4165,6,0,L|20:209,1,80.9999975280763,2|2,0:0|0:0,0:0:0:0:
0,208,4468,2,0,L|7:146,1,53.9999983520508,2|2,0:0|0:0,0:0:0:0:
62,61,4771,1,2,0:0:0:0:
104,172,4922,1,2,0:0:0:0:
104,172,4998,1,2,0:0:0:0:
104,172,5074,2,0,L|107:198,2,26.9999991760254,2|2|2,3:0|0:0|0:0,0:0:0:0:
254,171,5377,6,0,P|227:166|200:171,1,53.9999983520508,6|0,1:2|0:0,0:0:0:0:
270,288,5680,1,2,0:0:0:0:
353,168,5832,2,0,L|344:235,1,53.9999983520508,2|0,0:0|0:0,0:0:0:0:
440,300,6135,2,0,L|433:246,1,53.9999983520508,2|0,0:0|0:0,0:0:0:0:
419,93,6438,6,0,P|371:65|314:80,1,107.999996704102,2|2,0:0|0:0,0:0:0:0:
236,145,6892,2,0,L|229:91,1,53.9999983520508,2|2,0:0|0:0,0:0:0:0:
175,0,7195,1,0,0:0:0:0:
128,96,7347,2,0,L|124:122,2,26.9999991760254,2|2|2,0:0|0:0|0:0,0:0:0:0:
269,16,7650,1,0,3:0:0:0:
312,184,7801,6,0,L|367:177,1,53.9999983520508,2|0,0:0|0:0,0:0:0:0:
470,28,8104,2,0,L|416:34,1,53.9999983520508,10|0,0:0|0:0,0:0:0:0:
296,156,8407,2,0,L|351:149,1,53.9999983520508,2|0,0:0|0:0,0:0:0:0:
454,0,8710,2,0,L|400:6,1,53.9999983520508,10|0,0:0|0:0,0:0:0:0:
473,218,9013,6,0,L|466:162,1,53.9999983520508,2|2,0:0|0:0,0:0:0:0:
282,74,9316,1,10,0:0:0:0:
361,262,9468,2,0,L|356:297,2,36,10|8|10,0:0|0:0|0:0,0:0:0:0:
412,60,9771,1,10,0:3:0:0:
296,156,9922,1,4,0:3:0:0:
328,0,10074,1,4,0:3:0:0:
438,176,10225,6,0,L|447:249,1,72,6|0,1:2|0:0,0:0:0:0:
316,344,10528,2,0,L|324:272,1,72,8|0,0:0|0:0,0:0:0:0:
228,120,10832,1,2,3:0:0:0:
180,284,10983,1,2,0:0:0:0:
136,112,11135,1,10,0:0:0:0:
248,244,11286,1,0,0:0:0:0:
292,56,11438,6,0,B|376:24|352:88|444:60,1,144,2|10,3:0|0:0,0:0:0:0:
508,168,11892,2,0,P|473:160|438:168,1,72,0|2,0:0|3:0,0:0:0:0:
436,324,12195,2,0,P|459:297|470:263,1,72,2|8,0:0|0:0,0:0:0:0:
316,168,12498,1,2,1:0:0:0:
340,336,12650,6,0,L|350:252,1,72,2|0,1:0|0:0,0:0:0:0:
360,88,12953,1,10,0:0:0:0:
224,200,13104,2,0,B|141:229|141:229|93:199,1,144
144,48,13559,2,0,L|152:119,1,72,8|0,0:0|0:0,0:0:0:0:
224,288,13862,5,0,3:0:0:0:
276,128,14013,1,0,0:0:0:0:
360,272,14165,2,0,P|394:280|429:272,1,72,8|0,0:0|0:0,0:0:0:0:
432,120,14468,2,0,P|407:146|396:180,1,72,2|0,3:0|0:0,0:0:0:0:
336,352,14771,1,10,0:0:0:0:
252,208,14922,1,0,3:0:0:0:
181,356,15074,6,0,P|121:384|49:348,1,144,6|8,1:2|0:0,0:0:0:0:
32,212,15528,2,0,P|67:203|101:210,1,72,2|0,0:0|3:0,0:0:0:0:
196,340,15832,1,0,0:0:0:0:
240,184,15983,2,0,L|228:92,1,72,10|0,0:0|0:0,0:0:0:0:
116,300,16286,6,0,B|109:239|109:239|122:213|122:213|114:154,1,144,2|8,3:0|0:0,0:0:0:0:
232,56,16741,2,0,L|222:135,1,72,0|0,0:0|3:0,0:0:0:0:
268,284,17044,1,0,0:0:0:0:
348,136,17195,2,0,P|382:128|417:135,1,72,8|0,0:0|1:0,0:0:0:0:
512,304,17498,6,0,B|432:328|448:272|368:296,1,144,2|10,1:0|0:0,0:0:0:0:
316,88,17953,2,0,B|348:136|348:136|312:214,1,144,2|0,0:0|0:0,0:0:0:0:
236,336,18407,2,0,L|224:244,1,72,8|0,0:0|0:0,0:0:0:0:
112,96,18710,5,0,3:0:0:0:
64,280,18862,1,0,1:0:0:0:
196,140,19013,1,8,0:0:0:0:
144,312,19165,2,0,L|139:347,2,36,8|4|4,0:3|0:3|0:3,0:0:0:0:
32,184,19468,1,4,3:0:0:0:
228,232,19619,1,0,1:0:0:0:
48,296,19771,1,0,1:0:0:0:
184,120,19922,6,0,P|250:99|308:137,1,144,4|8,1:2|0:0,0:0:0:0:
348,296,20377,1,2,0:0:0:0:
440,144,20529,2,0,L|511:153,1,72,2|0,3:0|0:0,0:0:0:0:
464,348,20832,1,8,0:0:0:0:
360,192,20983,1,2,0:0:0:0:
312,380,21135,6,0,P|346:388|381:381,1,72,2|2,3:0|0:0,0:0:0:0:
452,224,21438,1,8,0:0:0:0:
264,288,21589,2,0,P|230:296|195:289,1,72,2|2,0:0|3:0,0:0:0:0:
280,132,21892,2,0,P|303:157|315:191,1,72,2|8,0:0|0:0,0:0:0:0:
124,128,22195,1,0,1:0:0:0:
272,40,22347,6,0,B|356:20|332:80|428:64,1,144,6|10,1:2|0:0,0:0:0:0:
504,187,22801,2,0,P|469:179|434:187,1,72,0|2,0:0|3:0,0:0:0:0:
285,271,23104,1,2,0:0:0:0:
449,336,23256,1,10,0:0:0:0:
338,161,23407,6,0,B|293:138|293:138|200:162,1,144,2|2,0:0|0:0,0:0:0:0:
134,340,23862,1,8,0:0:0:0:
61,171,24013,1,0,0:0:0:0:
215,270,24165,2,0,P|249:278|284:270,1,72,2|0,3:0|0:0,0:0:0:0:
291,95,24468,2,0,P|266:121|255:155,1,72,10|0,0:0|3:0,0:0:0:0:
436,208,24771,6,0,L|455:53,2,144,2|8|2,1:0|0:0|3:0,0:0:0:0:
352,364,25529,1,0,0:0:0:0:
304,196,25680,2,0,P|269:187|234:195,1,72,8|2,0:0|0:0,0:0:0:0:
80,328,25983,6,0,B|141:321|141:321|167:334|167:334|220:326,1,144,2|10,3:0|0:0,0:0:0:0:
108,144,26438,2,0,L|97:227,1,72,2|2,0:0|3:0,0:0:0:0:
220,326,26741,2,0,L|211:254,1,72,2|8,0:0|0:0,0:0:0:0:
268,84,27044,1,0,1:0:0:0:
372,252,27195,6,0,B|402:171|402:171|370:123,1,144,2|10,1:0|0:0,0:0:0:0:
258,12,27650,2,0,L|269:95,1,72,2|0,0:0|3:0,0:0:0:0:
200,284,27953,1,2,1:0:0:0:
120,76,28104,1,8,0:0:0:0:
280,232,28256,1,0,1:0:0:0:
352,16,28407,5,10,0:0:0:0:
180,188,28559,1,0,1:0:0:0:
432,176,28710,1,10,0:0:0:0:
216,72,28862,1,8,0:0:0:0:
216,72,28937,1,8,0:0:0:0:
216,72,29013,5,8,0:0:0:0:
288,256,29165,1,8,0:3:0:0:
356,112,29316,1,4,0:3:0:0:
296,280,29468,1,0,1:0:0:0:
205,97,29619,6,0,B|85:61|121:145|1:105,1,202.500007724762,4|10,1:2|0:3,0:0:0:0:
149,334,30529,2,0,P|202:270|160:199,1,175.499991966248,10|2,0:3|1:0,0:0:0:0:
224,4,31438,2,0,L|215:75,1,58.4999973220826,4|0,0:3|1:0,0:0:0:0:
256,176,31741,1,10,0:0:0:0:
316,100,31892,1,0,0:0:0:0:
404,224,32044,6,0,L|420:360,1,116.999994644165,6|0,1:2|0:0,0:0:0:0:
308,380,32498,2,0,B|252:356|252:356|194:366,1,116.999994644165,8|2,0:3|0:0,0:0:0:0:
136,272,32953,1,4,0:3:0:0:
136,272,33104,2,0,B|192:248|192:248|249:258,1,116.999994644165,2|2,0:0|1:0,0:0:0:0:
320,176,33559,1,2,0:0:0:0:
224,32,33862,5,4,0:3:0:0:
224,32,34013,1,0,1:0:0:0:
132,120,34165,2,0,L|138:178,1,58.4999973220826,10|0,0:0|0:0,0:0:0:0:
36,48,34468,6,0,L|21:167,1,116.999994644165,4|2,1:2|0:0,0:0:0:0:
60,248,34922,2,0,L|74:364,1,116.999994644165,10|2,0:3|0:0,0:0:0:0:
160,328,35377,2,0,B|224:308|212:352|280:332,1,116.999994644165,6|0,0:3|0:0,0:0:0:0:
360,260,35832,1,0,1:0:0:0:
360,260,35983,6,0,L|296:252,1,58.4999973220826,2|0,0:0|0:0,0:0:0:0:
220,160,36286,2,0,P|226:188|219:216,1,58.4999973220826,2|0,1:0|1:0,0:0:0:0:
144,344,36589,1,8,0:0:0:0:
40,192,36892,5,4,1:2:0:0:
92,268,37043,1,2,0:0:0:0:
132,176,37195,2,0,L|124:117,1,58.4999973220826,2|8,0:0|0:3,0:0:0:0:
244,72,37498,2,0,P|227:104|200:119,1,58.4999973220826,0|2,0:0|0:0,0:0:0:0:
106,27,37801,2,0,P|142:25|169:41,1,58.4999973220826,6|2,0:3|0:0,0:0:0:0:
296,148,38104,6,0,L|286:223,1,76.5000014591217,2|8,1:0|0:0,0:0:0:0:
184,384,38407,1,6,1:2:0:0:
144,204,38559,1,10,0:0:0:0:
144,204,38635,1,8,0:0:0:0:
144,204,38710,1,8,0:0:0:0:
312,320,38862,1,2,0:0:0:0:
104,360,39013,1,10,0:3:0:0:
216,176,39165,1,6,0:3:0:0:
296,336,39316,6,0,B|348:329|348:329|375:341|375:341|429:335,1,135.000005149842,4|0,1:2|0:0,0:0:0:0:
472,176,39771,1,2,1:0:0:0:
368,236,39922,2,0,P|334:233|307:214,1,67.5000025749208,8|0,0:0|0:0,0:0:0:0:
376,80,40225,2,0,P|390:110|387:143,1,67.5000025749208,2|2,1:0|1:0,0:0:0:0:
204,248,40528,6,0,L|212:180,1,67.5000025749208,2|8,3:0|0:0,0:0:0:0:
120,48,40832,1,2,0:0:0:0:
52,192,40983,2,0,P|84:200|116:190,1,67.5000025749208,2|8,1:0|0:0,0:0:0:0:
256,92,41286,2,0,P|224:82|191:90,1,67.5000025749208,2|0,0:0|1:0,0:0:0:0:
220,264,41589,1,2,0:0:0:0:
344,120,41741,6,0,B|416:96|400:152|488:128,1,135.000005149842,2|2,1:0|0:0,0:0:0:0:
504,292,42195,1,2,1:0:0:0:
372,220,42347,2,0,L|305:228,1,67.5000025749208,10|0,0:0|0:0,0:0:0:0:
364,368,42650,2,0,P|391:349|405:318,1,67.5000025749208,2|0,1:0|1:0,0:0:0:0:
328,136,42953,5,6,3:2:0:0:
220,264,43104,2,0,L|229:339,1,67.5000025749208,8|2,0:0|0:0,0:0:0:0:
124,168,43407,1,0,1:0:0:0:
304,264,43559,1,8,0:3:0:0:
126,332,43710,1,4,0:3:0:0:
232,132,43862,1,12,0:2:0:0:
232,132,44165,6,0,B|276:100|276:100|380:132,1,153.000002918243,6|10,1:2|0:0,0:0:0:0:
451,258,44619,6,0,B|363:226|387:290|299:262,1,153.000002918243,4|10,1:2|0:0,0:0:0:0:
176,352,45074,6,0,L|156:193,1,153.000002918243,4|0,1:2|1:0,0:0:0:0:
248,40,45528,1,8,0:0:0:0:
248,40,45604,1,8,0:0:0:0:
248,40,45680,1,8,0:0:0:0:
300,216,45832,1,8,0:0:0:0:
144,112,45983,5,4,0:3:0:0:
336,68,46135,1,4,0:3:0:0:
180,216,46286,2,0,P|143:225|106:217,1,76.5000014591217,0|2,1:0|0:0,0:0:0:0:
8,16,46589,6,0,P|49:7|90:17,1,85.4999977169037,4|0,1:2|0:0,0:0:0:0:
248,76,46892,1,8,0:0:0:0:
248,76,46968,1,8,0:0:0:0:
248,76,47044,2,0,L|252:118,3,42.7499988584519,8|8|8|8,0:0|0:0|0:0|0:0,0:0:0:0:
184,173,47347,2,0,L|179:215,1,42.7499988584519,8|8,0:0|0:0,0:0:0:0:
268,296,47498,2,0,L|262:253,1,42.7499988584519,8|8,0:0|0:0,0:0:0:0:
380,32,47650,6,0,B|428:72|428:72|376:184,1,170.999995433807,8|0,0:0|1:0,0:0:0:0:
280,380,48104,1,8,0:0:0:0:
296,364,48862,6,0,P|251:375|207:364,1,91.8000005603027,4|0,1:0|0:0,0:0:0:0:
20,228,49165,1,2,3:0:0:0:
268,180,49316,2,0,L|256:273,1,91.8000005603027,10|0,0:0|3:0,0:0:0:0:
101,377,49619,2,0,L|88:278,1,91.8000005603027,2|0,1:0|3:0,0:0:0:0:
168,80,49922,1,10,0:0:0:0:
272,288,50074,6,0,P|316:299|361:288,1,91.8000005603027,0|0,3:0|1:0,0:0:0:0:
512,196,50377,2,0,P|467:206|423:195,1,91.8000005603027,2|8,3:0|0:0,0:0:0:0:
248,72,50680,1,2,3:0:0:0:
484,16,50832,2,0,L|472:111,1,91.8000005603027,0|0,1:0|3:0,0:0:0:0:
328,268,51135,1,10,0:0:0:0:
348,0,51286,6,0,L|360:95,1,91.8000005603027,0|0,3:0|1:0,0:0:0:0:
164,180,51589,2,0,L|152:88,1,91.8000005603027,2|10,3:0|0:0,0:0:0:0:
384,172,51892,1,0,3:0:0:0:
212,276,52044,2,0,P|167:286|123:275,1,91.8000005603027,2|0,1:0|3:0,0:0:0:0:
248,72,52347,1,10,0:0:0:0:
328,268,52498,6,0,L|315:367,1,91.8000005603027,0|0,3:0|1:0,0:0:0:0:
164,180,52801,2,0,B|268:208|240:144|348:168,1,183.600001120605,2|0,3:0|3:0,0:0:0:0:
464,348,53256,1,2,1:0:0:0:
496,96,53407,1,2,3:0:0:0:
344,284,53559,1,10,0:0:0:0:
272,36,53710,6,0,B|203:26|203:26|165:45|165:45|93:36,1,183.600001120605,6|0,1:2|3:0,0:0:0:0:
240,263,54165,2,0,P|252:211|240:160,1,91.8000005603027,10|0,0:0|3:0,0:0:0:0:
40,272,54468,2,0,P|76:308|126:323,1,91.8000005603027,0|0,1:0|3:0,0:0:0:0:
132,80,54771,1,10,0:0:0:0:
256,280,54922,6,0,B|372:322|372:322|420:286,1,183.600001120605,6|2,1:2|1:0,0:0:0:0:
500,80,55377,1,8,0:0:0:0:
300,192,55528,6,0,B|196:164|225:233|121:205,1,183.600001120605,6|2,1:2|1:0,0:0:0:0:
44,0,55983,1,8,0:0:0:0:
279,97,56135,6,0,L|256:279,1,183.600001120605,6|2,1:2|1:0,0:0:0:0:
40,328,56589,5,8,0:0:0:0:
172,84,56741,1,2,1:0:0:0:
204,352,56892,5,8,0:0:0:0:
76,76,57044,1,2,1:0:0:0:
125,323,57195,5,8,0:0:0:0:
264,36,57347,2,0,B|309:29|309:29|352:47,1,91.8000005603027,6|0,1:2|0:0,0:0:0:0:
467,253,57650,5,2,1:0:0:0:
467,253,57725,1,0,0:0:0:0:
467,253,57801,2,0,L|419:247,3,45.9000002801514,10|2|2|0,0:0|0:0|1:0|0:0,0:0:0:0:
300,144,58104,1,10,0:0:0:0:
300,144,58180,1,8,0:3:0:0:
300,144,58256,2,0,L|307:195,1,45.9000002801514,4|2,0:3|1:0,0:0:0:0:
200,304,58407,2,0,L|207:252,1,45.9000002801514,10|0,0:0|0:0,0:0:0:0:
128,64,58559,6,0,P|87:42|41:41,1,91.8000005603027,14|0,0:2|0:0,0:0:0:0:
0,236,58862,2,0,P|45:234|85:213,1,91.8000005603027,2|8,3:0|0:0,0:0:0:0:
236,76,59165,1,0,3:0:0:0:
200,304,59316,1,2,1:0:0:0:
64,128,59468,1,0,3:0:0:0:
120,344,59619,1,10,0:0:0:0:
256,156,59771,6,0,L|355:143,1,91.8000005603027,2|0,3:0|1:0,0:0:0:0:
440,336,60074,2,0,L|340:323,1,91.8000005603027,2|8,3:0|0:0,0:0:0:0:
144,208,60377,1,0,3:0:0:0:
376,128,60528,1,0,1:0:0:0:
224,324,60680,1,2,3:0:0:0:
180,80,60832,1,10,0:0:0:0:
340,296,60983,6,0,P|385:294|425:273,1,91.8000005603027,2|0,3:0|1:0,0:0:0:0:
460,12,61286,1,2,3:0:0:0:
256,156,61438,1,8,0:0:0:0:
496,216,61589,1,2,3:0:0:0:
348,4,61741,1,0,1:0:0:0:
272,240,61892,1,0,3:0:0:0:
492,128,62044,1,10,0:0:0:0:
268,60,62195,6,0,P|223:49|179:60,1,91.8000005603027,0|0,3:0|1:0,0:0:0:0:
96,224,62498,2,0,P|140:235|184:224,1,91.8000005603027,2|10,3:0|0:0,0:0:0:0:
328,124,62801,2,0,L|431:136,1,91.8000005603027,0|0,3:0|1:0,0:0:0:0:
488,292,63104,2,0,L|396:303,1,91.8000005603027,0|8,3:0|0:0,0:0:0:0:
184,140,63407,5,2,3:0:0:0:
260,368,63559,1,4,1:2:0:0:
368,156,63710,1,2,3:0:0:0:
180,300,63862,2,0,P|135:310|91:299,1,91.8000005603027,10|0,0:0|3:0,0:0:0:0:
8,112,64165,2,0,P|52:101|97:112,1,91.8000005603027,2|0,1:0|3:0,0:0:0:0:
280,228,64468,1,14,0:0:0:0:
216,16,64619,1,0,0:0:0:0:
96,216,64771,6,0,B|72:284|112:347|112:347|120:316|136:296,1,183.600001120605,2|8,1:0|0:0,0:0:0:0:
235,103,65225,1,2,3:0:0:0:
320,320,65377,2,0,P|365:330|409:319,1,91.8000005603027,6|0,1:2|0:0,0:0:0:0:
472,96,65680,1,10,0:0:0:0:
256,208,65832,6,0,B|160:240|180:160|80:192,1,183.600001120605,6|2,1:2|1:0,0:0:0:0:
224,12,66286,2,0,L|235:103,1,91.8000005603027,10|2,0:0|0:0,0:0:0:0:
320,296,66589,2,0,P|365:294|405:272,1,91.8000005603027,2|2,1:0|0:0,0:0:0:0:
472,96,66892,2,0,P|432:74|386:72,1,91.8000005603027,10|2,0:0|0:0,0:0:0:0:
512,304,67195,6,0,L|500:212,1,91.8000005603027,2|2,1:0|0:0,0:0:0:0:
268,116,67498,2,0,L|256:207,1,91.8000005603027,10|2,0:0|0:0,0:0:0:0:
448,40,67801,1,4,3:0:0:0:
328,296,67953,1,8,0:0:0:0:
328,296,68028,1,8,0:0:0:0:
328,296,68104,1,8,0:0:0:0:
276,28,68256,6,0,B|199:18|199:18|158:38|158:38|83:28,1,198.000006042481,4|2,1:2|1:0,0:0:0:0:
168,280,68710,5,10,0:0:0:0:
292,44,68862,1,2,1:0:0:0:
340,336,69013,5,8,0:0:0:0:
196,84,69165,1,2,1:0:0:0:
239,363,69316,5,10,0:0:0:0:
376,112,69468,2,0,B|415:38|490:62|490:62|501:117|447:151,1,198.000006042481,6|2,1:2|1:0,0:0:0:0:
340,336,69922,5,10,0:0:0:0:
292,44,70074,1,2,1:0:0:0:
160,360,70225,5,8,0:0:0:0:
216,72,70377,1,2,1:0:0:0:
256,384,70528,5,10,0:0:0:0:
140,112,70680,2,0,B|244:76|224:152|332:124,1,198.000006042481,6|0,1:2|1:0,0:0:0:0:
430,296,71135,5,10,0:0:0:0:
184,200,71286,1,0,1:0:0:0:
456,76,71438,2,0,L|442:187,1,99.0000030212403,10|0,0:0|0:0,0:0:0:0:
108,300,71741,6,0,B|61:175|61:175|108:130,1,198.000006042481,14|0,0:0|0:0,0:0:0:0:
228,0,72195,2,0,L|220:59,1,49.5000015106202,2|0,1:0|0:0,0:0:0:0:
284,196,72347,2,0,L|333:202,3,49.5000015106202,10|2|2|2,0:0|0:0|1:0|0:0,0:0:0:0:
416,68,72650,2,0,L|466:62,3,49.5000015106202,8|8|4|0,0:0|0:3|0:3|1:0,0:0:0:0:
512,248,72953,1,8,0:0:0:0:
220,148,73256,5,2,1:0:0:0:
220,148,73559,1,10,1:2:0:0:
308,284,73710,1,10,1:2:0:0:
324,108,73862,1,8,1:2:0:0:
220,308,74013,1,8,1:2:0:0:
164,72,74165,1,8,1:2:0:0:
292,268,74316,1,10,1:2:0:0:
356,28,74468,5,10,1:2:0:0:
136,184,74619,1,10,1:2:0:0:
396,236,74771,1,10,1:2:0:0:
248,8,74922,1,10,1:2:0:0:
220,308,75074,5,8,1:2:0:0:
372,44,75225,1,8,1:2:0:0:
428,364,75377,1,8,1:2:0:0:
268,92,75528,1,10,1:2:0:0:
204,324,75680,6,0,B|123:295|146:352|61:326,1,148.50000453186,4|0,1:2|0:0,0:0:0:0:
0,248,75983,6,0,L|4:207,3,40.4999987640381,8|8|8|8,0:0|0:0|0:0|0:0,0:0:0:0:
56,96,76286,2,0,L|60:136,3,40.4999987640381,10|8|8|8,0:0|0:0|0:0|0:0,0:0:0:0:
144,216,76589,2,0,L|148:175,3,40.4999987640381,10|8|10|8,0:0|0:0|0:0|0:0,0:0:0:0:
200,64,76892,5,10,0:0:0:0:
244,44,76968,1,8,0:0:0:0:
293,59,77044,1,8,0:0:0:0:
322,98,77119,1,8,0:0:0:0:
322,147,77195,1,10,0:0:0:0:
346,191,77271,1,10,0:0:0:0:
390,210,77347,1,8,0:0:0:0:
439,201,77422,1,8,0:0:0:0:
469,161,77498,6,0,L|462:105,3,40.4999987640381,10|8|10|8,0:0|0:0|0:0|0:0,0:0:0:0:
408,16,77801,1,10,0:0:0:0:
408,16,77877,1,10,0:0:0:0:
408,16,77953,2,0,L|403:56,1,40.4999987640381,10|10,0:0|0:0,0:0:0:0:
224,180,78104,6,0,P|145:132|57:159,1,188.999994232178,6|10,1:2|0:0,0:0:0:0:
135,353,78559,2,0,B|174:311|225:326|225:326|257:368|311:354,1,188.999994232178,4|8,1:2|0:0,0:0:0:0:
344,44,79013,6,0,B|334:118|334:118|351:154|351:154|342:228,1,188.999994232178,4|8,1:2|0:0,0:0:0:0:
494,340,79468,2,0,B|510:203|510:203|468:241,1,188.999994232178,4|0,1:2|1:0,0:0:0:0:
300,344,79922,5,8,0:0:0:0:
300,344,79998,1,8,0:3:0:0:
300,344,80074,2,0,L|363:351,1,47.2499985580445,4|0,0:3|1:0,0:0:0:0:
404,128,80225,2,0,P|348:87|284:109,1,141.749995674133,12|0,0:2|0:0,0:0:0:0:
204,256,80528,6,0,B|113:293|120:214|25:248,1,183.600001120605,6|10,1:2|0:0,0:0:0:0:
176,60,80983,2,0,L|164:155,1,91.8000005603027,2|0,1:0|3:0,0:0:0:0:
240,372,81286,1,10,0:0:0:0:
332,156,81438,2,0,B|448:124|448:124|504:160,1,183.600001120605,2|8,1:0|0:0,0:0:0:0:
220,240,81892,2,0,P|187:151|235:80,1,183.600001120605,0|8,1:0|0:0,0:0:0:0:
392,0,82347,2,0,L|404:91,1,91.8000005603027,2|2,3:0|1:0,0:0:0:0:
464,340,82650,1,8,0:0:0:0:
332,156,82801,1,2,0:0:0:0:
276,356,82953,6,0,P|182:364|125:299,1,183.600001120605,4|10,1:2|0:0,0:0:0:0:
216,88,83407,2,0,P|230:131|218:174,1,91.8000005603027,2|0,1:0|3:0,0:0:0:0:
0,248,83710,1,10,0:0:0:0:
104,32,83862,2,0,B|194:-5|187:73|282:39,1,183.600001120605,2|8,1:0|0:0,0:0:0:0:
356,288,84316,2,0,B|298:284|281:245|281:245|254:279|195:268,1,183.600001120605,2|10,1:0|0:0,0:0:0:0:
368,136,84771,5,8,0:3:0:0:
368,136,84847,1,4,0:3:0:0:
368,136,84922,2,0,L|361:187,1,45.9000002801514,6|0,0:3|1:0,0:0:0:0:
184,356,85074,2,0,L|165:201,1,155.250002961159,14|0,0:0|0:0,0:0:0:0:
48,40,85377,6,0,B|29:68|3:80|3:80|48:211,1,183.600001120605,4|10,1:2|0:0,0:0:0:0:
284,116,85832,2,0,P|234:50|149:83,1,183.600001120605,6|10,1:2|0:0,0:0:0:0:
104,308,86286,2,0,B|173:316|173:316|211:296|211:296|280:305,1,183.600001120605,6|10,1:2|0:0,0:0:0:0:
396,88,86741,2,0,P|381:131|393:174,1,91.8000005603027,4|0,1:2|0:0,0:0:0:0:
504,312,87044,1,10,0:0:0:0:
504,312,87119,1,8,0:0:0:0:
504,312,87195,1,10,0:0:0:0:
320,212,87347,1,8,3:0:0:0:
512,136,87498,1,4,3:0:0:0:
336,344,87650,6,0,B|255:311|262:380|177:350,1,161.999995056153,4|0,1:2|3:0,0:0:0:0:
200,196,88104,2,0,L|209:267,1,67.5000025749208,8|0,0:0|3:0,0:0:0:0:
312,160,88407,2,0,L|303:231,1,67.5000025749208,0|0,1:0|3:0,0:0:0:0:
236,112,88710,2,0,L|231:78,3,33.7500012874604,0|4|4|8,1:0|0:3|0:3|0:3,0:0:0:0:
224,36,89013,6,0,P|164:13|105:57,1,135.000005149842,0|0,1:0|1:0,0:0:0:0:
52,176,89468,2,0,L|61:251,1,67.5000025749208,8|0,0:0|3:0,0:0:0:0:
124,376,89771,1,8,0:0:0:0:
180,232,89922,1,0,1:0:0:0:
256,376,90074,1,4,0:3:0:0:
256,376,90150,1,8,0:3:0:0:
256,376,90225,6,0,P|288:384|320:375,1,67.5000025749208,0|0,1:0|3:0,0:0:0:0:
456,264,90528,1,0,1:0:0:0:
456,264,90680,2,0,B|384:288|396:236|324:260,1,135.000005149842,8|0,0:0|1:0,0:0:0:0:
164,216,91135,1,0,1:0:0:0:
324,136,91286,1,10,0:0:0:0:
200,308,91438,6,0,P|167:316|135:308,1,67.5000025749208,8|0,0:0|3:0,0:0:0:0:
104,112,91741,1,2,1:0:0:0:
280,236,91892,1,10,0:0:0:0:
24,296,92044,5,10,1:2:0:0:
196,68,92195,1,10,1:2:0:0:
222,340,92347,1,10,0:0:0:0:
20,152,92498,1,10,0:2:0:0:
