osu file format v14

[General]
AudioFilename: audio.mp3
AudioLeadIn: 0
PreviewTime: 10400
Countdown: 0
SampleSet: Soft
StackLeniency: 0.7
Mode: 0
LetterboxInBreaks: 0
WidescreenStoryboard: 1

[Editor]
Bookmarks: 3330
DistanceSpacing: 1.3
BeatDivisor: 4
GridSize: 32
TimelineZoom: 1.7

[Metadata]
Title:Kimi no Tonari de (TV Size)
TitleUnicode:キミのとなりで (TV Size)
Artist:Kito Akari
ArtistUnicode:鬼頭明里
Creator:Usaha
Version:KoldNoodl's Hard
Source:安達としまむら
Tags:あだしま adashima adachi to and shimamura jpop pop japanese anime ending ed koldnoodl azunyan- mayu sakuma -rei xexyz takekii takeki hanasaka yui nana abe
BeatmapID:3266438
BeatmapSetID:1465516

[Difficulty]
HPDrainRate:5
CircleSize:3.8
OverallDifficulty:6
ApproachRate:7.5
SliderMultiplier:1.36
SliderTickRate:1

[Events]
//Background and Video events
0,0,"ShimamuraMyMommy.jpg",0,0
//Break Periods
//Storyboard Layer 0 (Background)
//Storyboard Layer 1 (Fail)
//Storyboard Layer 2 (Pass)
//Storyboard Layer 3 (Foreground)
//Storyboard Layer 4 (Overlay)
//Storyboard Sound Samples

[TimingPoints]
603,303.030303030303,4,2,1,60,1,0
603,-125,4,2,1,60,0,0
8178,-125,4,2,1,60,0,0
10299,-125,4,2,1,60,0,0
28784,-111.111111111111,4,2,1,70,0,0
29693,-117.647058823529,4,2,1,70,0,0
39390,-111.111111111111,4,2,1,75,0,0
46663,-100,4,2,1,75,0,0
48936,-100,4,2,1,85,0,1
73330,-125,4,2,1,85,0,1
74542,-111.111111111111,4,2,1,85,0,1
75754,-100,4,2,1,85,0,1
80602,-100,4,2,1,85,0,0
87724,-111.111111111111,4,2,1,85,0,0
92724,-111.111111111111,4,2,1,5,0,0

[Colours]
Combo1 : 189,141,119
Combo2 : 106,122,200
Combo3 : 255,230,130
Combo4 : 160,230,150

[HitObjects]
0,343,603,6,0,P|51:327|124:311,1,108.8,4|0,1:2|0:0,0:0:0:0:
182,312,1057,1,2,0:0:0:0:
331,365,1360,2,0,P|353:327|325:260,1,108.8,2|0,0:0|0:0,0:0:0:0:
285,207,1815,6,0,L|298:139,2,54.4,2|0|0,0:0|0:0|0:0,0:0:0:0:
203,224,2269,2,0,P|150:210|97:198,2,108.8,2|2|2,0:0|0:0|0:0,0:0:0:0:
285,207,3027,6,0,P|326:176|387:191,1,108.8,2|0,0:0|0:0,0:0:0:0:
468,95,3633,2,0,P|427:64|366:79,1,108.8,2|0,0:0|0:0,0:0:0:0:
251,33,4239,6,0,B|198:28|198:28|159:71,1,108.8,2|2,0:0|0:0,0:0:0:0:
91,107,4693,2,0,P|107:162|122:220,1,108.8,2|0,0:0|0:0,0:0:0:0:
186,253,5148,1,0,1:0:0:0:
71,338,5451,6,0,P|57:285|41:233,1,108.8,4|0,0:0|0:0,0:0:0:0:
7,158,5906,1,2,0:0:0:0:
68,30,6209,2,0,P|121:26|161:61,1,108.8,2|0,0:0|0:0,0:0:0:0:
231,116,6663,6,0,L|303:103,2,54.4,2|0|0,0:0|0:0|0:0,0:0:0:0:
190,193,7118,2,0,P|137:206|84:221,2,108.8,2|2|2,0:0|0:0|0:0,0:0:0:0:
261,243,7875,5,2,0:0:0:0:
337,136,8178,2,0,P|286:125|215:113,1,108.8,10|0,0:0|0:0,0:0:0:0:
460,217,8784,2,0,P|406:226|353:237,1,108.8,8|0,0:0|0:0,0:0:0:0:
237,351,9390,6,0,P|193:318|131:334,1,108.8,8|8,0:0|0:0,0:0:0:0:
73,381,9845,1,8,0:3:0:0:
73,381,9996,2,0,P|64:338|57:314,1,54.4,4|8,0:3|0:3,0:0:0:0:
12,261,10299,1,4,0:0:0:0:
84,124,10602,6,0,P|127:129|200:144,2,108.8,10|0|10,0:0|0:0|0:0,0:0:0:0:
228,44,11512,2,0,P|283:68|284:124,1,108.8,2|8,0:0|0:0,0:0:0:0:
348,178,11966,2,0,P|396:164|461:150,2,108.8,2|0|0,0:0|0:0|1:0,0:0:0:0:
291,246,12724,5,2,1:2:0:0:
360,356,13027,1,8,0:0:0:0:
360,356,13178,2,0,P|312:328|246:348,1,108.8,2|0,0:0|0:0,0:0:0:0:
198,380,13633,1,8,0:0:0:0:
198,380,14239,1,8,0:0:0:0:
107,319,14542,2,0,P|114:278|131:203,1,108.8,2|8,0:0|0:0,0:0:0:0:
84,69,15148,6,0,P|116:121|210:124,2,163.2,2|2|8,1:2|0:0|0:0,0:0:0:0:
232,19,16360,2,0,P|311:35|345:45,1,108.8,2|8,0:0|0:0,0:0:0:0:
418,14,16815,2,0,P|467:34|480:85,1,108.8
512,163,17269,2,0,P|502:203|497:227,1,54.4,8|0,0:0|1:0,0:0:0:0:
431,268,17572,6,0,P|378:254|325:243,1,108.8,2|8,1:2|0:0,0:0:0:0:
261,291,18027,2,0,P|207:302|155:315,1,108.8,2|0,0:0|0:0,0:0:0:0:
96,371,18481,1,8,0:0:0:0:
195,223,18784,6,0,P|188:180|182:152,1,54.4,0|0,0:0|1:0,0:0:0:0:
226,95,19087,2,0,P|267:86|328:134,1,108.8,8|0,0:0|0:0,0:0:0:0:
390,169,19542,2,0,P|415:160|442:155,2,54.4,8|8|4,0:3|0:3|0:3,0:0:0:0:
314,209,19996,1,4,0:0:0:0:
185,169,20299,6,0,P|159:160|132:155,1,54.4,10|0,0:0|0:0,0:0:0:0:
39,126,20603,2,0,P|52:180|63:239,1,108.8,2|8,0:0|0:0,0:0:0:0:
172,340,21209,2,0,P|227:322|291:305,1,108.8,2|8,0:0|0:0,0:0:0:0:
336,253,21663,2,0,P|391:271|455:288,1,108.8,2|2,0:0|0:0,0:0:0:0:
512,244,22118,1,8,0:0:0:0:
440,120,22421,6,0,P|409:154|339:144,1,108.8,0|8,1:2|0:0,0:0:0:0:
285,110,22875,2,0,P|295:56|306:3,1,108.8,2|0,0:0|0:0,0:0:0:0:
191,57,23481,2,0,P|138:52|100:88,1,108.8,2|0,0:0|0:0,0:0:0:0:
71,161,23936,1,8,0:0:0:0:
189,223,24239,2,0,P|200:276|210:329,1,108.8,2|8,0:0|0:0,0:0:0:0:
93,364,24845,6,0,P|43:366|7:302,1,108.8,2|8,1:2|0:0,0:0:0:0:
103,263,25451,2,0,P|153:265|189:201,1,108.8,2|8,0:0|0:0,0:0:0:0:
301,168,26057,2,0,P|289:114|273:43,1,108.8,2|8,0:0|0:0,0:0:0:0:
341,7,26512,2,0,P|401:2|445:51,1,108.8,2|2,0:0|0:0,0:0:0:0:
498,86,26966,1,8,0:0:0:0:
413,196,27269,6,0,P|401:249|389:302,1,108.8,0|8,1:0|0:0,0:0:0:0:
321,357,27724,2,0,P|290:326|215:337,1,108.8,2|0,0:0|1:0,0:0:0:0:
159,365,28178,1,8,0:0:0:0:
159,365,28330,1,0,0:0:0:0:
84,292,28481,6,0,P|95:238|107:185,1,108.8,8|12,0:0|0:0,0:0:0:0:
74,111,28936,1,8,0:0:0:0:
74,111,29087,2,0,P|127:104|181:149,1,122.399996264649,8|8,0:0|0:3,0:0:0:0:
260,279,29693,6,0,P|271:223|286:150,1,115.600002204895,6|0,0:0|0:0,0:0:0:0:
250,96,30148,1,8,0:3:0:0:
482,0,30603,2,0,P|468:55|453:125,1,115.600002204895,0|0,1:0|0:0,0:0:0:0:
397,167,31057,2,0,P|411:222|426:292,1,115.600002204895,8|0,0:3|0:0,0:0:0:0:
483,339,31512,1,0,1:0:0:0:
483,339,31663,1,0,1:0:0:0:
502,260,31815,1,10,0:0:0:0:
380,368,32118,6,0,P|333:337|277:343,1,115.600002204895,4|0,0:0|0:0,0:0:0:0:
210,299,32572,2,0,P|144:313|83:330,1,115.600002204895,8|0,0:3|0:0,0:0:0:0:
41,381,33027,1,0,1:0:0:0:
99,203,33481,2,0,P|89:146|77:89,1,115.600002204895,8|0,0:3|0:0,0:0:0:0:
120,22,33936,1,0,1:0:0:0:
120,22,34087,1,0,1:0:0:0:
191,58,34239,2,0,P|223:65|251:69,1,57.8000011024475,10|0,0:0|0:0,0:0:0:0:
344,36,34542,6,0,P|323:89|313:146,1,115.600002204895,4|0,0:0|0:0,0:0:0:0:
255,204,34996,2,0,P|276:257|286:314,1,115.600002204895,8|0,0:3|0:0,0:0:0:0:
344,373,35451,1,0,1:0:0:0:
494,299,35906,2,0,P|483:242|462:188,1,115.600002204895,8|0,0:3|0:0,0:0:0:0:
406,133,36360,2,0,P|415:96|425:72,1,57.8000011024475,2|0,1:2|1:0,0:0:0:0:
488,35,36663,1,8,0:0:0:0:
328,86,36966,6,0,P|273:74|204:64,1,115.600002204895,4|0,0:0|0:0,0:0:0:0:
149,17,37421,2,0,P|91:25|35:37,1,115.600002204895,8|0,0:3|0:0,0:0:0:0:
0,111,37875,1,0,1:0:0:0:
0,111,38027,1,0,0:0:0:0:
66,164,38178,2,0,P|77:201|85:238,1,57.8000011024475,0|8,1:0|0:0,0:0:0:0:
152,269,38481,2,0,P|158:240|167:213,1,57.8000011024475,4|0,0:0|0:0,0:0:0:0:
182,198,38709,1,0,0:0:0:0:
196,190,38784,6,0,P|224:195|252:203,1,57.8000011024475,8|0,0:0|1:0,0:0:0:0:
324,162,39087,1,8,0:3:0:0:
324,162,39239,1,4,0:3:0:0:
401,214,39390,6,0,P|430:265|408:327,1,122.399996264649,4|0,1:2|0:0,0:0:0:0:
355,384,39845,1,0,1:0:0:0:
281,339,39996,2,0,P|251:345|156:368,1,122.399996264649,8|0,0:0|1:0,0:0:0:0:
72,342,40451,1,0,1:0:0:0:
72,342,40602,1,2,0:0:0:0:
161,366,40754,6,0,P|152:329|129:242,1,122.399996264649,8|2,0:0|1:2,0:0:0:0:
102,142,41209,2,0,P|141:169|230:149,1,122.399996264649,8|0,0:0|1:0,0:0:0:0:
280,111,41663,1,0,0:0:0:0:
346,62,41815,6,0,P|412:57|461:113,1,122.399996264649,0|0,1:0|0:0,0:0:0:0:
512,154,42269,1,0,1:0:0:0:
512,154,42421,2,0,P|504:183|483:279,1,122.399996264649,8|0,0:0|1:0,0:0:0:0:
403,247,42875,1,0,0:0:0:0:
403,247,43027,1,2,0:0:0:0:
341,310,43178,6,0,B|276:298|286:344|217:331,1,122.399996264649,8|0,0:0|1:0,0:0:0:0:
148,366,43633,1,4,0:3:0:0:
148,366,43784,1,4,0:3:0:0:
75,307,43936,2,0,P|83:266|93:223,1,61.1999981323243,12|0,0:0|0:0,0:0:0:0:
68,156,44239,6,0,P|127:168|186:185,1,122.399996264649,4|8,0:0|0:0,0:0:0:0:
253,236,44693,2,0,P|311:219|371:206,1,122.399996264649,4|8,0:0|0:0,0:0:0:0:
434,147,45148,1,4,0:0:0:0:
332,18,45451,6,0,P|342:63|347:91,1,61.1999981323243,0|8,1:0|0:0,0:0:0:0:
338,93,45678,1,8,0:0:0:0:
331,107,45754,2,0,P|280:99|247:94,1,61.1999981323243,8|8,0:0|0:0,0:0:0:0:
210,31,46057,1,0,1:0:0:0:
210,31,46209,1,8,0:3:0:0:
144,86,46360,2,0,P|92:84|61:117,1,91.7999971984864,4|0,0:3|0:0,0:0:0:0:
36,134,46663,6,0,P|43:168|49:201,1,68,6|0,0:0|0:0,0:0:0:0:
114,254,46966,1,8,0:0:0:0:
194,199,47118,1,10,0:0:0:0:
194,199,47193,1,8,0:0:0:0:
194,199,47269,2,0,P|239:206|269:212,1,68,8|10,0:0|0:0,0:0:0:0:
324,271,47572,1,10,0:0:0:0:
324,271,47724,1,4,0:0:0:0:
444,202,48027,5,8,0:0:0:0:
444,202,48178,1,8,0:0:0:0:
464,336,48936,6,0,P|455:272|443:196,1,136,4|0,0:0|0:0,0:0:0:0:
386,138,49390,2,0,P|392:104|399:71,1,68,10|0,0:0|0:0,0:0:0:0:
302,1,49693,2,0,P|309:34|315:67,1,68,0|0,1:0|0:0,0:0:0:0:
248,134,49996,1,8,0:0:0:0:
169,96,50148,6,0,P|105:97|61:162,2,136,2|2|2,0:0|0:0|0:0,0:0:0:0:
248,134,50906,2,0,P|239:167|232:201,1,68,0|0,1:0|0:0,0:0:0:0:
264,280,51209,1,8,0:0:0:0:
195,337,51360,5,2,0:0:0:0:
0,301,51663,2,0,P|11:251|24:205,1,68,0|8,0:0|0:0,0:0:0:0:
70,175,51966,1,0,0:0:0:0:
70,175,52118,2,0,P|60:113|43:20,1,136,2|8,1:2|0:0,0:0:0:0:
124,0,52572,6,0,P|157:6|189:16,1,68,2|0,0:0|1:0,0:0:0:0:
310,52,52875,2,0,P|249:73|240:138,1,136,2|0,0:0|0:0,0:0:0:0:
316,192,53330,2,0,P|348:182|381:175,2,68,2|0|10,1:2|0:0|0:0,0:0:0:0:
274,271,53784,6,0,P|205:282|146:232,1,136,4|0,0:0|0:0,0:0:0:0:
79,268,54239,1,10,0:0:0:0:
225,196,54542,2,0,P|217:162|209:129,1,68,0|0,1:0|0:0,0:0:0:0:
258,57,54845,1,8,0:0:0:0:
182,5,54996,6,0,P|117:-1|66:67,1,136,6|0,0:0|1:0,0:0:0:0:
0,91,55451,1,8,0:0:0:0:
25,212,55602,2,0,P|91:225|163:241,1,136,6|0,1:2|1:0,0:0:0:0:
225,196,56057,1,8,0:0:0:0:
309,251,56209,6,0,P|268:301|286:364,1,136,6|0,0:0|1:0,0:0:0:0:
365,384,56663,2,0,P|413:370|443:363,1,68,8|2,0:0|1:2,0:0:0:0:
489,295,56966,2,0,P|441:281|411:274,1,68,8|0,0:0|1:0,0:0:0:0:
380,202,57269,1,8,0:0:0:0:
461,148,57421,6,0,P|473:95|495:16,1,136,6|2,0:0|1:2,0:0:0:0:
400,39,57875,1,10,0:0:0:0:
400,39,58027,1,2,1:2:0:0:
322,0,58178,2,0,P|311:32|303:65,1,68,10|2,1:2|1:2,0:0:0:0:
268,144,58481,1,10,0:2:0:0:
186,101,58633,6,0,P|140:136|64:118,1,136,4|2,0:0|0:0,0:0:0:0:
1,180,59087,2,0,P|11:225|16:257,1,68,8|0,0:0|0:0,0:0:0:0:
84,320,59390,2,0,P|89:286|97:253,2,68,2|0|8,1:2|0:0|0:0,0:0:0:0:
175,319,59845,6,0,P|236:330|330:358,1,136,2|2,0:0|0:0,0:0:0:0:
403,376,60299,2,0,P|392:336|381:303,1,68,8|0,0:0|0:0,0:0:0:0:
331,205,60602,2,0,P|320:237|311:270,2,68,0|0|8,1:0|0:0|0:0,0:0:0:0:
301,120,61057,6,0,P|250:80|184:89,1,136,2|2,0:0|0:0,0:0:0:0:
114,140,61512,1,8,0:0:0:0:
114,140,61663,1,0,0:0:0:0:
17,120,61815,2,0,P|30:159|41:206,1,68,2|2,1:2|0:2,0:0:0:0:
102,241,62118,1,8,0:0:0:0:
64,333,62269,6,0,P|140:312|216:299,1,136,2|2,0:0|0:0,0:0:0:0:
264,360,62724,1,10,0:0:0:0:
344,332,62875,2,0,P|377:280|346:205,1,136,2|2,0:0|0:0,0:0:0:0:
289,144,63330,2,0,P|293:111|300:78,1,68,8|0,0:0|0:0,0:0:0:0:
375,0,63633,6,0,P|382:33|386:66,1,68,4|0,0:0|0:0,0:0:0:0:
457,110,63936,1,10,0:0:0:0:
355,213,64239,2,0,P|305:226|231:243,1,102,2|0,1:2|0:0,0:0:0:0:
221,243,64542,2,0,P|209:204|199:175,1,68,12|0,0:0|0:0,0:0:0:0:
128,126,64845,6,0,P|63:123|19:172,2,136,0|8|6,1:0|0:0|0:0,0:0:0:0:
200,178,65602,2,0,P|211:210|221:243,1,68,0|8,0:0|0:0,0:0:0:0:
211,336,65906,6,0,P|269:321|362:299,1,136,4|0,0:0|1:0,0:0:0:0:
441,343,66360,2,0,L|428:276,1,68,10|0,0:0|0:0,0:0:0:0:
410,187,66663,2,0,L|397:120,1,68,2|0,1:2|0:0,0:0:0:0:
299,80,66966,6,0,L|311:146,1,68,8|0,0:0|0:0,0:0:0:0:
330,236,67269,2,0,L|342:302,1,68,0|0,1:0|0:0,0:0:0:0:
246,242,67572,1,12,0:0:0:0:
246,242,67724,1,0,0:0:0:0:
184,327,67875,2,0,P|152:317|109:304,1,68,0|8,1:0|0:0,0:0:0:0:
93,300,68102,1,8,0:0:0:0:
93,300,68178,1,8,0:0:0:0:
12,214,68330,6,0,P|23:143|39:67,1,136,4|0,0:0|1:0,0:0:0:0:
108,25,68784,2,0,P|150:34|183:46,1,68,10|0,0:0|1:0,0:0:0:0:
248,100,69087,1,8,0:0:0:0:
315,38,69239,1,2,1:2:0:0:
397,77,69390,1,10,0:0:0:0:
512,33,69542,6,0,P|482:80|460:189,1,136,4|0,1:2|1:0,0:0:0:0:
395,216,69996,1,8,0:0:0:0:
459,287,70148,1,0,1:0:0:0:
376,338,70299,2,0,P|322:324|287:317,1,68,8|2,0:0|1:2,0:0:0:0:
254,250,70602,1,8,0:0:0:0:
161,347,70754,6,0,B|189:312|189:312|159:198,1,136,4|0,1:2|1:0,0:0:0:0:
97,160,71209,2,0,P|85:204|74:250,1,68,10|0,0:0|1:0,0:0:0:0:
181,143,71512,1,10,0:0:0:0:
181,143,71815,6,0,P|226:98|295:115,1,136,4|0,0:0|0:0,0:0:0:0:
371,67,72269,1,2,1:2:0:0:
437,130,72421,2,0,P|429:164|423:197,1,68,14|2,0:2|0:2,0:0:0:0:
362,278,72724,2,0,P|355:244|348:211,1,68,10|8,0:0|0:3,0:0:0:0:
337,201,72951,1,4,0:3:0:0:
327,191,73027,2,0,P|273:204|233:213,1,68,12|0,0:0|0:0,0:0:0:0:
202,272,73330,6,0,P|149:258|95:248,1,108.8,2|0,1:2|1:0,0:0:0:0:
31,201,73784,1,2,0:0:0:0:
31,201,73936,2,0,P|39:161|42:145,1,54.4,0|2,1:0|1:2,0:0:0:0:
130,103,74239,2,0,P|124:129|119:156,1,54.4,0|0,1:0|1:0,0:0:0:0:
195,179,74542,6,0,P|256:192|308:143,1,122.399996264649,2|0,1:2|1:0,0:0:0:0:
350,96,74996,1,10,0:0:0:0:
349,95,75148,2,0,P|380:100|410:106,1,61.1999981323243,0|8,1:0|0:0,0:0:0:0:
460,177,75451,2,0,P|429:181|399:187,1,61.1999981323243,8|8,0:0|0:0,0:0:0:0:
341,254,75754,6,0,P|357:304|371:367,1,102,6|0,0:0|0:0,0:0:0:0:
377,379,76057,1,8,0:0:0:0:
286,341,76209,1,2,0:0:0:0:
211,384,76360,2,0,P|164:374|130:368,1,68,8|0,1:2|0:0,0:0:0:0:
71,314,76663,2,0,P|78:286|83:268,3,34,10|8|8|8,1:2|0:0|0:0|0:0,0:0:0:0:
110,253,76966,6,0,P|100:208|88:160,1,68,10|8,1:2|0:0,0:0:0:0:
44,112,77269,2,0,P|54:67|66:19,1,68,10|8,1:2|0:0,0:0:0:0:
150,0,77572,2,0,L|242:15,1,68,10|8,1:2|0:0,0:0:0:0:
230,23,77799,1,8,0:0:0:0:
246,36,77875,2,0,L|338:51,1,68,10|8,1:2|0:0,0:0:0:0:
401,87,78178,6,0,P|385:129|364:222,1,136,4|10,0:0|0:0,0:0:0:0:
282,247,78633,2,0,P|254:216|164:221,1,136,4|8,1:2|0:0,0:0:0:0:
57,224,79087,2,0,P|73:266|94:359,1,136,4|8,1:2|0:0,0:0:0:0:
176,384,79542,2,0,P|204:353|294:358,1,136,4|0,1:2|1:0,0:0:0:0:
378,313,79996,1,8,0:0:0:0:
378,313,80072,1,4,0:3:0:0:
378,313,80148,1,0,1:0:0:0:
458,354,80299,2,0,P|498:326|499:277,1,102,12|0,0:0|0:0,0:0:0:0:
463,251,80602,6,0,P|457:203|447:110,1,136,4|8,0:0|0:0,0:0:0:0:
359,53,81057,2,0,P|366:120|374:188,1,136,2|8,1:2|0:0,0:0:0:0:
310,242,81512,1,2,1:2:0:0:
189,167,81815,1,8,0:0:0:0:
189,167,81966,2,0,P|128:179|47:193,1,136,0|8,1:0|0:0,0:0:0:0:
6,263,82421,1,0,1:0:0:0:
6,263,82572,1,0,1:0:0:0:
64,323,82724,2,0,P|102:316|146:310,1,68,10|0,0:0|0:0,0:0:0:0:
235,365,83027,6,0,B|205:336|205:336|222:233,1,136,6|10,0:0|0:0,0:0:0:0:
278,167,83481,2,0,P|345:174|416:183,1,136,2|8,1:2|0:0,0:0:0:0:
483,136,83936,1,2,1:2:0:0:
412,12,84239,1,8,0:0:0:0:
412,12,84390,2,0,P|345:19|274:28,1,136,0|8,1:0|0:0,0:0:0:0:
216,84,84845,2,0,L|142:74,1,68,4|2,0:3|1:2,0:0:0:0:
136,63,85072,1,0,1:0:0:0:
125,54,85148,2,0,L|51:44,1,68,12|0,0:0|0:0,0:0:0:0:
4,125,85451,6,0,L|39:281,1,136,6|8,0:0|0:0,0:0:0:0:
102,315,85906,2,0,B|128:287|128:287|102:178,1,136,6|8,1:2|0:0,0:0:0:0:
187,160,86360,2,0,P|258:170|345:182,1,136,6|8,1:2|0:0,0:0:0:0:
398,191,86815,1,4,1:2:0:0:
483,98,87118,1,8,0:0:0:0:
483,98,87193,1,8,0:0:0:0:
483,98,87269,1,8,0:0:0:0:
499,189,87421,2,0,P|506:222|512:255,1,68,4|8,0:3|0:3,0:0:0:0:
454,319,87724,6,0,P|424:287|337:305,1,122.399996264649,6|0,0:0|0:0,0:0:0:0:
298,349,88178,2,0,P|268:356|215:375,1,61.1999981323243,8|0,0:0|0:0,0:0:0:0:
193,300,88481,2,0,P|163:290|134:283,1,61.1999981323243,8|0,0:0|0:0,0:0:0:0:
67,328,88784,1,0,1:0:0:0:
6,263,88936,5,0,1:0:0:0:
6,263,89012,1,0,1:0:0:0:
6,263,89088,2,0,P|-14:210|23:150,1,122.399996264649,10|8,0:0|0:0,0:0:0:0:
17,73,89542,2,0,P|75:85|147:103,1,122.399996264649,8|8,0:0|0:0,0:0:0:0:
187,162,89996,2,0,P|241:151|272:145,1,61.1999981323243,0|0,1:0|1:0,0:0:0:0:
260,134,90224,1,0,1:0:0:0:
270,120,90299,6,0,L|243:-22,1,122.399996264649,10|0,0:0|0:0,0:0:0:0:
335,23,90754,2,0,L|357:143,1,122.399996264649,8|8,0:0|0:0,0:0:0:0:
423,200,91209,1,0,0:0:0:0:
423,200,91360,1,2,0:0:0:0:
372,271,91512,6,0,P|325:281|285:290,1,61.1999981323243,8|2,0:0|0:0,0:0:0:0:
301,299,91739,1,0,0:0:0:0:
290,314,91815,2,0,P|243:324|203:333,1,61.1999981323243,2|10,0:0|0:0,0:0:0:0:
164,377,92118,1,10,0:0:0:0:
85,355,92269,1,10,0:0:0:0:
51,280,92421,1,10,0:0:0:0:
86,205,92572,1,10,0:0:0:0:
