osu file format v14

[General]
AudioFilename: audio.mp3
AudioLeadIn: 0
PreviewTime: 10400
Countdown: 0
SampleSet: Soft
StackLeniency: 0.7
Mode: 0
LetterboxInBreaks: 0
WidescreenStoryboard: 0

[Editor]
DistanceSpacing: 0.2
BeatDivisor: 4
GridSize: 16
TimelineZoom: 1.7

[Metadata]
Title:Kimi no Tonari de (TV Size)
TitleUnicode:キミのとなりで (TV Size)
Artist:Kito Akari
ArtistUnicode:鬼頭明里
Creator:Usaha
Version:Insane
Source:安達としまむら
Tags:あだしま adashima adachi to and shimamura jpop pop japanese anime ending ed koldnoodl azunyan- mayu sakuma -rei xexyz takekii takeki hanasaka yui nana abe
BeatmapID:3009963
BeatmapSetID:1465516

[Difficulty]
HPDrainRate:5
CircleSize:4
OverallDifficulty:8
ApproachRate:8.2
SliderMultiplier:1.5
SliderTickRate:1

[Events]
//Background and Video events
0,0,"ShimamuraMyMommy.jpg",0,0
//Break Periods
//Storyboard Layer 0 (Background)
//Storyboard Layer 1 (Fail)
//Storyboard Layer 2 (Pass)
//Storyboard Layer 3 (Foreground)
//Storyboard Layer 4 (Overlay)
//Storyboard Sound Samples

[TimingPoints]
603,303.030303030303,4,2,1,60,1,0
8178,-133.333333333333,4,2,1,60,0,0
10299,-117.647058823529,4,2,1,60,0,0
10906,-125,4,2,1,60,0,0
13633,-142.866772918186,4,2,1,60,0,0
14239,-142.866772918186,4,2,1,60,0,0
15148,-125.007372953359,4,2,1,60,0,0
19996,-111.116936616327,4,2,1,70,0,0
29693,-125.007372953359,4,2,1,70,0,0
36966,-111.116936616327,4,2,1,70,0,0
39390,-100,4,2,1,75,0,0
48936,-90.9090909090909,4,2,1,85,0,0
78178,-62.5000000000032,4,2,1,85,0,1
79087,-93.7500000000273,4,2,1,85,0,1
80602,-100,4,2,1,85,0,0
85451,-62.5,4,2,1,85,0,0
86360,-93.4579439252336,4,2,1,85,0,0
87724,-111.111111111111,4,2,1,85,0,0
89087,-125,4,2,1,85,0,0
92724,-125,4,2,1,5,0,0

[Colours]
Combo1 : 189,141,119
Combo2 : 106,122,200
Combo3 : 255,230,130
Combo4 : 160,230,150

[HitObjects]
87,102,8178,6,0,P|95:54|146:133,1,225.000008583069,10|8,0:0|0:0,0:0:0:0:
342,134,9390,1,8,0:0:0:0:
342,134,9542,2,0,L|292:123,2,28.1250010728836,8|8|8,0:0|0:0|0:0,0:0:0:0:
406,210,9845,2,0,P|434:190|444:164,2,56.2500021457673,8|4|8,0:3|0:3|0:3,0:0:0:0:
336,300,10299,2,0,B|403:283|387:331|457:324,1,127.50000243187,4|10,0:0|0:0,0:0:0:0:
203,366,10906,6,0,P|165:356|137:354,1,60
110,273,11209,2,0,P|80:277|51:285,1,60,10|0,0:0|0:0,0:0:0:0:
206,258,11512,2,0,P|252:224|249:166,1,120,2|8,0:0|0:0,0:0:0:0:
159,155,11966,1,2,0:0:0:0:
159,155,12269,2,0,P|113:121|116:63,1,120,0|0,0:0|1:0,0:0:0:0:
196,32,12724,2,0,P|217:81|264:55,1,120,2|8,1:2|0:0,0:0:0:0:
375,13,13178,2,0,P|379:71|333:106,1,120,2|0,0:0|0:0,0:0:0:0:
290,187,13633,2,0,P|394:195|494:229,1,209.985840951063,8|8,0:0|0:0,0:0:0:0:
191,325,14542,5,2,0:0:0:0:
262,266,14845,2,0,P|275:294|271:322,1,52.4964602377656,8|0,0:0|0:0,0:0:0:0:
91,278,15148,2,0,P|77:238|107:165,1,119.992925221816,2|8,1:2|0:0,0:0:0:0:
226,125,15602,2,0,P|188:116|69:26,1,179.989387832724,2|8,0:0|0:0,0:0:0:0:
327,172,16360,2,0,P|365:145|442:136,1,119.992925221816,2|8,0:0|0:0,0:0:0:0:
509,255,16815,1,0,0:0:0:0:
509,255,16966,2,0,P|458:223|399:218,1,119.992925221816,2|8,0:0|0:0,0:0:0:0:
240,369,17572,2,0,P|299:363|349:331,1,119.992925221816,2|8,1:2|0:0,0:0:0:0:
140,339,18027,2,0,P|120:283|212:305,1,179.989387832724,2|8,0:0|0:0,0:0:0:0:
131,103,18936,5,0,1:0:0:0:
131,103,19087,2,0,P|161:107|187:93,1,59.9964626109081,8|0,0:0|1:0,0:0:0:0:
218,60,19315,1,0,1:0:0:0:
218,60,19390,2,0,P|248:56|274:70,1,59.9964626109081,0|8,1:0|0:3,0:0:0:0:
323,160,19693,2,0,P|353:164|379:150,1,59.9964626109081,8|4,0:3|0:3,0:0:0:0:
431,75,19996,1,4,0:0:0:0:
264,226,20299,6,0,P|229:213|195:206,1,67.4964617295186,10|0,0:0|0:0,0:0:0:0:
340,356,20603,2,0,P|373:323|349:235,1,134.992923459037,2|8,0:0|0:0,0:0:0:0:
244,312,21057,1,0,0:0:0:0:
244,312,21209,2,0,P|181:281|117:262,1,134.992923459037,2|8,0:0|0:0,0:0:0:0:
0,340,21663,2,0,P|45:336|146:356,1,134.992923459037,2|2,0:0|0:0,0:0:0:0:
52,172,22269,5,0,1:0:0:0:
52,172,22421,2,0,P|50:114|42:28,1,134.992923459037,0|8,1:2|0:0,0:0:0:0:
164,123,22875,2,0,P|158:160|156:200,1,67.4964617295186,2|0,0:0|0:0,0:0:0:0:
269,116,23178,2,0,P|263:79|261:39,1,67.4964617295186,0|8,0:0|0:0,0:0:0:0:
363,181,23481,2,0,P|405:177|362:75,1,202.489385188556,2|8,0:0|0:0,0:0:0:0:
337,258,24239,5,2,0:0:0:0:
391,318,24542,2,0,P|420:278|413:242,1,67.4964617295186,8|0,0:0|0:0,0:0:0:0:
261,283,24845,2,0,P|249:220|286:162,2,134.992923459037,2|8|2,1:2|0:0|0:0,0:0:0:0:
378,375,25603,2,0,P|365:327|333:309,1,67.4964617295186,0|8,0:0|0:0,0:0:0:0:
197,359,26057,6,0,P|130:345|64:335,1,134.992923459037,2|8,0:0|0:0,0:0:0:0:
10,235,26512,2,0,P|43:237|76:243,1,67.4964617295186,2|0,0:0|0:0,0:0:0:0:
182,208,26815,2,0,P|187:169|102:120,1,134.992923459037,2|0,0:0|1:0,0:0:0:0:
203,135,27269,2,0,P|259:98|287:38,1,134.992923459037,0|8,1:0|0:0,0:0:0:0:
104,119,27724,2,0,P|63:66|58:0,1,134.992923459037,2|0,0:0|1:0,0:0:0:0:
143,8,28178,1,8,0:0:0:0:
347,185,28481,6,0,P|386:173|416:168,1,67.4964617295186,8|0,0:0|1:0,0:0:0:0:
495,96,28784,2,0,P|456:84|426:79,1,67.4964617295186,12|8,0:0|0:0,0:0:0:0:
389,89,29012,1,8,0:0:0:0:
389,89,29087,2,0,P|355:82|323:72,1,67.4964617295186,8|0,0:0|1:0,0:0:0:0:
203,173,29390,2,0,P|235:163|268:156,1,67.4964617295186,8|4,0:3|0:3,0:0:0:0:
410,307,29693,6,0,P|461:281|471:224,1,119.992925221816,6|0,0:0|0:0,0:0:0:0:
396,176,30148,1,8,0:3:0:0:
396,176,30603,2,0,P|344:201|334:258,1,119.992925221816,0|0,1:0|0:0,0:0:0:0:
291,348,31057,2,0,P|247:329|112:313,1,179.989387832724,8|0,0:3|1:0,0:0:0:0:
8,237,31663,2,0,L|85:218,1,59.9964626109081,0|10,1:0|0:0,0:0:0:0:
271,197,32118,6,0,P|318:192|347:111,1,119.992925221816,4|0,0:0|0:0,0:0:0:0:
193,35,32572,2,0,P|212:75|289:80,1,119.992925221816,8|0,0:3|0:0,0:0:0:0:
461,91,33027,2,0,P|442:51|365:46,1,119.992925221816,0|0,1:0|0:0,0:0:0:0:
278,100,33481,2,0,P|220:99|189:50,1,119.992925221816,8|0,0:3|0:0,0:0:0:0:
68,40,33936,2,0,P|100:58|111:85,1,59.9964626109081,0|0,1:0|1:0,0:0:0:0:
54,157,34239,1,10,0:0:0:0:
182,210,34542,6,0,P|236:202|318:194,1,119.992925221816,4|0,0:0|0:0,0:0:0:0:
391,293,34996,1,8,0:3:0:0:
391,293,35451,2,0,P|375:242|428:200,1,119.992925221816,0|0,1:0|0:0,0:0:0:0:
455,350,35906,1,8,0:3:0:0:
455,350,36057,1,4,0:3:0:0:
155,266,36360,6,0,P|134:234|135:202,1,59.9964626109081,2|0,1:2|1:0,0:0:0:0:
226,179,36663,2,0,P|246:210|245:242,1,59.9964626109081,8|0,0:0|0:0,0:0:0:0:
3,116,36966,6,0,B|38:137|69:133|69:133|96:115|135:122,1,134.992923459037,4|0,0:0|0:0,0:0:0:0:
256,29,37421,2,0,P|197:27|204:88,1,134.992923459037,8|0,0:3|0:0,0:0:0:0:
303,107,37875,2,0,P|369:98|424:134,1,134.992923459037,0|0,1:0|1:0,0:0:0:0:
367,276,38330,1,8,0:0:0:0:
367,276,38481,6,0,P|324:253|357:170,1,134.992923459037,4|8,0:0|0:0,0:0:0:0:
417,348,38936,2,0,P|440:334|453:311,4,33.7482308647593,0|0|8|0|4,1:0|0:0|0:3|0:0|0:3,0:0:0:0:
316,350,39390,6,0,P|263:338|143:323,1,150,4|0,1:2|0:0,0:0:0:0:
97,226,39845,1,0,1:0:0:0:
97,226,39996,2,0,P|150:238|270:253,1,150,8|0,0:0|1:0,0:0:0:0:
317,162,40451,1,0,1:0:0:0:
228,172,40602,2,0,P|192:165|161:145,1,75,2|8,0:0|0:0,0:0:0:0:
186,73,40906,2,0,P|172:38|174:0,1,75,2|2,0:2|1:2,0:0:0:0:
388,128,41209,2,0,P|379:91|258:84,2,150,8|0|0,0:0|1:0|1:0,0:0:0:0:
448,210,41966,6,0,L|489:139,1,75,2|0,0:0|0:0,0:0:0:0:
360,229,42269,1,0,1:0:0:0:
360,229,42421,2,0,P|376:270|482:294,1,150,8|0,0:0|1:0,0:0:0:0:
249,240,43027,6,0,P|205:233|131:313,1,150,2|0,0:0|0:0,0:0:0:0:
27,263,43481,2,0,P|9:218|17:182,2,75,0|4|4,1:0|0:3|0:3,0:0:0:0:
155,167,43936,1,12,0:0:0:0:
155,167,44239,6,0,P|128:120|37:109,1,150,4|8,0:0|0:0,0:0:0:0:
237,108,44693,6,0,P|252:180|211:240,1,150,4|8,0:0|0:0,0:0:0:0:
100,339,45148,6,0,L|265:323,1,150,4|0,0:0|1:0,0:0:0:0:
335,237,45602,1,8,0:0:0:0:
335,237,45678,1,8,0:0:0:0:
335,237,45754,2,0,L|241:247,1,75,8|8,0:0|0:0,0:0:0:0:
145,246,46057,1,0,1:0:0:0:
116,146,46209,2,0,P|106:109|82:82,2,75,8|4|0,0:3|0:3|1:0,0:0:0:0:
20,196,46663,1,6,0:0:0:0:
204,175,46966,5,8,0:0:0:0:
218,177,47042,1,8,0:0:0:0:
229,186,47117,1,10,0:0:0:0:
238,197,47193,1,8,0:0:0:0:
242,211,47269,1,8,0:0:0:0:
243,226,47345,1,8,0:0:0:0:
238,240,47420,1,10,0:0:0:0:
230,252,47496,1,8,0:0:0:0:
219,261,47572,1,10,0:0:0:0:
205,266,47648,1,10,0:0:0:0:
190,263,47724,6,0,B|178:201|178:201|190:163|190:163|182:117,1,150,4|8,0:0|0:0,0:0:0:0:
158,10,48178,1,8,0:0:0:0:
373,125,48936,6,0,P|421:141|420:52,1,165.000005035401,4|0,0:0|0:0,0:0:0:0:
309,181,49390,2,0,P|300:225|317:264,1,82.5000025177003,10|0,0:0|0:0,0:0:0:0:
488,372,49693,2,0,P|454:342|326:340,1,165.000005035401,0|8,1:0|0:0,0:0:0:0:
193,325,50148,2,0,B|95:341|132:276|26:306,1,165.000005035401,2|2,0:0|0:0,0:0:0:0:
162,228,50602,1,8,0:0:0:0:
162,228,50754,2,0,P|173:171|98:92,1,165.000005035401,2|0,0:0|0:0,0:0:0:0:
238,65,51209,1,8,0:0:0:0:
238,65,51360,6,0,L|315:37,1,82.5000025177003,2|0,0:0|1:0,0:0:0:0:
311,161,51663,2,0,L|389:134,1,82.5000025177003,0|8,0:0|0:0,0:0:0:0:
418,246,51966,1,0,0:0:0:0:
296,257,52118,2,0,P|218:264|192:338,1,165.000005035401,2|8,1:2|0:0,0:0:0:0:
400,382,52572,2,0,P|369:355|361:315,1,82.5000025177003,2|0,0:0|1:0,0:0:0:0:
416,243,52875,2,0,P|389:169|311:162,1,165.000005035401,2|0,0:0|0:0,0:0:0:0:
212,262,53330,6,0,P|162:282|133:276,1,82.5000025177003,2|0,1:2|0:0,0:0:0:0:
53,219,53633,1,10,0:0:0:0:
157,176,53784,2,0,B|175:130|175:130|153:13,1,165.000005035401,4|0,0:0|0:0,0:0:0:0:
0,18,54239,2,0,L|30:192,1,165.000005035401,10|0,0:0|1:0,0:0:0:0:
402,42,54845,5,8,0:0:0:0:
320,94,54996,2,0,P|266:86|243:-15,1,165.000005035401,6|0,0:0|1:0,0:0:0:0:
361,190,55451,5,8,0:0:0:0:
361,190,55602,2,0,P|386:141|489:154,1,165.000005035401,6|0,1:2|1:0,0:0:0:0:
260,172,56057,5,8,0:0:0:0:
260,172,56209,2,0,P|280:222|204:293,1,165.000005035401,6|0,0:0|1:0,0:0:0:0:
95,230,56663,2,0,P|53:215|2:206,1,82.5000025177003,8|2,0:0|1:2,0:0:0:0:
88,373,56966,2,0,P|129:358|180:349,1,82.5000025177003,8|0,0:0|1:0,0:0:0:0:
342,362,57269,1,8,0:0:0:0:
342,362,57421,6,0,B|308:378|308:378|276:313|318:255,1,165.000005035401,6|2,0:0|1:2,0:0:0:0:
418,264,57874,1,10,0:0:0:0:
452,257,57950,1,0,0:0:0:0:
480,233,58027,1,2,1:2:0:0:
493,199,58102,1,0,0:0:0:0:
485,165,58178,1,10,1:2:0:0:
470,154,58253,1,2,1:2:0:0:
451,153,58329,1,2,1:2:0:0:
434,163,58405,1,2,1:2:0:0:
421,176,58481,1,10,0:2:0:0:
418,194,58557,1,2,0:2:0:0:
428,202,58633,2,0,P|485:162|446:81,1,165.000005035401,4|2,0:0|0:0,0:0:0:0:
238,160,59239,5,0,0:0:0:0:
238,160,59390,2,0,P|190:151|164:120,1,82.5000025177003,2|0,1:2|0:0,0:0:0:0:
117,40,59693,1,8,0:0:0:0:
24,103,59845,2,0,L|77:270,1,165.000005035401,2|2,0:0|0:0,0:0:0:0:
246,256,60299,2,0,P|205:260|175:288,1,82.5000025177003,8|0,0:0|0:0,0:0:0:0:
262,363,60602,1,0,1:0:0:0:
378,330,60754,2,0,P|362:292|328:270,1,82.5000025177003,0|8,0:0|0:0,0:0:0:0:
273,115,61057,6,0,L|307:213,1,82.5000025177003,2|0,0:0|1:0,0:0:0:0:
128,215,61360,2,0,P|102:171|186:138,1,165.000005035401,2|0,0:0|0:0,0:0:0:0:
213,234,61815,2,0,P|194:273|195:319,1,82.5000025177003,2|2,1:2|0:2,0:0:0:0:
263,366,62118,1,8,0:0:0:0:
317,287,62269,6,0,P|356:273|398:268,1,82.5000025177003,2|0,0:0|1:0,0:0:0:0:
499,379,62572,2,0,P|460:365|418:360,1,82.5000025177003,2|10,0:0|0:0,0:0:0:0:
386,175,62875,2,0,P|452:176|471:280,1,165.000005035401,2|2,0:0|0:0,0:0:0:0:
344,362,63330,1,8,0:0:0:0:
248,158,63633,6,0,L|223:74,1,82.5000025177003,4|0,0:0|0:0,0:0:0:0:
172,253,63936,2,0,P|96:233|87:156,1,165.000005035401,10|2,0:0|1:2,0:0:0:0:
148,102,64390,1,0,0:0:0:0:
271,245,64542,6,0,B|367:219|342:275|434:249,1,165.000005035401,12|0,0:0|1:0,0:0:0:0:
481,161,64996,1,0,0:0:0:0:
373,84,65148,2,0,P|356:125|365:173,1,82.5000025177003,8|0,0:0|0:0,0:0:0:0:
492,44,65451,2,0,P|411:39|338:1,1,165.000005035401,6|8,0:0|0:0,0:0:0:0:
467,170,65906,6,0,P|392:133|311:132,1,165.000005035401,4|0,0:0|1:0,0:0:0:0:
249,208,66360,1,10,0:0:0:0:
215,118,66512,1,0,0:0:0:0:
215,118,66663,2,0,P|203:76|218:32,1,82.5000025177003,2|0,1:2|0:0,0:0:0:0:
162,214,66966,2,0,P|124:191|105:149,1,82.5000025177003,8|0,0:0|0:0,0:0:0:0:
181,294,67269,2,0,P|104:318|26:290,1,165.000005035401,0|12,1:0|0:0,0:0:0:0:
56,22,67876,5,0,1:0:0:0:
52,28,67951,1,0,1:0:0:0:
50,35,68027,1,8,0:0:0:0:
51,42,68103,1,8,0:0:0:0:
53,49,68179,1,8,0:0:0:0:
147,69,68330,6,0,P|193:74|256:-18,1,165.000005035401,4|0,0:0|1:0,0:0:0:0:
220,100,68784,2,0,P|207:142|204:183,1,82.5000025177003,10|0,0:0|1:0,0:0:0:0:
348,251,69087,2,0,P|335:209|332:168,1,82.5000025177003,8|2,0:0|1:2,0:0:0:0:
461,139,69390,1,10,0:0:0:0:
349,285,69542,6,0,P|294:271|179:257,1,165.000005035401,4|0,1:2|1:0,0:0:0:0:
88,349,69996,2,0,P|135:339|177:338,1,82.5000025177003,8|0,0:0|1:0,0:0:0:0:
274,219,70299,2,0,P|227:229|185:230,1,82.5000025177003,8|2,0:0|1:2,0:0:0:0:
51,157,70602,1,8,0:0:0:0:
210,138,70754,6,0,P|230:110|141:90,1,165.000005035401,4|0,1:2|1:0,0:0:0:0:
305,102,71209,2,0,P|333:70|330:17,1,82.5000025177003,10|0,0:0|1:0,0:0:0:0:
112,1,71512,1,10,0:0:0:0:
112,1,71815,6,0,P|70:59|85:147,1,165.000005035401,4|0,0:0|0:0,0:0:0:0:
207,223,72269,1,2,1:2:0:0:
226,225,72344,1,2,0:2:0:0:
245,220,72420,1,14,0:2:0:0:
262,209,72496,1,0,0:0:0:0:
280,201,72572,1,2,0:2:0:0:
300,201,72647,1,2,0:2:0:0:
321,205,72724,2,0,L|332:253,3,41.2500012588501,10|2|8|4,0:0|1:2|0:3|0:3,0:0:0:0:
277,120,73027,1,12,0:0:0:0:
250,370,73330,6,0,P|184:323|105:336,1,165.000005035401,2|0,1:2|1:0,0:0:0:0:
21,206,73784,2,0,P|57:236|100:236,1,82.5000025177003,2|0,0:0|1:0,0:0:0:0:
89,148,74087,1,2,1:2:0:0:
89,148,74239,1,0,1:0:0:0:
184,182,74390,1,0,1:0:0:0:
258,121,74542,6,0,P|236:46|159:40,1,165.000005035401,2|0,1:2|1:0,0:0:0:0:
322,38,74996,2,0,P|336:77|334:118,1,82.5000025177003,10|0,0:0|1:0,0:0:0:0:
368,203,75299,1,8,0:0:0:0:
368,203,75451,1,8,0:0:0:0:
458,168,75602,1,8,0:0:0:0:
503,254,75754,1,6,0:0:0:0:
329,365,76057,6,8,L|270:350,3,41.2500012588501,8|0|0|0,1:2|0:0|0:0|0:0,0:0:0:0:
200,329,76360,6,8,L|143:310,3,41.2500012588501,8|0|0|0,1:2|0:0|0:2|0:0,0:0:0:0:
66,258,76663,5,10,1:2:0:0:
74,256,76738,1,8,0:0:0:0:
82,255,76814,1,8,0:0:0:0:
90,254,76890,1,8,0:0:0:0:
98,253,76966,1,10,1:2:0:0:
106,252,77041,1,8,0:0:0:0:
115,251,77117,1,8,0:0:0:0:
123,249,77193,1,8,0:0:0:0:
131,248,77269,1,10,1:2:0:0:
139,247,77344,1,8,0:0:0:0:
147,246,77420,1,8,0:0:0:0:
155,245,77496,1,8,0:0:0:0:
164,244,77572,1,10,1:2:0:0:
172,242,77647,1,8,0:0:0:0:
180,241,77723,1,8,0:0:0:0:
188,240,77799,1,8,0:0:0:0:
196,239,77875,1,10,1:2:0:0:
204,238,77950,1,8,0:0:0:0:
213,237,78026,1,8,0:0:0:0:
221,236,78102,1,8,0:0:0:0:
229,234,78178,22,1,B|295:187|272:104|272:104|248:148|210:171,1,239.999999999999,4|10,0:0|0:0,0:0:0:0:
122,253,78633,6,1,B|43:239|27:155|27:155|68:184|112:189,1,240,4|8,1:2|0:0,0:0:0:0:
228,233,79087,38,1,B|276:275|276:336|276:336|259:320|240:313,1,159.999999999953,4|8,1:2|0:0,0:0:0:0:
122,253,79542,6,1,B|95:312|120:368|120:368|129:346|142:333,1,159.999999999953,4|0,1:2|1:0,0:0:0:0:
334,208,79996,1,8,0:0:0:0:
347,206,80072,1,4,0:3:0:0:
360,208,80147,1,0,1:0:0:0:
372,215,80223,1,8,0:3:0:0:
382,225,80299,1,12,0:0:0:0:
329,119,80602,6,0,B|288:72|280:21|280:21|269:40|269:57,1,150,4|8,0:0|0:0,0:0:0:0:
408,156,81057,2,0,B|466:133|516:143|516:143|502:126|486:120,1,150,2|8,1:2|0:0,0:0:0:0:
281,183,81512,2,0,B|218:184|174:157|174:157|181:178|194:189,1,150,2|8,1:2|0:0,0:0:0:0:
272,343,81966,6,0,P|245:288|159:298,1,150,0|8,1:0|0:0,0:0:0:0:
81,367,82421,2,0,L|64:283,1,75,0|0,1:0|1:0,0:0:0:0:
40,195,82724,1,10,0:0:0:0:
322,348,83027,6,0,P|384:332|482:321,1,150,6|10,0:0|0:0,0:0:0:0:
257,279,83481,2,0,P|315:253|410:227,1,150,2|8,1:2|0:0,0:0:0:0:
198,211,83936,2,0,P|252:176|341:135,1,150,2|8,1:2|0:0,0:0:0:0:
99,202,84390,6,0,P|41:177|56:83,1,150,0|8,1:0|0:0,0:0:0:0:
171,38,84845,1,4,0:3:0:0:
175,51,84920,1,8,0:3:0:0:
175,66,84996,1,2,1:2:0:0:
171,81,85072,1,0,1:0:0:0:
163,93,85148,1,12,0:0:0:0:
411,225,85451,38,1,B|477:178|454:95|454:95|430:139|392:162,1,239.999999999999,6|8,0:0|0:0,0:0:0:0:
305,245,85906,6,1,B|226:231|210:147|210:147|251:176|295:181,1,240,6|8,1:2|0:0,0:0:0:0:
411,225,86360,38,1,B|459:267|459:328|459:328|442:312|423:305,1,159.999999999953,6|8,1:2|0:0,0:0:0:0:
305,245,86815,6,1,B|278:304|303:360|303:360|312:338|325:325,1,159.999999999953,4|8,1:2|0:0,0:0:0:0:
378,319,87193,1,8,0:0:0:0:
377,319,87269,1,8,0:0:0:0:
357,225,87421,2,0,P|312:206|274:211,1,80.2499975509644,4|8,0:3|0:3,0:0:0:0:
199,365,87724,6,0,B|181:321|181:321|207:237,1,134.999995880127,6|0,0:0|0:0,0:0:0:0:
86,255,88178,2,0,P|40:239|23:140,2,134.999995880127,8|8|0,0:0|0:0|1:0,0:0:0:0:
121,245,88860,1,0,1:0:0:0:
126,229,88935,1,0,1:0:0:0:
132,213,89011,1,0,1:0:0:0:
137,196,89087,6,0,P|132:137|117:79,1,120,10|8,0:0|0:0,0:0:0:0:
228,160,89542,2,0,P|283:139|342:127,1,120,8|8,0:0|0:0,0:0:0:0:
466,124,89996,1,0,1:0:0:0:
474,118,90072,1,0,1:0:0:0:
478,111,90148,1,0,1:0:0:0:
482,102,90224,1,0,1:0:0:0:
480,93,90299,6,0,P|441:130|453:198,1,120,10|0,0:0|0:0,0:0:0:0:
469,332,90754,2,0,P|434:285|381:258,1,120,8|8,0:0|0:0,0:0:0:0:
285,327,91209,1,0,0:0:0:0:
285,327,91360,2,0,L|302:256,2,60,2|8|2,0:0|0:0|0:0,0:0:0:0:
191,341,91738,5,0,0:0:0:0:
177,337,91814,1,2,0:0:0:0:
162,334,91890,1,0,0:0:0:0:
147,333,91966,1,10,0:0:0:0:
132,336,92041,1,2,0:0:0:0:
119,342,92117,1,10,0:0:0:0:
106,350,92193,1,2,0:0:0:0:
92,355,92269,1,10,0:0:0:0:
77,356,92344,1,2,0:0:0:0:
62,356,92420,1,10,0:0:0:0:
47,353,92496,1,2,0:0:0:0:
33,349,92572,2,0,P|22:310|34:276,1,60,10|0,0:0|0:0,0:0:0:0:
