osu file format v14

[General]
AudioFilename: audio.ogg
AudioLeadIn: 0
PreviewTime: 48925
Countdown: 0
SampleSet: Soft
StackLeniency: 0.7
Mode: 3
LetterboxInBreaks: 0
SpecialStyle: 0
WidescreenStoryboard: 1

[Editor]
DistanceSpacing: 1
BeatDivisor: 4
GridSize: 16
TimelineZoom: 1

[Metadata]
Title:Kimi no Tonari de (TV Size)
TitleUnicode:キミのとなりで (TV Size)
Artist:Kito Akari
ArtistUnicode:鬼頭明里
Creator:Savageeeee
Version:Hard
Source:安達としまむら
Tags:angki adachi to shimamura adashima j-pop jpop pop japanese anime ending ed Saori Kodama こだま さおり Tsubasa Ito いとう つばさ PCCG-01941
BeatmapID:4010451
BeatmapSetID:1939714

[Difficulty]
HPDrainRate:7.5
CircleSize:4
OverallDifficulty:7.5
ApproachRate:5
SliderMultiplier:1.4
SliderTickRate:1

[Events]
//Background and Video events
0,0,"image.jpg",0,0
Video,-285,"video.mp4"
//Break Periods
//Storyboard Layer 0 (Background)
//Storyboard Layer 1 (Fail)
//Storyboard Layer 2 (Pass)
//Storyboard Layer 3 (Foreground)
//Storyboard Layer 4 (Overlay)
//Storyboard Sound Samples
Sample,27182,0,"LR_HiHat Synth Fast.wav",60
Sample,30970,0,"tom03.wav",60
Sample,35819,0,"tom03.wav",60
Sample,43546,0,"tom04.wav",60
Sample,55212,0,"LR_Drum Hit HAT.wav",50
Sample,55819,0,"LR_Drum Hit HAT.wav",50
Sample,81425,0,"LR_Drum Hit HAT.wav",50
Sample,82334,0,"LR_Drum Hit HAT.wav",50
Sample,83849,0,"LR_Drum Hit HAT.wav",50

[TimingPoints]
516,303.030303030303,4,2,1,50,1,0
49000,-100,4,2,1,50,0,1
80515,-100,4,2,1,50,0,0

[HitObjects]
64,192,516,5,4,0:0:0:0:
448,192,516,1,2,0:0:0:0:
320,192,667,1,0,0:0:0:0:
192,192,819,1,0,0:0:0:0:
448,192,970,128,0,1273:0:0:0:0:
64,192,1273,128,0,1576:0:0:0:0:
192,192,1576,1,0,0:0:0:0:
320,192,1728,1,0,0:0:0:60:LR_HiHat Synth Fast.wav
448,192,1728,1,0,0:0:0:0:
64,192,1879,1,0,0:0:0:0:
192,192,2031,1,0,0:0:0:0:
448,192,2182,1,0,0:0:0:0:
320,192,2334,1,0,0:0:0:0:
64,192,2485,1,0,0:0:0:0:
192,192,2561,1,0,0:0:0:0:
320,192,2637,1,0,0:0:0:0:
64,192,2788,1,0,0:0:0:40:LR_Drum Hit HAT.wav
320,192,2940,1,0,0:0:0:60:LR_HiHat Synth Fast.wav
448,192,2940,1,0,0:0:0:0:
192,192,3091,1,0,0:0:0:0:
448,192,3243,1,0,0:0:0:0:
64,192,3394,1,0,0:0:0:60:LR_HiHat Synth Fast.wav
192,192,3546,1,0,0:0:0:0:
448,192,3697,1,0,0:0:0:0:
320,192,3849,1,0,0:0:0:0:
192,192,4000,1,0,0:0:0:0:
320,192,4152,1,0,0:0:0:60:LR_HiHat Synth Fast.wav
448,192,4152,1,0,0:0:0:0:
64,192,4303,1,0,0:0:0:0:
192,192,4379,1,0,0:0:0:0:
320,192,4455,1,0,0:0:0:0:
448,192,4606,1,0,0:0:0:0:
192,192,4758,1,0,0:0:0:0:
448,192,4909,1,0,0:0:0:0:
320,192,4985,1,0,0:0:0:0:
64,192,5061,1,0,0:0:0:40:LR_Drum Hit HAT.wav
192,192,5137,1,0,0:0:0:0:
320,192,5212,1,0,0:0:0:0:
64,192,5364,1,2,0:0:0:0:
448,192,5364,1,4,0:0:0:0:
192,192,5516,1,0,0:0:0:0:
320,192,5667,1,0,0:0:0:0:
64,192,5819,128,0,6122:0:0:0:0:
448,192,6122,128,0,6425:0:0:0:0:
320,192,6425,1,0,0:0:0:0:
64,192,6576,1,0,0:0:0:60:LR_HiHat Synth Fast.wav
192,192,6576,1,0,0:0:0:0:
448,192,6728,1,0,0:0:0:0:
320,192,6879,1,0,0:0:0:0:
64,192,7031,1,0,0:0:0:0:
192,192,7182,1,0,0:0:0:0:
448,192,7334,1,0,0:0:0:0:
320,192,7409,1,0,0:0:0:0:
192,192,7485,1,0,0:0:0:0:
448,192,7637,1,0,0:0:0:0:
64,192,7788,1,0,0:0:0:60:LR_HiHat Synth Fast.wav
192,192,7788,1,0,0:0:0:0:
320,192,7940,1,0,0:0:0:0:
192,192,8091,1,8,0:0:0:0:
448,192,8091,1,0,0:0:0:0:
64,192,8243,1,0,0:0:0:0:
320,192,8394,1,0,0:0:0:0:
192,192,8546,1,0,0:0:0:0:
320,192,8697,1,8,0:0:0:0:
448,192,8697,1,0,0:0:0:0:
64,192,8849,1,0,0:0:0:0:
448,192,9000,1,0,0:0:0:60:LR_HiHat Synth Fast.wav
320,192,9152,1,0,0:0:0:0:
64,192,9303,1,8,0:0:0:0:
192,192,9303,1,0,0:0:0:0:
320,192,9455,1,8,0:0:0:0:
192,192,9531,1,8,0:0:0:0:
64,192,9606,1,8,0:0:0:0:
448,192,9606,1,0,0:0:0:0:
192,192,9758,1,0,0:0:0:60:tom02.wav
320,192,9909,1,0,0:0:0:60:tom03.wav
192,192,10061,1,0,0:0:0:60:tom04.wav
64,192,10212,1,4,0:0:0:0:
448,192,10212,1,2,0:0:0:0:
192,192,10515,128,8,10819:0:0:0:0:
320,192,10515,1,0,0:0:0:0:
448,192,10819,1,0,0:0:0:60:LR_HiHat Synth Fast.wav
64,192,10970,1,0,0:0:0:0:
320,192,11122,1,8,0:0:0:0:
448,192,11122,1,0,0:0:0:0:
64,192,11273,1,0,0:0:0:0:
320,192,11425,128,0,11728:0:0:0:60:LR_HiHat Synth Fast.wav
192,192,11576,1,0,0:0:0:0:
64,192,11728,1,8,0:0:0:0:
448,192,11728,1,0,0:0:0:0:
192,192,11879,128,0,12182:0:0:0:0:
320,192,12031,1,0,0:0:0:60:LR_HiHat Synth Fast.wav
448,192,12182,128,0,12334:0:0:0:0:
64,192,12334,1,8,0:0:0:0:
192,192,12334,1,0,0:0:0:0:
320,192,12485,1,2,0:0:0:0:
64,192,12637,128,2,12940:0:0:0:0:
192,192,12637,1,0,0:0:0:60:LR_HiHat Synth Fast.wav
448,192,12788,1,0,0:0:0:0:
192,192,12940,1,8,0:0:0:0:
320,192,12940,1,0,0:0:0:0:
448,192,13091,128,0,14000:0:0:0:0:
64,192,13243,1,0,0:0:0:60:LR_HiHat Synth Fast.wav
320,192,13394,1,0,0:0:0:0:
64,192,13546,1,8,0:0:0:0:
192,192,13546,1,0,0:0:0:0:
320,192,13697,1,0,0:0:0:0:
64,192,13849,1,0,0:0:0:60:LR_HiHat Synth Fast.wav
192,192,14000,1,0,0:0:0:0:
320,192,14152,1,8,0:0:0:0:
448,192,14152,1,0,0:0:0:0:
64,192,14303,1,0,0:0:0:0:
192,192,14455,128,0,14758:0:0:0:60:LR_HiHat Synth Fast.wav
320,192,14606,1,0,0:0:0:0:
64,192,14758,1,8,0:0:0:0:
448,192,14758,128,0,15061:0:0:0:0:
320,192,14909,1,0,0:0:0:50:LR_Drum Hit HAT.wav
64,192,15061,128,2,15364:0:0:0:0:
192,192,15061,1,0,0:0:0:0:
448,192,15212,1,0,0:0:0:0:
192,192,15364,1,8,0:0:0:0:
320,192,15364,1,0,0:0:0:0:
448,192,15515,128,0,15819:0:0:0:0:
64,192,15667,1,0,0:0:0:60:LR_HiHat Synth Fast.wav
320,192,15819,1,0,0:0:0:0:
64,192,15970,1,8,0:0:0:0:
192,192,15970,1,0,0:0:0:0:
448,192,16122,1,0,0:0:0:0:
192,192,16273,128,0,16576:0:0:0:60:LR_HiHat Synth Fast.wav
320,192,16425,1,0,0:0:0:0:
64,192,16576,1,8,0:0:0:0:
448,192,16576,1,0,0:0:0:0:
320,192,16728,128,0,17031:0:0:0:0:
192,192,16879,1,0,0:0:0:60:LR_HiHat Synth Fast.wav
448,192,17031,1,0,0:0:0:0:
64,192,17182,1,8,0:0:0:0:
192,192,17182,1,0,0:0:0:0:
320,192,17334,1,2,0:0:0:0:
64,192,17485,128,2,17788:0:0:0:0:
448,192,17485,1,0,0:0:0:60:LR_HiHat Synth Fast.wav
192,192,17788,1,8,0:0:0:0:
320,192,17788,1,0,0:0:0:0:
448,192,17940,128,0,18394:0:0:0:0:
64,192,18091,1,0,0:0:0:60:LR_HiHat Synth Fast.wav
320,192,18243,1,0,0:0:0:0:
64,192,18394,1,8,0:0:0:0:
192,192,18394,1,0,0:0:0:0:
448,192,18546,1,0,0:0:0:0:
192,192,18697,1,0,0:0:0:60:LR_HiHat Synth Fast.wav
64,192,18849,1,2,0:0:0:0:
320,192,19000,1,8,0:0:0:0:
448,192,19000,1,0,0:0:0:0:
192,192,19152,1,0,0:0:0:60:tom02.wav
320,192,19228,1,0,0:0:0:60:tom02.wav
64,192,19303,1,0,0:0:0:60:tom03.wav
448,192,19303,1,0,0:0:0:0:
192,192,19455,1,0,0:0:0:60:tom03.wav
448,192,19606,1,0,0:0:0:60:tom04.wav
320,192,19758,1,0,0:0:0:60:tom04.wav
64,192,19909,1,4,0:0:0:0:
192,192,19909,1,2,0:0:0:0:
448,192,20061,1,0,0:0:0:0:
64,192,20212,1,8,0:0:0:0:
320,192,20212,1,0,0:0:0:0:
192,192,20364,1,0,0:0:0:0:
448,192,20516,128,0,20819:0:0:0:60:LR_HiHat Synth Fast.wav
64,192,20667,1,0,0:0:0:0:
192,192,20819,1,8,0:0:0:0:
320,192,20819,1,0,0:0:0:0:
448,192,20970,1,0,0:0:0:0:
64,192,21122,1,0,0:0:0:60:LR_HiHat Synth Fast.wav
192,192,21273,1,0,0:0:0:0:
320,192,21425,1,8,0:0:0:0:
448,192,21425,1,0,0:0:0:0:
64,192,21576,128,0,21879:0:0:0:0:
320,192,21728,1,0,0:0:0:60:LR_HiHat Synth Fast.wav
448,192,21879,128,0,22031:0:0:0:0:
64,192,22031,1,8,0:0:0:0:
192,192,22031,1,0,0:0:0:0:
320,192,22182,1,2,0:0:0:0:
64,192,22334,128,2,22637:0:0:0:0:
448,192,22334,1,0,0:0:0:60:LR_HiHat Synth Fast.wav
192,192,22485,1,0,0:0:0:0:
320,192,22637,1,8,0:0:0:0:
448,192,22637,1,0,0:0:0:0:
192,192,22788,128,0,23091:0:0:0:0:
64,192,22940,1,0,0:0:0:60:LR_HiHat Synth Fast.wav
448,192,23091,128,0,23394:0:0:0:0:
192,192,23243,1,8,0:0:0:0:
320,192,23243,1,0,0:0:0:0:
64,192,23394,128,0,23546:0:0:0:0:
320,192,23546,1,0,0:0:0:60:LR_HiHat Synth Fast.wav
192,192,23697,1,0,0:0:0:0:
320,192,23849,1,8,0:0:0:0:
448,192,23849,1,0,0:0:0:0:
64,192,24000,1,0,0:0:0:0:
448,192,24152,128,0,24455:0:0:0:60:LR_HiHat Synth Fast.wav
192,192,24303,1,0,0:0:0:0:
64,192,24455,128,8,24758:0:0:0:0:
320,192,24455,1,0,0:0:0:0:
192,192,24606,1,0,0:0:0:50:LR_Drum Hit HAT.wav
320,192,24758,128,2,25061:0:0:0:0:
448,192,24758,1,0,0:0:0:0:
192,192,24909,1,0,0:0:0:0:
64,192,25061,1,8,0:0:0:0:
448,192,25061,1,0,0:0:0:0:
320,192,25212,1,0,0:0:0:0:
192,192,25364,128,0,25667:0:0:0:60:LR_HiHat Synth Fast.wav
64,192,25516,1,0,0:0:0:0:
320,192,25667,1,8,0:0:0:0:
448,192,25667,1,0,0:0:0:0:
192,192,25819,1,0,0:0:0:0:
64,192,25970,128,0,26273:0:0:0:60:LR_HiHat Synth Fast.wav
320,192,26122,1,0,0:0:0:0:
192,192,26273,1,8,0:0:0:0:
448,192,26273,1,0,0:0:0:0:
320,192,26425,128,0,26728:0:0:0:0:
192,192,26576,1,0,0:0:0:60:LR_HiHat Synth Fast.wav
64,192,26728,128,0,26879:0:0:0:0:
320,192,26879,1,8,0:0:0:0:
448,192,26879,1,0,0:0:0:0:
64,192,27031,1,2,0:0:0:0:
448,192,27182,128,2,27485:0:0:0:0:
192,192,27334,1,0,0:0:0:0:
64,192,27485,1,8,0:0:0:0:
320,192,27485,1,0,0:0:0:0:
192,192,27637,128,0,27940:0:0:0:0:
320,192,27788,1,0,0:0:0:60:LR_HiHat Synth Fast.wav
448,192,27940,128,2,28091:0:0:0:0:
64,192,28091,1,8,0:0:0:0:
192,192,28091,1,0,0:0:0:0:
320,192,28243,1,2,0:0:0:0:
64,192,28394,128,8,28697:0:0:0:0:
448,192,28394,1,0,0:0:0:0:
320,192,28546,1,2,0:0:0:0:
192,192,28697,1,4,0:0:0:0:
448,192,28697,1,8,0:0:0:0:
320,192,28849,1,8,0:0:0:0:
192,192,28925,1,8,0:0:0:0:
64,192,29000,1,8,0:0:0:0:
448,192,29000,128,0,29303:0:0:0:0:
320,192,29152,1,0,0:0:0:60:tom02.wav
192,192,29303,1,0,0:0:0:60:tom03.wav
320,192,29455,1,0,0:0:0:60:tom04.wav
64,192,29606,128,4,31425:0:0:0:0:
448,192,29606,1,2,0:0:0:0:
192,192,30061,1,0,0:0:0:60:tom01.wav
320,192,30516,1,0,0:0:0:60:tom02.wav
448,192,30970,1,2,0:0:0:0:
192,192,31425,1,2,0:0:0:0:
320,192,31576,1,2,0:0:0:0:
64,192,31728,1,8,0:0:0:0:
192,192,31728,1,0,0:0:0:0:
448,192,31879,128,0,32182:0:0:0:0:
192,192,32031,1,2,0:0:0:0:
320,192,32031,1,4,0:0:0:0:
64,192,32182,128,0,32485:0:0:0:0:
320,192,32485,128,0,32788:0:0:0:60:tom01.wav
192,192,32788,128,0,33091:0:0:0:0:
64,192,32940,1,0,0:0:0:60:tom02.wav
448,192,33091,128,0,33394:0:0:0:0:
320,192,33394,1,0,0:0:0:60:tom03.wav
64,192,33546,128,0,33849:0:0:0:0:
448,192,33849,1,2,0:0:0:0:
320,192,34000,1,2,0:0:0:0:
64,192,34152,1,8,0:0:0:0:
192,192,34152,1,4,0:0:0:0:
448,192,34303,1,0,0:0:0:0:
192,192,34455,1,4,0:0:0:0:
320,192,34455,128,2,34758:0:0:0:0:
64,192,34758,1,0,0:0:0:0:
192,192,34909,128,0,35212:0:0:0:60:tom01.wav
448,192,35212,1,0,0:0:0:0:
320,192,35364,128,0,35667:0:0:0:60:tom02.wav
64,192,35667,1,0,0:0:0:0:
448,192,35819,1,2,0:0:0:0:
192,192,35970,128,0,36273:0:0:0:0:
64,192,36273,128,2,36576:0:0:0:0:
320,192,36425,1,2,0:0:0:0:
192,192,36576,1,8,0:0:0:0:
448,192,36576,128,0,36879:0:0:0:0:
64,192,36879,1,4,0:0:0:0:
192,192,36879,1,2,0:0:0:0:
320,192,37031,1,0,0:0:0:0:
192,192,37182,1,0,0:0:0:0:
448,192,37334,1,0,0:0:0:60:tom01.wav
320,192,37485,1,0,0:0:0:0:
64,192,37637,1,0,0:0:0:0:
192,192,37788,1,0,0:0:0:60:tom02.wav
320,192,37940,1,0,0:0:0:0:
64,192,38091,128,2,38394:0:0:0:0:
192,192,38243,1,8,0:0:0:0:
448,192,38243,1,0,0:0:0:0:
320,192,38394,1,2,0:0:0:0:
448,192,38394,1,4,0:0:0:0:
192,192,38546,1,8,0:0:0:0:
320,192,38622,1,8,0:0:0:0:
64,192,38697,1,8,0:0:0:0:
448,192,38697,1,0,0:0:0:0:
192,192,38849,1,0,0:0:0:60:tom02.wav
320,192,39000,1,0,0:0:0:60:tom03.wav
192,192,39152,1,0,0:0:0:60:tom04.wav
64,192,39303,1,4,0:0:0:0:
448,192,39303,1,2,0:0:0:0:
320,192,39455,128,0,39758:0:0:0:0:
192,192,39758,1,2,0:0:0:0:
64,192,39909,1,8,0:0:0:0:
448,192,39909,1,0,0:0:0:0:
320,192,40061,1,0,0:0:0:0:
192,192,40212,1,2,0:0:0:0:
320,192,40364,1,2,0:0:0:0:
64,192,40515,128,0,40819:0:0:0:0:
192,192,40667,1,8,0:0:0:0:
448,192,40667,1,0,0:0:0:0:
320,192,40819,1,0,0:0:0:0:
448,192,40970,128,2,41273:0:0:0:0:
64,192,41122,1,8,0:0:0:0:
192,192,41122,1,0,0:0:0:0:
320,192,41273,1,0,0:0:0:0:
64,192,41425,1,2,0:0:0:0:
192,192,41576,1,0,0:0:0:0:
320,192,41728,1,2,0:0:0:0:
448,192,41728,1,0,0:0:0:0:
64,192,41879,128,0,42182:0:0:0:0:
192,192,42182,1,2,0:0:0:0:
320,192,42334,128,8,42637:0:0:0:0:
448,192,42334,1,0,0:0:0:0:
192,192,42637,128,2,42940:0:0:0:0:
320,192,42788,1,2,0:0:0:0:
448,192,42940,128,0,43243:0:0:0:0:
64,192,43091,1,8,0:0:0:0:
320,192,43091,1,0,0:0:0:0:
192,192,43243,1,0,0:0:0:0:
64,192,43394,128,2,43697:0:0:0:0:
448,192,43546,1,8,0:0:0:0:
320,192,43697,1,2,0:0:0:0:
64,192,43849,1,4,0:0:0:0:
192,192,43849,1,8,0:0:0:0:
448,192,44000,1,0,0:0:0:0:
192,192,44152,1,2,0:0:0:0:
320,192,44152,128,4,44455:0:0:0:0:
64,192,44455,1,8,0:0:0:0:
448,192,44455,1,0,0:0:0:0:
192,192,44606,128,4,44909:0:0:0:0:
320,192,44606,1,2,0:0:0:0:
64,192,44909,1,8,0:0:0:0:
448,192,44909,1,0,0:0:0:0:
192,192,45061,1,2,0:0:0:0:
320,192,45061,128,4,45364:0:0:0:0:
448,192,45364,1,2,0:0:0:0:
64,192,45515,1,8,0:0:0:0:
192,192,45591,1,8,0:0:0:0:
320,192,45667,1,8,0:0:0:0:
448,192,45667,1,0,0:0:0:0:
64,192,45819,1,8,0:0:0:0:
192,192,45819,1,0,0:0:0:0:
448,192,45970,1,0,0:0:0:60:tom01.wav
320,192,46122,1,0,0:0:0:60:tom02.wav
192,192,46273,1,0,0:0:0:60:tom03.wav
320,192,46425,1,0,0:0:0:60:tom04.wav
64,192,46576,128,4,46879:0:0:0:0:
448,192,46576,1,2,0:0:0:0:
192,192,46879,1,8,0:0:0:0:
448,192,46879,1,2,0:0:0:0:
320,192,46955,1,8,0:0:0:0:
64,192,47031,1,8,0:0:0:0:
192,192,47106,1,8,0:0:0:0:
448,192,47182,1,10,0:0:0:0:
320,192,47258,1,8,0:0:0:0:
64,192,47334,1,8,0:0:0:0:
192,192,47409,1,8,0:0:0:0:
448,192,47485,1,8,0:0:0:0:
320,192,47561,1,8,0:0:0:0:
64,192,47637,1,2,0:0:0:0:
192,192,47637,128,4,47788:0:0:0:0:
64,192,47940,1,8,0:0:0:0:
448,192,47940,1,0,0:0:0:0:
192,192,48091,1,8,0:0:0:0:
320,192,48091,1,0,0:0:0:0:
64,192,48849,128,2,49152:0:0:0:0:
192,192,48849,1,4,0:0:0:0:
448,192,48849,1,0,0:0:0:0:
320,192,49152,1,0,0:0:0:0:
192,192,49303,1,8,0:0:0:0:
448,192,49303,128,0,49606:0:0:0:0:
320,192,49455,1,0,0:0:0:50:LR_Drum Hit HAT.wav
192,192,49606,128,2,49909:0:0:0:0:
64,192,49758,1,0,0:0:0:50:LR_Drum Hit HAT.wav
320,192,49909,1,8,0:0:0:0:
448,192,49909,1,0,0:0:0:0:
64,192,50061,128,0,50364:0:0:0:50:LR_Drum Hit HAT.wav
192,192,50212,1,2,0:0:0:0:
448,192,50364,128,0,50515:0:0:0:50:LR_Drum Hit HAT.wav
64,192,50515,1,8,0:0:0:0:
320,192,50515,1,0,0:0:0:0:
192,192,50667,1,0,0:0:0:50:LR_Drum Hit HAT.wav
320,192,50819,128,2,51122:0:0:0:0:
192,192,50970,1,0,0:0:0:50:LR_Drum Hit HAT.wav
64,192,51122,1,8,0:0:0:0:
448,192,51122,1,0,0:0:0:0:
192,192,51273,128,0,51425:0:0:0:50:LR_Drum Hit HAT.wav
320,192,51425,1,2,0:0:0:0:
64,192,51576,128,0,51879:0:0:0:50:LR_Drum Hit HAT.wav
320,192,51728,1,8,0:0:0:0:
448,192,51728,1,0,0:0:0:0:
192,192,51879,1,0,0:0:0:50:LR_Drum Hit HAT.wav
448,192,52031,128,2,52334:0:0:0:0:
192,192,52182,1,0,0:0:0:50:LR_Drum Hit HAT.wav
64,192,52334,1,8,0:0:0:0:
320,192,52334,1,0,0:0:0:0:
192,192,52485,128,0,52788:0:0:0:50:LR_Drum Hit HAT.wav
320,192,52637,1,2,0:0:0:0:
448,192,52788,128,0,52940:0:0:0:50:LR_Drum Hit HAT.wav
64,192,52940,1,8,0:0:0:0:
192,192,52940,1,0,0:0:0:0:
320,192,53091,1,0,0:0:0:50:LR_Drum Hit HAT.wav
64,192,53243,1,2,0:0:0:0:
192,192,53394,1,0,0:0:0:50:LR_Drum Hit HAT.wav
320,192,53546,1,8,0:0:0:0:
448,192,53546,1,0,0:0:0:0:
64,192,53697,128,2,54000:0:0:0:0:
192,192,53697,1,4,0:0:0:0:
320,192,54000,1,0,0:0:0:50:LR_Drum Hit HAT.wav
192,192,54152,128,8,54455:0:0:0:0:
448,192,54152,1,0,0:0:0:0:
64,192,54303,1,0,0:0:0:50:LR_Drum Hit HAT.wav
320,192,54455,1,2,0:0:0:0:
448,192,54606,1,0,0:0:0:50:LR_Drum Hit HAT.wav
64,192,54758,1,8,0:0:0:0:
192,192,54758,1,0,0:0:0:0:
320,192,54909,1,2,0:0:0:0:
448,192,54909,128,4,55212:0:0:0:0:
192,192,55212,1,2,0:0:0:0:
64,192,55364,1,8,0:0:0:0:
448,192,55364,1,0,0:0:0:0:
192,192,55515,128,2,55819:0:0:0:0:
320,192,55515,1,4,0:0:0:0:
448,192,55819,1,2,0:0:0:0:
64,192,55970,1,8,0:0:0:0:
192,192,55970,1,0,0:0:0:0:
320,192,56122,1,4,0:0:0:0:
448,192,56122,128,2,56425:0:0:0:0:
192,192,56425,128,2,56576:0:0:0:0:
64,192,56576,1,8,0:0:0:0:
448,192,56576,1,0,0:0:0:50:LR_Drum Hit HAT.wav
320,192,56728,128,2,56879:0:0:0:0:
64,192,56879,1,8,0:0:0:0:
448,192,56879,1,0,0:0:0:50:LR_Drum Hit HAT.wav
192,192,57031,128,2,57182:0:0:0:0:
320,192,57182,1,8,0:0:0:0:
448,192,57182,1,0,0:0:0:0:
64,192,57334,128,2,57637:0:0:0:0:
192,192,57334,1,4,0:0:0:0:
320,192,57637,1,2,0:0:0:0:
64,192,57788,1,8,0:0:0:0:
448,192,57788,1,0,0:0:0:50:LR_Drum Hit HAT.wav
192,192,57940,1,2,0:0:0:0:
64,192,58091,1,8,0:0:0:0:
448,192,58091,1,0,0:0:0:0:
320,192,58167,1,0,0:0:0:60:tom03.wav
192,192,58243,1,0,0:0:0:60:tom04.wav
64,192,58319,1,2,0:0:0:0:
320,192,58394,1,8,0:0:0:0:
448,192,58394,1,0,0:0:0:0:
64,192,58546,128,4,58849:0:0:0:0:
192,192,58546,1,2,0:0:0:0:
448,192,58849,128,0,59152:0:0:0:50:LR_Drum Hit HAT.wav
64,192,59000,1,8,0:0:0:0:
320,192,59000,1,0,0:0:0:0:
192,192,59152,1,0,0:0:0:50:LR_Drum Hit HAT.wav
320,192,59303,128,2,59606:0:0:0:0:
64,192,59455,1,0,0:0:0:50:LR_Drum Hit HAT.wav
192,192,59606,1,8,0:0:0:0:
448,192,59606,1,0,0:0:0:0:
64,192,59758,128,0,60061:0:0:0:50:LR_Drum Hit HAT.wav
320,192,59909,1,2,0:0:0:0:
448,192,60061,128,0,60212:0:0:0:50:LR_Drum Hit HAT.wav
64,192,60212,1,8,0:0:0:0:
192,192,60212,1,0,0:0:0:0:
320,192,60364,1,0,0:0:0:50:LR_Drum Hit HAT.wav
64,192,60515,1,2,0:0:0:0:
192,192,60667,1,0,0:0:0:50:LR_Drum Hit HAT.wav
320,192,60819,1,8,0:0:0:0:
448,192,60819,1,0,0:0:0:0:
192,192,60970,128,0,61273:0:0:0:50:LR_Drum Hit HAT.wav
64,192,61122,1,2,0:0:0:0:
448,192,61273,128,0,61425:0:0:0:50:LR_Drum Hit HAT.wav
64,192,61425,1,8,0:0:0:0:
320,192,61425,1,0,0:0:0:0:
192,192,61576,1,0,0:0:0:50:LR_Drum Hit HAT.wav
448,192,61728,1,2,0:0:0:0:
320,192,61879,1,0,0:0:0:50:LR_Drum Hit HAT.wav
64,192,62031,1,8,0:0:0:0:
192,192,62031,1,0,0:0:0:0:
448,192,62182,128,0,62485:0:0:0:50:LR_Drum Hit HAT.wav
320,192,62334,1,2,0:0:0:0:
64,192,62485,128,0,62637:0:0:0:50:LR_Drum Hit HAT.wav
192,192,62637,1,8,0:0:0:0:
448,192,62637,1,0,0:0:0:0:
320,192,62788,1,0,0:0:0:50:LR_Drum Hit HAT.wav
64,192,62940,1,2,0:0:0:0:
192,192,63091,1,0,0:0:0:50:LR_Drum Hit HAT.wav
320,192,63243,1,8,0:0:0:0:
448,192,63243,1,0,0:0:0:0:
192,192,63394,1,0,0:0:0:50:LR_Drum Hit HAT.wav
64,192,63546,1,2,0:0:0:0:
448,192,63546,1,4,0:0:0:0:
320,192,63697,1,0,0:0:0:0:
64,192,63849,128,8,64152:0:0:0:0:
192,192,63849,1,0,0:0:0:0:
320,192,64000,1,0,0:0:0:50:LR_Drum Hit HAT.wav
448,192,64152,128,2,64455:0:0:0:0:
320,192,64303,1,0,0:0:0:50:LR_Drum Hit HAT.wav
64,192,64455,1,4,0:0:0:0:
192,192,64455,1,8,0:0:0:0:
448,192,64606,1,0,0:0:0:0:
320,192,64758,128,2,65061:0:0:0:0:
192,192,64909,1,0,0:0:0:50:LR_Drum Hit HAT.wav
64,192,65061,1,8,0:0:0:0:
448,192,65061,1,0,0:0:0:0:
320,192,65212,1,0,0:0:0:50:LR_Drum Hit HAT.wav
64,192,65364,128,4,65667:0:0:0:0:
192,192,65364,1,2,0:0:0:0:
320,192,65667,1,8,0:0:0:0:
448,192,65667,1,0,0:0:0:0:
64,192,65819,1,2,0:0:0:0:
192,192,65819,128,4,66122:0:0:0:0:
448,192,66122,1,2,0:0:0:0:
64,192,66273,1,8,0:0:0:0:
320,192,66273,1,0,0:0:0:0:
192,192,66425,1,0,0:0:0:0:
320,192,66576,1,2,0:0:0:0:
448,192,66576,128,0,67485:0:0:0:0:
64,192,66728,1,0,0:0:0:0:
320,192,66879,1,8,0:0:0:0:
192,192,67031,1,0,0:0:0:0:
64,192,67182,1,2,0:0:0:0:
320,192,67334,1,0,0:0:0:0:
64,192,67485,1,8,0:0:0:0:
192,192,67485,1,4,0:0:0:0:
320,192,67637,1,0,0:0:0:0:
448,192,67788,1,2,0:0:0:0:
64,192,67940,1,8,0:0:0:0:
192,192,68015,1,8,0:0:0:0:
320,192,68091,1,8,0:0:0:0:
448,192,68091,1,0,0:0:0:0:
64,192,68243,128,8,68546:0:0:0:0:
192,192,68243,1,4,0:0:0:0:
320,192,68546,1,2,0:0:0:0:
192,192,68697,1,8,0:0:0:0:
448,192,68697,1,0,0:0:0:50:LR_Drum Hit HAT.wav
64,192,68849,1,2,0:0:0:0:
320,192,69000,1,8,0:0:0:0:
448,192,69000,1,0,0:0:0:50:LR_Drum Hit HAT.wav
192,192,69152,1,2,0:0:0:0:
64,192,69303,1,8,0:0:0:0:
320,192,69303,1,0,0:0:0:0:
192,192,69455,1,2,0:0:0:0:
448,192,69455,128,4,69758:0:0:0:0:
320,192,69758,1,2,0:0:0:0:
64,192,69909,1,8,0:0:0:0:
192,192,69909,1,0,0:0:0:50:LR_Drum Hit HAT.wav
448,192,70061,1,2,0:0:0:0:
64,192,70212,1,8,0:0:0:0:
320,192,70212,1,0,0:0:0:50:LR_Drum Hit HAT.wav
192,192,70364,1,2,0:0:0:0:
320,192,70515,1,8,0:0:0:0:
448,192,70515,1,0,0:0:0:0:
64,192,70667,1,4,0:0:0:0:
192,192,70667,128,2,70970:0:0:0:0:
320,192,70970,1,2,0:0:0:0:
64,192,71122,1,8,0:0:0:0:
448,192,71122,1,0,0:0:0:50:LR_Drum Hit HAT.wav
192,192,71273,1,2,0:0:0:0:
320,192,71425,1,8,0:0:0:0:
448,192,71425,1,0,0:0:0:50:LR_Drum Hit HAT.wav
64,192,71728,128,8,72182:0:0:0:0:
192,192,71728,1,4,0:0:0:0:
320,192,71728,1,0,0:0:0:0:
448,192,72182,1,2,0:0:0:0:
64,192,72334,1,8,0:0:0:0:
192,192,72334,1,4,0:0:0:0:
320,192,72485,1,2,0:0:0:0:
64,192,72637,1,8,0:0:0:0:
448,192,72637,1,0,0:0:0:0:
192,192,72712,1,0,0:0:0:60:tom03.wav
320,192,72788,1,0,0:0:0:60:tom04.wav
448,192,72864,1,2,0:0:0:0:
64,192,72940,1,8,0:0:0:0:
192,192,72940,1,4,0:0:0:0:
320,192,73091,1,0,0:0:0:0:
64,192,73243,128,2,73546:0:0:0:0:
448,192,73243,1,0,0:0:0:0:
320,192,73546,1,8,0:0:0:0:
448,192,73546,1,2,0:0:0:0:
192,192,73697,1,8,0:0:0:0:
448,192,73697,1,0,0:0:0:0:
64,192,73849,1,8,0:0:0:0:
320,192,73849,1,2,0:0:0:0:
64,192,74000,1,8,0:0:0:0:
448,192,74000,1,0,0:0:0:0:
192,192,74152,1,8,0:0:0:0:
320,192,74152,1,2,0:0:0:0:
64,192,74303,1,8,0:0:0:0:
320,192,74303,1,0,0:0:0:0:
192,192,74455,1,8,0:0:0:0:
448,192,74455,1,2,0:0:0:0:
192,192,74606,1,8,0:0:0:0:
320,192,74606,1,0,0:0:0:0:
64,192,74758,1,8,0:0:0:0:
448,192,74758,1,2,0:0:0:0:
64,192,74909,1,8,0:0:0:0:
320,192,74909,1,0,0:0:0:0:
192,192,75061,1,8,0:0:0:0:
448,192,75061,1,2,0:0:0:0:
64,192,75212,1,8,0:0:0:0:
448,192,75212,1,0,0:0:0:0:
192,192,75364,1,8,0:0:0:0:
320,192,75364,1,2,0:0:0:0:
64,192,75515,1,8,0:0:0:0:
320,192,75515,1,0,0:0:0:0:
192,192,75667,1,4,0:0:0:0:
448,192,75667,128,2,75970:0:0:0:0:
64,192,75970,1,10,0:0:0:0:
192,192,76046,1,8,0:0:0:0:
448,192,76122,1,8,0:0:0:0:
320,192,76197,1,8,0:0:0:0:
64,192,76273,1,10,0:0:0:0:
192,192,76349,1,8,0:0:0:0:
448,192,76425,1,8,0:0:0:0:
320,192,76500,1,8,0:0:0:0:
64,192,76576,1,10,0:0:0:0:
192,192,76652,1,8,0:0:0:0:
448,192,76728,1,8,0:0:0:0:
320,192,76803,1,8,0:0:0:0:
64,192,76879,1,10,0:0:0:0:
192,192,76955,1,8,0:0:0:0:
320,192,77031,1,8,0:0:0:0:
448,192,77106,1,8,0:0:0:0:
64,192,77182,1,10,0:0:0:0:
192,192,77258,1,8,0:0:0:0:
320,192,77334,1,8,0:0:0:0:
448,192,77409,1,8,0:0:0:0:
64,192,77485,1,10,0:0:0:0:
192,192,77561,1,8,0:0:0:0:
320,192,77637,1,8,0:0:0:0:
448,192,77712,1,8,0:0:0:0:
64,192,77788,1,10,0:0:0:0:
192,192,77864,1,8,0:0:0:0:
320,192,77940,1,8,0:0:0:0:
448,192,78015,1,8,0:0:0:0:
64,192,78091,1,4,0:0:0:0:
192,192,78091,1,2,0:0:0:0:
64,192,78394,1,8,0:0:0:0:
448,192,78394,1,0,0:0:0:0:
192,192,78546,1,4,0:0:0:0:
320,192,78546,1,2,0:0:0:0:
192,192,78849,1,8,0:0:0:0:
448,192,78849,1,0,0:0:0:0:
64,192,79000,1,2,0:0:0:0:
320,192,79000,1,4,0:0:0:0:
64,192,79303,1,8,0:0:0:0:
192,192,79303,1,0,0:0:0:0:
320,192,79455,1,4,0:0:0:0:
448,192,79455,1,2,0:0:0:0:
192,192,79758,1,2,0:0:0:0:
320,192,79758,1,0,0:0:0:0:
64,192,79909,1,8,0:0:0:0:
448,192,79909,1,0,0:0:0:0:
192,192,79985,1,0,0:0:0:60:tom02.wav
320,192,80061,1,0,0:0:0:60:tom03.wav
448,192,80137,1,2,0:0:0:0:
64,192,80212,1,8,0:0:0:0:
192,192,80212,1,4,0:0:0:0:
64,192,80515,1,4,0:0:0:0:
320,192,80515,1,2,0:0:0:0:
448,192,80515,128,0,80819:0:0:0:0:
64,192,80819,1,8,0:0:0:0:
192,192,80819,1,0,0:0:0:50:LR_Drum Hit HAT.wav
320,192,80970,128,2,81273:0:0:0:0:
192,192,81273,1,8,0:0:0:0:
448,192,81273,1,0,0:0:0:0:
64,192,81425,128,2,81728:0:0:0:0:
320,192,81728,1,8,0:0:0:0:
448,192,81728,1,0,0:0:0:50:LR_Drum Hit HAT.wav
192,192,81879,1,2,0:0:0:0:
448,192,82031,1,0,0:0:0:50:LR_Drum Hit HAT.wav
64,192,82182,1,8,0:0:0:0:
192,192,82182,1,0,0:0:0:0:
320,192,82334,1,2,0:0:0:0:
64,192,82485,1,2,0:0:0:0:
192,192,82637,1,8,0:0:0:0:
448,192,82637,1,0,0:0:0:50:LR_Drum Hit HAT.wav
320,192,82788,1,0,0:0:0:0:
64,192,82940,128,4,83243:0:0:0:0:
192,192,82940,1,2,0:0:0:0:
320,192,83243,1,8,0:0:0:0:
448,192,83243,1,0,0:0:0:50:LR_Drum Hit HAT.wav
192,192,83394,128,2,83697:0:0:0:0:
64,192,83697,1,8,0:0:0:0:
320,192,83697,1,0,0:0:0:0:
448,192,83849,128,2,84152:0:0:0:0:
64,192,84152,1,8,0:0:0:0:
192,192,84152,1,0,0:0:0:50:LR_Drum Hit HAT.wav
320,192,84303,1,2,0:0:0:0:
192,192,84455,1,0,0:0:0:50:LR_Drum Hit HAT.wav
320,192,84606,1,8,0:0:0:0:
448,192,84606,1,0,0:0:0:0:
64,192,84758,1,0,0:0:0:60:tom01.wav
192,192,84834,1,0,0:0:0:60:tom01.wav
448,192,84909,1,0,0:0:0:60:tom02.wav
320,192,84985,1,0,0:0:0:60:tom03.wav
64,192,85061,1,4,0:0:0:0:
192,192,85061,1,8,0:0:0:0:
320,192,85212,1,0,0:0:0:0:
64,192,85364,128,2,85667:0:0:0:0:
448,192,85364,1,4,0:0:0:0:
192,192,85667,1,8,0:0:0:0:
320,192,85667,1,0,0:0:0:0:
64,192,85819,1,2,0:0:0:0:
448,192,85819,128,4,86122:0:0:0:0:
192,192,86122,1,8,0:0:0:0:
320,192,86122,1,0,0:0:0:0:
64,192,86273,128,2,86576:0:0:0:0:
448,192,86273,1,4,0:0:0:0:
320,192,86576,1,8,0:0:0:0:
448,192,86576,1,0,0:0:0:0:
64,192,86728,1,2,0:0:0:0:
192,192,86728,128,4,87031:0:0:0:0:
448,192,87031,1,8,0:0:0:0:
320,192,87106,1,8,0:0:0:0:
64,192,87182,1,8,0:0:0:0:
192,192,87182,1,0,0:0:0:0:
320,192,87334,1,0,0:0:0:60:tom02.wav
192,192,87485,1,0,0:0:0:60:tom03.wav
64,192,87637,1,4,0:0:0:0:
448,192,87637,1,2,0:0:0:0:
192,192,87940,1,0,0:0:0:0:
320,192,88091,1,0,0:0:0:40:clap.wav
448,192,88091,1,0,0:0:0:0:
64,192,88243,1,0,0:0:0:0:
192,192,88394,1,0,0:0:0:40:clap.wav
448,192,88394,1,0,0:0:0:0:
320,192,88546,1,0,0:0:0:0:
64,192,88697,1,0,0:0:0:30:clap.wav
192,192,88773,1,0,0:0:0:30:clap.wav
320,192,88849,1,0,0:0:0:30:clap.wav
448,192,88925,1,0,0:0:0:30:clap.wav
64,192,89000,1,2,0:0:0:0:
192,192,89000,1,0,0:0:0:0:
320,192,89303,1,0,0:0:0:0:
64,192,89455,1,0,0:0:0:50:clap.wav
448,192,89455,1,0,0:0:0:0:
192,192,89606,1,0,0:0:0:0:
320,192,89758,1,0,0:0:0:50:clap.wav
448,192,89758,1,0,0:0:0:0:
64,192,89909,1,0,0:0:0:40:clap.wav
192,192,89985,1,0,0:0:0:40:clap.wav
320,192,90061,1,0,0:0:0:40:clap.wav
448,192,90137,1,0,0:0:0:40:clap.wav
64,192,90212,1,2,0:0:0:0:
192,192,90212,1,0,0:0:0:0:
320,192,90515,1,0,0:0:0:0:
192,192,90667,1,0,0:0:0:50:clap.wav
448,192,90667,1,0,0:0:0:0:
64,192,90819,1,0,0:0:0:0:
448,192,90970,1,0,0:0:0:30:clap.wav
320,192,91122,1,0,0:0:0:30:clap.wav
64,192,91273,1,0,0:0:0:30:clap.wav
192,192,91273,1,0,0:0:0:0:
320,192,91425,1,8,0:0:0:0:
448,192,91425,1,0,0:0:0:0:
192,192,91576,1,0,0:0:0:20:clap.wav
64,192,91728,1,0,0:0:0:30:clap.wav
448,192,91728,1,0,0:0:0:0:
320,192,91879,1,0,0:0:0:40:clap.wav
64,192,92031,1,2,0:0:0:0:
192,192,92031,1,0,0:0:0:50:clap.wav
64,192,92182,1,2,0:0:0:0:
192,192,92182,1,0,0:0:0:50:clap.wav
320,192,92334,1,2,0:0:0:0:
448,192,92334,1,0,0:0:0:50:clap.wav
320,192,92485,1,2,0:0:0:0:
448,192,92485,1,0,0:0:0:50:clap.wav
