osu file format v14

[General]
AudioFilename: audio.ogg
AudioLeadIn: 0
PreviewTime: 48299
Countdown: 0
SampleSet: Soft
StackLeniency: 0.4
Mode: 0
LetterboxInBreaks: 0
WidescreenStoryboard: 1

[Editor]
DistanceSpacing: 0.8
BeatDivisor: 4
GridSize: 4
TimelineZoom: 1.6

[Metadata]
Title:Kimi no Tonari de (TV Size)
TitleUnicode:キミのとなりで (TV Size)
Artist:Kito Akari
ArtistUnicode:鬼頭明里
Creator:Aakki
Version:Shimamura
Source:安達としまむら
Tags:iceluin gay jpop j-pop nexusqi kazuma shirahane suou japanese pop anime adachi and to shimamura lugu ed ending yuri adashima こだまさおり Saori Kodama 伊藤 翼 Tsubasa Itō Itou Ito
BeatmapID:2765792
BeatmapSetID:1335007

[Difficulty]
HPDrainRate:6
CircleSize:4.5
OverallDifficulty:9
ApproachRate:9.4
SliderMultiplier:1.95
SliderTickRate:1

[Events]
//Background and Video events
0,0,"1101639.jpg",0,0
//Break Periods
//Storyboard Layer 0 (Background)
//Storyboard Layer 1 (Fail)
//Storyboard Layer 2 (Pass)
//Storyboard Layer 3 (Foreground)
//Storyboard Layer 4 (Overlay)
//Storyboard Sound Samples

[TimingPoints]
516,303.030303030303,4,2,1,40,1,0
516,-142.857142857143,4,2,1,40,0,0
1500,-142.857142857143,4,2,1,5,0,0
1576,-142.857142857143,4,2,1,40,0,0
6349,-142.857142857143,4,2,1,5,0,0
6425,-142.857142857143,4,2,1,40,0,0
8091,-117.647058823529,4,2,1,40,0,0
8318,-117.647058823529,4,2,1,5,0,0
8394,-142.857142857143,4,2,1,40,0,0
8697,-117.647058823529,4,2,1,40,0,0
8924,-117.647058823529,4,2,1,5,0,0
9000,-142.857142857143,4,2,1,40,0,0
10212,-125,4,2,1,50,0,0
10439,-125,4,2,1,5,0,0
10515,-125,4,2,1,50,0,0
11652,-125,4,2,1,5,0,0
11728,-125,4,2,1,50,0,0
12864,-125,4,2,1,5,0,0
12940,-125,4,2,1,50,0,0
14076,-125,4,2,1,5,0,0
14152,-125,4,2,1,50,0,0
19909,-117.647058823529,4,2,1,50,0,0
20136,-117.647058823529,4,2,1,5,0,0
20212,-117.647058823529,4,2,1,50,0,0
20743,-117.647058823529,4,2,1,5,0,0
20819,-117.647058823529,4,2,1,50,0,0
22561,-117.647058823529,4,2,1,5,0,0
22637,-117.647058823529,4,2,1,50,0,0
24379,-117.647058823529,4,2,1,5,0,0
24455,-117.647058823529,4,2,1,50,0,0
24985,-117.647058823529,4,2,1,5,0,0
25061,-117.647058823529,4,2,1,50,0,0
25591,-117.647058823529,4,2,1,5,0,0
25667,-117.647058823529,4,2,1,50,0,0
26197,-117.647058823529,4,2,1,5,0,0
26273,-117.647058823529,4,2,1,50,0,0
27409,-117.647058823529,4,2,1,5,0,0
27485,-117.647058823529,4,2,1,50,0,0
29606,-111.111111111111,4,2,1,55,0,0
30061,-125,4,2,1,55,0,0
30515,-142.857142857143,4,2,1,55,0,0
30970,-166.666666666667,4,2,1,55,0,0
31728,-125,4,2,1,55,0,0
31955,-125,4,2,1,5,0,0
32031,-111.111111111111,4,2,1,55,0,0
32485,-125,4,2,1,55,0,0
32940,-142.857142857143,4,2,1,55,0,0
33394,-166.666666666667,4,2,1,55,0,0
34152,-100,4,2,1,55,0,0
34379,-100,4,2,1,5,0,0
34455,-111.111111111111,4,2,1,55,0,0
34909,-125,4,2,1,55,0,0
35364,-142.857142857143,4,2,1,55,0,0
35819,-166.666666666667,4,2,1,55,0,0
36576,-111.111111111111,4,2,1,55,0,0
36803,-111.111111111111,4,2,1,5,0,0
36879,-111.111111111111,4,2,1,55,0,0
37334,-125,4,2,1,55,0,0
37788,-142.857142857143,4,2,1,55,0,0
39303,-111.111111111111,4,2,1,55,0,0
41652,-111.111111111111,4,2,1,5,0,0
41728,-111.111111111111,4,2,1,55,0,0
41955,-111.111111111111,4,2,1,5,0,0
42031,-111.111111111111,4,2,1,55,0,0
44076,-111.111111111111,4,2,1,5,0,0
44152,-100,4,2,1,55,0,0
44833,-100,4,2,1,5,0,0
44909,-100,4,2,1,55,0,0
45288,-100,4,2,1,5,0,0
45364,-100,4,2,1,55,0,0
46576,-100,4,2,1,65,0,0
46803,-100,4,2,1,5,0,0
46879,-100,4,2,1,65,0,0
47864,-100,4,2,1,5,0,0
47940,-100,4,2,1,65,0,0
48697,-133.333333333333,4,2,1,45,0,0
48849,-90.9090909090909,4,2,1,70,0,1
49076,-90.9090909090909,4,2,1,5,0,1
49152,-90.9090909090909,4,2,1,70,0,1
49833,-90.9090909090909,4,2,1,5,0,1
49909,-90.9090909090909,4,2,1,70,0,1
50288,-90.9090909090909,4,2,1,5,0,1
50364,-90.9090909090909,4,2,1,70,0,1
51500,-90.9090909090909,4,2,1,5,0,1
51576,-90.9090909090909,4,2,1,70,0,1
52712,-90.9090909090909,4,2,1,5,0,1
52788,-90.9090909090909,4,2,1,70,0,1
53924,-90.9090909090909,4,2,1,5,0,1
54000,-90.9090909090909,4,2,1,70,0,1
54379,-90.9090909090909,4,2,1,5,0,1
54455,-90.9090909090909,4,2,1,70,0,1
55136,-90.9090909090909,4,2,1,5,0,1
55212,-90.9090909090909,4,2,1,70,0,1
55742,-90.9090909090909,4,2,1,5,0,1
55819,-90.9090909090909,4,2,1,70,0,1
56349,-90.9090909090909,4,2,1,5,0,1
56425,-90.9090909090909,4,2,1,70,0,1
57561,-90.9090909090909,4,2,1,5,0,1
57637,-90.9090909090909,4,2,1,70,0,1
58773,-90.9090909090909,4,2,1,5,0,1
58849,-90.9090909090909,4,2,1,70,0,1
59985,-90.9090909090909,4,2,1,5,0,1
60061,-90.9090909090909,4,2,1,70,0,1
61197,-90.9090909090909,4,2,1,5,0,1
61273,-90.9090909090909,4,2,1,70,0,1
63167,-90.9090909090909,4,2,1,5,0,1
63243,-90.9090909090909,4,2,1,70,0,1
64379,-90.9090909090909,4,2,1,5,0,1
64455,-90.9090909090909,4,2,1,70,0,1
64682,-90.9090909090909,4,2,1,5,0,1
64758,-90.9090909090909,4,2,1,70,0,1
65591,-90.9090909090909,4,2,1,5,0,1
65667,-90.9090909090909,4,2,1,70,0,1
66046,-90.9090909090909,4,2,1,5,0,1
66122,-90.9090909090909,4,2,1,70,0,1
68167,-90.9090909090909,4,2,1,70,0,0
68243,-90.9090909090909,4,2,1,80,0,1
69682,-90.9090909090909,4,2,1,5,0,1
69758,-90.9090909090909,4,2,1,80,0,1
70894,-90.9090909090909,4,2,1,5,0,1
70970,-90.9090909090909,4,2,1,80,0,1
71652,-90.9090909090909,4,2,1,5,0,1
71728,-90.9090909090909,4,2,1,80,0,1
72182,-90.9090909090909,4,2,1,70,0,1
73167,-90.9090909090909,4,2,1,5,0,1
73243,-90.9090909090909,4,2,1,80,0,1
73546,-90.9090909090909,4,2,1,50,0,1
73849,-90.9090909090909,4,2,1,55,0,1
74152,-90.9090909090909,4,2,1,60,0,1
74455,-90.9090909090909,4,2,1,65,0,1
74758,-90.9090909090909,4,2,1,70,0,1
75061,-90.9090909090909,4,2,1,75,0,1
75364,-90.9090909090909,4,2,1,80,0,1
75667,-90.9090909090909,4,2,1,75,0,1
75894,-90.9090909090909,4,2,1,5,0,1
75970,-90.9090909090909,4,2,1,50,0,1
76273,-90.9090909090909,4,2,1,55,0,1
76576,-90.9090909090909,4,2,1,60,0,1
76879,-90.9090909090909,4,2,1,65,0,1
77182,-90.9090909090909,4,2,1,70,0,1
77485,-90.9090909090909,4,2,1,75,0,1
77788,-90.9090909090909,4,2,1,80,0,1
78091,-90.9090909090909,4,2,1,85,0,1
78318,-90.9090909090909,4,2,1,5,0,1
78394,-90.9090909090909,4,2,1,85,0,1
78470,-90.9090909090909,4,2,1,5,0,1
78546,-90.9090909090909,4,2,1,85,0,1
78773,-90.9090909090909,4,2,1,5,0,1
78849,-90.9090909090909,4,2,1,85,0,1
78925,-90.9090909090909,4,2,1,5,0,1
79000,-90.9090909090909,4,2,1,85,0,1
79227,-90.9090909090909,4,2,1,5,0,1
79303,-90.9090909090909,4,2,1,85,0,1
79379,-90.9090909090909,4,2,1,5,0,1
79455,-90.9090909090909,4,2,1,85,0,1
79682,-90.9090909090909,4,2,1,5,0,1
79758,-90.9090909090909,4,2,1,85,0,1
79834,-90.9090909090909,4,2,1,5,0,1
79909,-90.9090909090909,4,2,1,85,0,1
80439,-90.9090909090909,4,2,1,5,0,1
80515,-125,4,2,1,50,0,0
80742,-125,4,2,1,5,0,0
80819,-125,4,2,1,50,0,0
81197,-125,4,2,1,5,0,0
81273,-125,4,2,1,50,0,0
82106,-125,4,2,1,5,0,0
82182,-125,4,2,1,50,0,0
83167,-125,4,2,1,5,0,0
83243,-125,4,2,1,50,0,0
83621,-125,4,2,1,5,0,0
83697,-125,4,2,1,50,0,0
85288,-125,4,2,1,5,0,0
85364,-100,4,2,1,60,0,0
85591,-100,4,2,1,5,0,0
85667,-100,4,2,1,60,0,0
85743,-100,4,2,1,5,0,0
85819,-100,4,2,1,60,0,0
86046,-100,4,2,1,5,0,0
86122,-100,4,2,1,60,0,0
86197,-100,4,2,1,5,0,0
86273,-100,4,2,1,60,0,0
86500,-100,4,2,1,5,0,0
86576,-100,4,2,1,60,0,0
86652,-100,4,2,1,5,0,0
86728,-133.333333333333,4,2,1,60,0,0
86955,-133.333333333333,4,2,1,5,0,0
87031,-100,4,2,1,60,0,0
87637,-133.333333333333,4,2,1,55,0,0
91728,-133.333333333333,4,2,1,65,0,0
92031,-100,4,2,1,75,0,0
92334,-80,4,2,1,85,0,0

[Colours]
Combo1 : 9,175,255
Combo2 : 255,70,70
Combo3 : 255,255,81
Combo4 : 255,74,165

[HitObjects]
93,64,516,6,0,B|80:30|80:30|56:65,2,68.2499979171753,6|2|2,1:2|0:0|0:0,0:0:0:0:
147,142,970,2,0,B|164:141|182:157|182:157|196:138|224:136,1,68.2499979171753,2|0,0:0|0:0,0:0:0:0:
293,83,1273,2,0,P|309:68|294:100,1,102.374996875763,2|0,0:0|2:0,0:0:0:0:
320,90,1576,1,2,0:0:0:0:
376,156,1728,6,0,B|422:165|422:165|401:145,2,68.2499979171753,2|2|2,0:0|0:0|0:0,0:0:0:0:
302,214,2182,1,2,0:0:0:0:
351,280,2334,1,2,0:0:0:0:
277,350,2485,1,2,0:0:0:0:
266,348,2561,1,2,0:0:0:0:
254,344,2637,1,2,0:0:0:0:
156,278,2788,2,0,B|154:260|164:245|164:245|181:253|183:275,1,68.2499979171753,2|2,0:0|0:0,0:0:0:0:
96,360,3091,5,2,0:0:0:0:
84,357,3167,1,2,0:0:0:0:
70,354,3243,1,2,0:0:0:0:
14,294,3394,1,2,0:0:0:0:
54,230,3546,1,2,0:0:0:0:
129,255,3697,1,2,0:0:0:0:
188,209,3849,1,2,0:0:0:0:
182,143,4000,1,2,0:0:0:0:
131,91,4152,6,0,B|101:84|73:101|90:110|59:129|31:121,1,102.374996875763,2|2,0:0|0:0,0:0:0:0:
9,99,4455,2,0,B|-11:68|-11:68|13:27,1,68.2499979171753,2|2,0:0|0:0,0:0:0:0:
82,4,4758,1,2,0:0:0:0:
192,45,4909,1,2,0:0:0:0:
211,41,4985,1,2,0:0:0:0:
231,37,5061,2,0,L|268:27,2,34.1249989585877,2|2|2,0:0|0:0|0:0,0:0:0:0:
407,100,5364,6,0,B|428:74|428:74|411:41,2,68.2499979171753,6|2|2,1:2|0:0|0:0,0:0:0:0:
335,173,5819,2,0,B|290:166|290:166|305:192,1,68.2499979171753,2|0,0:0|0:0,0:0:0:0:
411,265,6122,2,0,B|434:238|434:238|357:264,1,102.374996875763,2|0,0:0|2:0,0:0:0:0:
340,274,6425,1,2,0:0:0:0:
235,301,6576,6,0,P|242:289|239:311,2,68.2499979171753,2|2|2,0:0|0:0|0:0,0:0:0:0:
156,340,7031,1,2,0:0:0:0:
96,284,7182,1,2,0:0:0:0:
107,217,7334,1,2,0:0:0:0:
122,211,7409,1,2,0:0:0:0:
132,207,7485,1,2,0:0:0:0:
206,228,7637,1,2,0:0:0:0:
268,175,7788,6,0,B|259:141|259:141|235:173,1,68.2499979171753,2|2,0:0|0:0,0:0:0:0:
281,75,8091,6,0,B|313:79|328:117|328:117|333:77|367:59,1,124.312502371073,10|0,0:0|2:0,0:0:0:0:
429,77,8394,5,2,0:0:0:0:
499,50,8546,1,2,0:0:0:0:
480,189,8697,6,0,B|405:176|405:176|371:198|402:242,1,124.312502371073,10|0,0:0|2:0,0:0:0:0:
425,308,9000,6,0,B|434:302|442:283|442:283|423:296|404:296,1,68.2499979171753,2|0,0:0|0:0,0:0:0:0:
362,303,9228,1,2,0:0:0:0:
362,303,9303,1,10,0:0:0:0:
227,205,9455,5,10,0:0:0:0:
192,183,9531,1,10,0:0:0:0:
147,184,9606,1,8,0:0:0:0:
22,239,9758,1,8,3:0:0:0:
14,331,9909,1,6,3:0:0:0:
80,363,10061,1,6,3:0:0:0:
227,205,10212,6,0,B|301:197|301:197|323:216|316:243,1,117,6|0,1:2|2:0,0:0:0:0:
362,303,10515,2,0,B|371:315|405:315|405:315|384:307|373:283,1,78,10|0,0:0|0:0,0:0:0:0:
432,172,10819,1,2,0:0:0:0:
468,240,10970,1,2,0:0:0:0:
389,103,11122,2,0,B|340:92|340:92|358:117,1,78,10|2,0:0|0:0,0:0:0:0:
172,78,11425,6,0,B|198:71|206:33|206:33|216:68|262:74,1,117,2|0,0:0|2:0,0:0:0:0:
276,55,11728,1,10,0:0:0:0:
169,152,11879,2,0,B|114:143|114:143|133:176,1,78,2|0,0:0|0:0,0:0:0:0:
199,289,12182,1,2,0:0:0:0:
271,172,12334,1,8,0:0:0:0:
205,219,12485,1,2,1:2:0:0:
308,325,12637,6,0,B|376:317|376:317|408:340|402:365,1,117,2|0,1:2|2:0,0:0:0:0:
394,376,12940,1,10,0:0:0:0:
462,250,13091,2,0,B|470:157|470:157|439:123|406:141,1,156,2|0,0:0|0:0,0:0:0:0:
281,229,13546,2,0,B|244:223|244:223|240:225|240:225|194:216,1,78,8|0,0:0|0:0,0:0:0:0:
75,120,13849,6,0,P|77:76|161:69,1,117,0|0,0:0|2:0,0:0:0:0:
158,121,14152,2,0,B|183:123|201:112|201:112|189:131|171:134,1,78,8|0,0:0|0:0,0:0:0:0:
61,228,14455,2,0,B|41:239|36:260|36:260|38:240|21:221,1,78,2|0,0:0|0:0,0:0:0:0:
125,294,14758,1,10,0:0:0:0:
199,249,14909,1,0,0:0:0:0:
288,330,15061,6,0,B|343:323|343:323|381:349|381:349|440:341,1,156,2|8,1:2|0:0,0:0:0:0:
408,199,15515,2,0,B|358:193|348:151|348:151|322:188|252:172,1,156,2|0,0:0|0:0,0:0:0:0:
193,96,15970,2,0,B|194:78|215:61|215:61|206:82|210:104,1,78,10|0,0:0|0:0,0:0:0:0:
190,205,16273,6,0,B|93:188|93:188|76:153|109:128,1,156,2|8,0:0|0:0,0:0:0:0:
188,284,16728,1,2,0:0:0:0:
188,284,16803,1,0,0:0:0:0:
188,284,16879,2,0,B|229:309|263:262|246:258|289:216|342:245,1,156,0|10,0:0|0:0,0:0:0:0:
483,323,17334,1,0,1:0:0:0:
400,132,17485,6,0,B|381:130|367:136|359:159|359:159|381:142|417:152,1,78,2|0,1:2|0:0,0:0:0:0:
466,230,17788,1,10,0:0:0:0:
341,61,17940,2,0,B|295:86|266:45|275:44|235:-11|171:35,1,156,2|0,0:0|0:0,0:0:0:0:
127,134,18394,2,0,B|182:121|182:121|156:108,1,78,8|0,0:0|0:0,0:0:0:0:
0,0,18697,5,0,0:0:0:0:
50,105,18849,1,0,1:0:0:0:
201,20,19000,1,8,0:0:0:0:
68,179,19152,1,8,3:0:0:0:
68,179,19228,1,8,3:0:0:0:
68,179,19303,5,8,3:0:0:0:
196,295,19455,1,8,3:0:0:0:
336,257,19606,1,4,3:0:0:0:
369,173,19758,1,4,3:0:0:0:
230,64,19909,6,0,B|213:49|216:28|216:28|198:45|200:85|236:114,1,124.312502371073,4|0,1:2|2:0,0:0:0:0:
279,162,20212,1,10,0:0:0:0:
390,75,20364,1,2,0:0:0:0:
487,160,20516,2,0,B|490:137|513:126|513:126|473:125|456:157|460:190,1,124.312502371073,2|0,0:0|2:0,0:0:0:0:
504,239,20819,1,10,0:0:0:0:
471,68,20970,1,2,0:0:0:0:
324,253,21122,6,0,B|272:240|272:240|298:271,1,82.8750015807152,2|0,0:0|0:0,0:0:0:0:
385,358,21425,1,10,0:0:0:0:
271,239,21576,2,0,B|244:204|244:204|230:256,1,82.8750015807152,2|0,0:0|0:0,0:0:0:0:
139,333,21879,2,0,B|100:353|100:353|68:319,1,82.8750015807152,2|8,0:0|0:0,0:0:0:0:
20,206,22182,1,0,1:0:0:0:
209,333,22334,6,0,B|265:320|265:320|271:314|271:314|280:317|280:317|345:303,1,124.312502371073,2|0,1:2|2:0,0:0:0:0:
384,259,22637,1,10,0:0:0:0:
284,209,22788,2,0,B|264:225|240:221|240:221|265:226|283:256,1,82.8750015807152,2|0,0:0|0:0,0:0:0:0:
405,140,23091,2,0,B|349:127|349:127|371:150,1,82.8750015807152,2|8,0:0|0:0,0:0:0:0:
498,136,23394,1,2,0:0:0:0:
391,56,23546,5,0,0:0:0:0:
506,0,23697,1,0,0:0:0:0:
405,140,23849,2,0,B|399:155|381:167|365:155|365:155|387:147|395:125,1,82.8750015807152,8|0,0:0|0:0,0:0:0:0:
290,38,24152,2,0,B|213:29|213:29|189:50|201:71,1,124.312502371073,2|0,0:0|2:0,0:0:0:0:
221,159,24455,2,0,B|241:157|257:131|257:131|237:147|214:148,1,82.8750015807152,10|0,0:0|0:0,0:0:0:0:
51,47,24758,6,0,B|55:35|42:11|42:11|23:63|57:108,1,124.312502371073,2|0,1:2|2:0,0:0:0:0:
122,136,25061,2,0,B|112:197|112:197|109:176|96:164,1,82.8750015807152,8|0,0:0|0:0,0:0:0:0:
56,303,25364,2,0,B|124:293|124:293|147:314|131:344,1,124.312502371073,2|0,0:0|2:0,0:0:0:0:
43,315,25667,2,0,P|26:275|52:231,1,82.8750015807152,8|0,0:0|0:0,0:0:0:0:
122,136,25970,6,0,B|147:115|184:127|184:127|196:162|238:167,1,124.312502371073,2|0,0:0|2:0,0:0:0:0:
290,125,26273,1,10,0:0:0:0:
327,240,26425,2,0,B|310:226|279:227|279:227|301:236|311:260,1,82.8750015807152,2|0,0:0|0:0,0:0:0:0:
424,309,26728,2,0,B|445:324|445:324|437:257,1,82.8750015807152,2|8,0:0|0:0,0:0:0:0:
417,165,27031,1,0,1:0:0:0:
326,340,27182,6,0,B|283:330|283:330|247:349|247:349|193:333,1,124.312502371073,2|0,1:2|2:0,0:0:0:0:
146,318,27485,1,10,0:0:0:0:
253,217,27637,2,0,B|278:184|278:184|259:131,1,82.8750015807152,2|0,0:0|0:0,0:0:0:0:
81,199,27940,2,0,B|61:222|61:222|138:209,1,82.8750015807152,2|8,1:2|0:0,0:0:0:0:
193,62,28243,1,0,1:0:0:0:
290,291,28394,5,10,0:0:0:0:
134,134,28546,1,0,1:0:0:0:
362,39,28697,1,14,0:0:0:0:
212,226,28849,1,8,0:0:0:0:
209,241,28925,1,8,0:0:0:0:
205,258,29000,5,10,0:0:0:0:
438,323,29152,1,8,3:0:0:0:
386,157,29303,1,6,3:0:0:0:
299,186,29455,1,4,3:0:0:0:
496,194,29606,6,0,P|520:151|447:56,1,175.499994644165,6|0,1:2|0:0,0:0:0:0:
279,34,30061,6,0,B|234:18|234:18|199:34|199:34|190:79|145:85,1,156,8|0,3:0|0:0,0:0:0:0:
28,2,30516,6,0,B|22:73|52:54|42:142,1,136.499995834351,8|0,3:0|0:0,0:0:0:0:
147,219,30970,6,0,B|154:203|179:202|179:202|154:185|107:203|102:232,1,116.999996429443,4|0,3:0|0:0,0:0:0:0:
50,299,31425,1,0,1:0:0:0:
148,364,31576,1,0,1:0:0:0:
279,241,31728,6,0,P|311:216|392:212,1,117,10|0,0:0|2:0,0:0:0:0:
501,225,32031,6,0,B|484:241|480:267|480:267|447:219|458:157|497:132,1,175.499994644165,4|0,1:2|0:0,0:0:0:0:
430,47,32485,6,0,B|392:30|354:72|374:81|346:121|284:109,1,156,10|2,3:0|0:0,0:0:0:0:
233,36,32940,6,0,P|187:22|132:93,1,136.499995834351,8|0,3:0|0:0,0:0:0:0:
83,175,33394,6,0,B|130:166|130:166|141:173|141:173|203:162,1,116.999996429443,6|0,3:0|0:0,0:0:0:0:
299,253,33849,1,0,1:0:0:0:
196,163,34000,1,0,1:0:0:0:
175,329,34152,6,0,B|137:359|137:359|242:340,1,146.25,14|0,0:0|2:0,0:0:0:0:
366,297,34455,6,0,P|378:254|285:176,1,175.499994644165,6|2,1:2|0:0,0:0:0:0:
114,146,34909,6,0,B|154:148|170:97|170:97|164:145|197:164,1,156,10|2,3:0|0:0,0:0:0:0:
344,76,35364,6,0,B|262:62|262:62|235:86|248:123,1,136.499995834351,10|0,3:0|0:0,0:0:0:0:
376,142,35819,6,0,B|387:140|405:117|405:117|391:197,1,116.999996429443,4|0,3:0|0:0,0:0:0:0:
445,264,36273,2,0,L|371:272,1,58.4999982147217,2|0,1:2|1:0,0:0:0:0:
227,287,36576,6,0,B|189:287|154:272|154:272|123:292|138:330,1,131.624995983124,10|0,0:0|2:0,0:0:0:0:
251,294,36879,5,4,3:2:0:0:
240,214,37031,1,2,0:0:0:0:
227,136,37182,1,2,0:0:0:0:
212,60,37334,1,10,3:0:0:0:
145,130,37485,2,0,B|93:120|93:120|111:148,2,78,2|2|6,0:0|0:0|3:0,0:0:0:0:
119,47,37940,1,2,0:0:0:0:
212,60,38091,6,0,L|293:50,1,68.2499979171753,2|8,1:2|0:0,0:0:0:0:
402,31,38394,1,2,1:2:0:0:
301,118,38546,1,10,0:0:0:0:
321,115,38622,1,8,0:0:0:0:
341,111,38698,5,8,0:0:0:0:
485,233,38849,1,10,3:0:0:0:
408,384,39000,1,6,3:0:0:0:
428,357,39075,1,2,0:0:0:0:
434,324,39151,1,6,3:0:0:0:
424,292,39227,1,2,0:0:0:0:
400,267,39303,5,4,1:2:0:0:
279,313,39455,2,0,B|250:321|221:306|221:306|196:334|196:334|145:337|119:270,1,175.499994644165,2|2,0:0|1:2,0:0:0:0:
109,154,39909,1,10,0:0:0:0:
173,132,40061,1,2,0:0:0:0:
151,66,40212,1,2,1:2:0:0:
87,88,40364,1,2,1:2:0:0:
38,180,40515,6,0,B|20:201|22:228|22:228|31:207|52:192,1,87.7499973220826,2|8,0:0|0:0,0:0:0:0:
130,220,40819,1,2,0:0:0:0:
12,307,40970,2,0,B|-7:320|-7:320|65:310,1,87.7499973220826,2|8,1:2|0:0,0:0:0:0:
201,318,41273,1,2,0:0:0:0:
130,220,41425,2,0,B|118:239|96:245|96:245|126:269|137:313|121:345,1,131.624995983124,2|0,1:2|2:0,0:0:0:0:
201,318,41728,6,0,B|243:300|282:328|254:338|292:359|337:343,1,131.624995983124,0|0,1:0|2:0,0:0:0:0:
355,332,42031,1,0,0:0:0:0:
269,232,42182,1,2,1:2:0:0:
353,177,42334,2,0,B|378:215|378:215|351:249,1,87.7499973220826,10|0,0:0|0:0,0:0:0:0:
234,119,42637,2,0,B|298:109|298:109|275:131,1,87.7499973220826,2|0,1:2|1:0,0:0:0:0:
144,228,42940,5,2,0:0:0:0:
55,187,43091,2,0,B|-1:172|-1:172|24:207,1,87.7499973220826,8|0,0:0|0:0,0:0:0:0:
146,254,43394,1,2,1:2:0:0:
284,185,43546,1,8,3:0:0:0:
348,243,43697,1,4,3:0:0:0:
232,333,43849,2,0,B|193:327|174:362|174:362|147:328|97:341,1,131.624995983124,4|0,1:2|2:0,0:0:0:0:
46,361,44152,6,0,B|48:304|32:314|36:258,1,97.5,6|0,1:2|0:0,0:0:0:0:
11,81,44455,1,10,0:0:0:0:
170,190,44606,6,0,B|190:212|226:224|260:202|260:202|246:191|222:192|208:205,1,146.25,6|0,1:2|2:0,0:0:0:0:
143,172,44909,1,10,0:0:0:0:
298,262,45061,6,0,B|329:238|339:199|339:199|322:158|291:137,1,146.25,6|0,1:2|2:0,0:0:0:0:
234,95,45364,5,0,1:0:0:0:
423,308,45515,1,8,0:0:0:0:
451,303,45591,1,8,0:0:0:0:
475,297,45667,5,8,0:0:0:0:
415,130,45819,1,8,0:0:0:0:
298,262,45970,1,8,3:0:0:0:
439,199,46122,1,10,3:0:0:0:
337,124,46273,5,4,3:0:0:0:
364,194,46425,1,6,3:0:0:0:
185,12,46576,6,0,B|87:4|87:4|61:28|74:68,1,146.25,6|0,1:2|2:0,0:0:0:0:
77,185,46879,5,8,1:2:0:0:
109,206,46955,1,8,0:0:0:0:
146,199,47031,1,8,0:0:0:0:
165,166,47106,1,8,0:0:0:0:
169,128,47182,5,10,1:2:0:0:
189,90,47258,5,8,0:0:0:0:
233,76,47334,5,10,0:0:0:0:
277,99,47409,5,8,0:0:0:0:
289,153,47485,5,10,0:0:0:0:
247,196,47561,5,8,0:0:0:0:
228,262,47637,6,0,B|263:307|248:364|248:364|253:328|289:315,1,146.25,6|0,1:2|2:0,0:0:0:0:
360,309,47940,6,0,B|386:313|386:313|389:315|389:315|436:321,1,48.75,10|0,0:0|0:0,0:0:0:0:
512,0,48091,6,0,B|486:4|486:4|483:6|483:6|436:12,1,48.75,10|0,0:0|0:0,0:0:0:0:
55,339,48697,6,0,P|49:329|63:337,1,36.5625013947487,2|0,0:0|0:0,0:0:0:0:
55,339,48849,6,0,B|72:309|53:279|36:292|28:257|47:224|47:224|51:255|88:281,1,160.875004909516,6|0,1:2|2:0,0:0:0:0:
132,298,49152,1,2,0:0:0:0:
290,132,49303,2,0,B|314:109|314:109|235:129,1,107.25000327301,10|0,0:0|0:0,0:0:0:0:
48,70,49606,2,0,B|48:51|17:27|17:27|60:30|82:80|62:118,1,160.875004909516,2|0,1:2|2:0,0:0:0:0:
33,169,49909,1,10,0:0:0:0:
146,93,50061,6,0,B|200:62|228:107|217:101|244:152|306:126,1,160.875004909516,2|0,0:0|2:0,0:0:0:0:
408,73,50364,2,0,B|433:62|441:30|441:30|419:53|387:56,1,107.25000327301,2|8,0:0|0:0,0:0:0:0:
252,223,50667,2,0,B|225:250|225:250|315:236,1,107.25000327301,2|0,0:0|1:0,0:0:0:0:
507,142,50970,1,0,0:0:0:0:
422,328,51122,1,10,0:0:0:0:
332,96,51273,6,0,B|305:65|299:24|316:-3|316:-3|338:19|341:39|330:49,1,160.875004909516,2|0,0:0|2:0,0:0:0:0:
330,115,51576,2,0,P|273:137|232:105,1,107.25000327301,2|8,0:0|0:0,0:0:0:0:
45,17,51879,1,2,0:0:0:0:
155,210,52031,2,0,B|167:233|167:233|194:199|170:152,1,107.25000327301,2|0,1:2|0:0,0:0:0:0:
18,85,52334,1,10,0:0:0:0:
133,308,52485,6,0,B|179:344|214:298|201:303|241:265|289:300,1,160.875004909516,2|0,0:0|2:0,0:0:0:0:
332,355,52788,2,0,B|379:384|379:384|419:342,1,107.25000327301,2|8,0:0|0:0,0:0:0:0:
507,213,53091,1,0,0:0:0:0:
370,284,53243,5,2,1:2:0:0:
293,85,53394,1,2,0:0:0:0:
431,187,53546,1,10,0:0:0:0:
215,275,53697,6,0,B|106:252|106:252|142:252|175:229,1,160.875004909516,6|0,1:2|2:0,0:0:0:0:
245,202,54000,1,2,0:0:0:0:
58,4,54152,2,0,B|15:13|-3:51|-3:51|36:157,1,160.875004909516,10|0,0:0|2:0,0:0:0:0:
124,159,54455,2,0,B|113:178|92:189|68:188|68:188|94:166|96:143,1,107.25000327301,0|0,1:0|0:0,0:0:0:0:
250,27,54758,1,10,0:0:0:0:
429,222,54909,6,0,B|452:219|479:195|448:137|390:137|358:208,1,160.875004909516,6|0,1:2|2:0,0:0:0:0:
365,313,55212,2,0,B|343:289|343:264|343:264|341:290|308:316,1,107.25000327301,2|10,1:2|0:0,0:0:0:0:
61,166,55515,6,0,B|17:138|17:138|128:159,1,160.875004909516,6|0,1:2|2:0,0:0:0:0:
182,234,55819,2,0,B|208:243|232:220|232:220|241:228|241:228|267:204|310:218,1,107.25000327301,2|8,1:2|0:0,0:0:0:0:
384,2,56122,6,0,B|396:101|396:101|432:128|463:87,1,160.875004909516,6|0,1:2|2:0,0:0:0:0:
500,52,56425,1,2,1:2:0:0:
320,171,56576,1,8,0:0:0:0:
384,2,56728,1,2,1:2:0:0:
427,303,56879,5,8,0:0:0:0:
216,268,57030,1,2,1:2:0:0:
250,60,57182,1,8,0:0:0:0:
451,99,57334,6,0,B|433:203|433:203|413:147,1,160.875004909516,6|0,1:2|2:0,0:0:0:0:
341,98,57637,1,0,1:0:0:0:
234,319,57788,1,10,0:0:0:0:
198,342,57864,1,2,0:0:0:0:
156,338,57940,1,2,1:2:0:0:
129,305,58015,1,2,0:0:0:0:
133,262,58091,6,0,P|138:238|141:204,1,53.6250016365052,10|10,0:0|3:0,0:0:0:0:
233,130,58243,2,0,P|235:156|240:182,1,53.6250016365052,6|6,3:0|3:0,0:0:0:0:
308,354,58394,2,0,P|313:330|316:296,1,53.6250016365052,10|0,0:0|0:0,0:0:0:0:
368,122,58546,6,0,P|421:96|484:167,1,160.875004909516,6|0,1:2|2:0,0:0:0:0:
456,226,58849,1,2,0:0:0:0:
270,40,59000,2,0,B|201:27|201:27|225:42|230:69,1,107.25000327301,8|2,0:0|0:0,0:0:0:0:
308,273,59303,2,0,B|340:277|355:305|355:305|358:276|383:261,1,107.25000327301,2|0,1:2|0:0,0:0:0:0:
276,149,59606,1,10,0:0:0:0:
182,349,59758,6,0,B|85:335|85:335|65:309|86:268,1,160.875004909516,2|0,0:0|2:0,0:0:0:0:
143,228,60061,2,0,B|170:219|181:181|181:181|160:204|131:205,1,107.25000327301,2|8,0:0|0:0,0:0:0:0:
54,93,60364,1,2,0:0:0:0:
241,263,60515,1,2,1:2:0:0:
358,238,60667,1,2,0:0:0:0:
475,213,60819,1,10,0:0:0:0:
410,82,60970,6,0,B|417:63|447:56|447:56|414:37|377:66|396:66|370:90|321:74,1,160.875004909516,2|0,0:0|2:0,0:0:0:0:
265,39,61273,1,2,0:0:0:0:
145,222,61425,1,10,0:0:0:0:
94,37,61576,1,2,0:0:0:0:
245,147,61728,1,2,1:2:0:0:
54,206,61879,1,2,0:0:0:0:
178,0,62031,1,10,0:0:0:0:
280,229,62182,6,0,B|299:256|299:256|228:237,1,107.25000327301,2|0,0:0|1:0,0:0:0:0:
50,367,62485,2,0,B|15:325|15:325|40:273,1,107.25000327301,2|8,0:0|0:0,0:0:0:0:
172,355,62788,1,0,0:0:0:0:
245,146,62940,2,0,B|266:116|308:108|345:120|345:120|320:145|290:136,1,160.875004909516,0|0,1:0|2:0,0:0:0:0:
218,157,63243,1,8,0:0:0:0:
165,13,63394,1,2,0:0:0:0:
99,257,63546,5,6,1:2:0:0:
313,316,63697,1,2,0:0:0:0:
199,91,63849,2,0,B|170:88|149:114|149:114|138:83|102:69,1,107.25000327301,10|0,0:0|0:0,0:0:0:0:
161,342,64152,2,0,B|216:287|216:287|170:189,1,160.875004909516,2|0,1:2|2:0,0:0:0:0:
116,179,64455,6,0,B|13:160|13:160|58:223,1,160.875004909516,14|0,0:0|2:0,0:0:0:0:
161,342,64758,2,0,B|207:335|207:335|213:338|213:338|286:329,1,107.25000327301,2|0,1:2|0:0,0:0:0:0:
406,220,65061,1,8,0:0:0:0:
299,170,65212,1,2,0:0:0:0:
402,368,65364,6,0,P|459:383|469:278,1,160.875004909516,6|0,1:2|2:0,0:0:0:0:
477,227,65667,2,0,B|479:202|479:202|483:197|483:197|488:154,1,53.6250016365052,10|0,0:0|0:0,0:0:0:0:
301,17,65819,6,0,B|262:55|262:55|374:35,1,160.875004909516,6|0,1:2|2:0,0:0:0:0:
450,19,66122,2,0,B|468:20|484:31|484:31|468:30|452:40,1,53.6250016365052,2|0,1:2|0:0,0:0:0:0:
212,169,66273,1,10,0:0:0:0:
172,66,66425,1,2,0:0:0:0:
98,252,66576,5,2,1:2:0:0:
231,307,66728,1,2,0:0:0:0:
349,187,66879,1,10,0:0:0:0:
216,242,67031,1,2,0:0:0:0:
489,348,67182,5,2,1:2:0:0:
457,169,67334,1,2,0:0:0:0:
280,203,67485,1,14,0:0:0:0:
313,383,67637,1,2,0:0:0:0:
430,93,67788,1,2,1:2:0:0:
438,50,67864,1,0,1:0:0:0:
408,18,67940,1,10,0:0:0:0:
365,16,68015,1,8,0:0:0:0:
333,45,68091,1,10,0:0:0:0:
186,235,68243,6,0,B|141:266|60:259|41:211|41:211|75:235|115:220,1,214.500006546021,6|2,1:2|1:2,0:0:0:0:
245,35,68697,1,10,0:0:0:0:
61,125,68849,1,0,1:0:0:0:
285,218,69000,1,8,0:0:0:0:
134,12,69152,1,2,1:2:0:0:
50,295,69303,1,10,0:0:0:0:
302,105,69455,6,0,B|360:93|360:93|404:113|404:113|483:97,1,160.875004909516,6|0,1:2|2:0,0:0:0:0:
431,37,69758,1,2,1:2:0:0:
285,218,69909,1,10,0:0:0:0:
478,314,70061,2,0,B|504:292|504:292|425:305,1,107.25000327301,2|8,1:2|0:0,0:0:0:0:
136,174,70364,2,0,B|181:147|181:147|217:191,1,107.25000327301,2|8,1:2|0:0,0:0:0:0:
47,370,70667,6,0,B|19:326|36:272|62:301|88:243|48:180,1,160.875004909516,6|0,1:2|2:0,0:0:0:0:
21,160,70970,1,2,1:2:0:0:
221,270,71122,1,10,0:0:0:0:
308,14,71273,1,2,1:2:0:0:
136,174,71425,2,0,B|130:197|99:215|99:215|141:231|173:224|212:187,1,160.875004909516,10|0,0:0|2:0,0:0:0:0:
280,151,71728,6,0,B|335:121|375:198|357:197|408:280|476:236,1,214.500006546021,6|0,1:2|0:0,0:0:0:0:
417,93,72182,1,2,1:2:0:0:
224,245,72334,1,14,0:0:0:0:
191,272,72409,1,2,0:0:0:0:
148,274,72485,1,2,1:2:0:0:
110,252,72561,1,2,0:0:0:0:
90,207,72637,2,0,P|98:163|103:148,1,53.6250016365052,14|10,0:0|3:0,0:0:0:0:
46,33,72788,1,6,3:0:0:0:
46,33,72864,1,6,3:0:0:0:
46,33,72940,2,0,B|38:55|3:77|3:77|51:49|107:56,1,160.875004909516,14|0,0:0|2:0,0:0:0:0:
166,17,73243,5,2,1:2:0:0:
166,17,73394,1,0,0:0:0:0:
100,154,73546,1,2,1:2:0:0:
159,104,73697,1,2,1:2:0:0:
248,198,73849,1,0,1:0:0:0:
232,127,74000,1,0,1:0:0:0:
58,302,74152,1,0,1:0:0:0:
160,342,74303,1,2,1:2:0:0:
307,152,74455,5,2,1:2:0:0:
150,253,74606,1,8,0:0:0:0:
315,329,74758,1,2,1:2:0:0:
295,82,74909,1,10,0:0:0:0:
160,342,75061,1,0,1:0:0:0:
232,127,75212,1,8,0:0:0:0:
392,270,75364,1,0,1:0:0:0:
165,167,75515,1,10,0:0:0:0:
363,36,75667,6,0,B|479:16|479:16|448:35|438:67,1,160.875004909516,6|0,1:2|2:0,0:0:0:0:
479,208,75970,1,10,1:2:0:0:
488,188,76046,1,8,0:0:0:0:
481,167,76122,1,10,0:0:0:0:
463,154,76197,1,8,0:0:0:0:
441,157,76273,1,8,1:2:0:0:
425,172,76349,1,8,0:0:0:0:
419,198,76425,1,8,0:0:0:0:
409,222,76500,1,8,0:0:0:0:
384,242,76576,1,10,1:2:0:0:
346,248,76652,1,8,0:0:0:0:
306,231,76728,1,8,0:0:0:0:
287,192,76803,1,8,0:0:0:0:
288,143,76879,5,10,1:2:0:0:
293,90,76954,1,8,0:0:0:0:
267,44,77030,1,8,0:0:0:0:
219,22,77106,1,8,0:0:0:0:
168,33,77182,1,10,1:2:0:0:
132,72,77257,1,8,0:0:0:0:
126,124,77333,1,8,0:0:0:0:
152,170,77409,1,8,0:0:0:0:
192,197,77485,5,10,1:2:0:0:
222,251,77561,1,8,0:0:0:0:
215,315,77637,1,8,0:0:0:0:
172,362,77712,1,8,0:0:0:0:
111,374,77788,6,0,B|87:369|87:369|84:370|84:370|47:362,1,53.6250016365052,10|10,1:2|0:0,0:0:0:0:
2,163,77940,2,0,B|26:158|26:158|29:159|29:159|66:151,1,53.6250016365052,10|10,0:0|0:0,0:0:0:0:
365,261,78091,6,0,B|385:268|419:248|419:248|361:259|298:226,1,160.875004909516,6|0,1:2|2:0,0:0:0:0:
297,154,78394,2,0,B|283:150|273:136|273:136|277:153|292:163,1,53.6250016365052,10|0,0:2|0:0,0:0:0:0:
510,78,78546,6,0,P|494:23|369:25,1,160.875004909516,4|0,1:2|2:0,0:0:0:0:
309,28,78849,2,0,P|277:24|229:17,1,53.6250016365052,8|0,0:0|0:0,0:0:0:0:
35,162,79000,6,0,B|130:151|130:151|174:187|137:225,1,160.875004909516,4|0,1:2|2:0,0:0:0:0:
104,269,79303,2,0,B|96:310|96:310|110:295,1,53.6250016365052,8|0,0:0|0:0,0:0:0:0:
308,132,79455,6,0,B|352:112|385:158|372:155|406:203|464:173,1,160.875004909516,4|0,1:2|2:0,0:0:0:0:
447,110,79758,2,0,P|436:93|439:114,1,53.6250016365052,8|0,0:0|0:0,0:0:0:0:
307,323,79909,1,0,1:0:0:0:
345,341,79985,1,8,3:0:0:0:
383,322,80061,1,4,3:0:0:0:
393,280,80137,1,4,3:0:0:0:
368,245,80212,6,0,B|319:263|290:226|305:219|273:179|226:203,1,160.875004909516,12|0,0:0|2:0,0:0:0:0:
165,261,80515,6,0,P|122:285|63:240,1,117,6|0,1:2|2:0,0:0:0:0:
39,191,80819,1,10,0:0:0:0:
128,45,80970,2,0,B|163:27|191:53|181:59|210:83|259:60,1,117,2|0,1:2|2:0,0:0:0:0:
290,14,81273,1,10,0:0:0:0:
383,151,81425,2,0,B|405:130|405:130|341:143,1,78,2|0,1:2|0:0,0:0:0:0:
236,166,81728,1,8,0:0:0:0:
329,332,81879,6,0,B|376:362|376:362|453:335,1,117,0|0,1:0|2:0,0:0:0:0:
485,300,82182,1,8,0:0:0:0:
383,151,82334,1,0,1:0:0:0:
406,235,82485,1,2,1:2:0:0:
482,70,82637,1,10,0:0:0:0:
318,0,82788,1,2,0:0:0:0:
248,164,82940,6,0,B|265:249|265:249|232:225,1,117,6|0,1:2|2:0,0:0:0:0:
176,192,83243,1,10,0:0:0:0:
22,339,83394,2,0,B|73:334|73:334|78:339|78:339|82:333|82:333|145:326,1,117,2|0,1:2|2:0,0:0:0:0:
203,314,83697,1,10,0:0:0:0:
34,132,83849,2,0,B|12:165|12:165|34:199,1,78,2|0,1:2|0:0,0:0:0:0:
120,69,84152,5,8,0:0:0:0:
152,245,84303,1,0,1:0:0:0:
102,149,84454,1,0,0:0:0:0:
261,213,84606,1,8,0:0:0:0:
319,34,84758,1,0,1:0:0:0:
349,27,84834,1,0,1:0:0:0:
379,22,84909,1,2,1:2:0:0:
410,18,84985,1,0,1:0:0:0:
440,11,85061,2,0,B|451:61|451:61|444:79|444:79|456:138,1,117,14|0,0:0|2:0,0:0:0:0:
500,217,85364,6,0,B|401:206|401:206|374:237|395:282,1,146.25,6|0,1:2|2:0,0:0:0:0:
406,323,85667,2,0,P|419:338|418:313,1,48.75,10|0,0:0|0:0,0:0:0:0:
300,194,85819,2,0,B|264:175|254:136|254:136|254:178|214:210,1,146.25,6|0,1:2|2:0,0:0:0:0:
158,256,86122,2,0,B|124:245|124:245|137:243,1,48.75,10|0,0:0|0:0,0:0:0:0:
281,320,86273,2,0,B|322:326|350:285|333:282|362:241|415:246,1,146.25,6|0,1:2|2:0,0:0:0:0:
456,195,86576,2,0,B|458:179|458:179|456:174|456:174|459:139,1,48.75,8|0,0:0|0:0,0:0:0:0:
452,61,86728,6,0,B|397:55|384:29|384:29|401:47|401:74,1,109.687504184246,6|0,1:2|2:0,0:0:0:0:
331,92,87031,6,0,B|326:113|326:113|328:117|328:117|322:141,1,48.75,10|8,0:0|0:0,0:0:0:0:
201,282,87182,1,8,0:0:0:0:
108,237,87334,1,10,3:0:0:0:
96,164,87485,1,6,3:0:0:0:
256,0,87637,5,6,1:2:0:0:
256,0,87940,5,0,1:0:0:0:
187,48,88091,1,0,1:0:0:0:
214,126,88243,1,0,1:0:0:0:
296,126,88394,1,8,0:0:0:0:
321,47,88546,1,0,1:0:0:0:
256,192,88697,5,0,1:0:0:0:
256,216,88773,1,0,1:0:0:0:
256,240,88849,1,0,1:0:0:0:
256,264,88925,1,0,1:0:0:0:
257,288,89000,6,0,B|316:288|316:288|340:304|340:304|421:304,1,146.250005578995,0|0,1:0|1:0,0:0:0:0:
500,240,89455,2,0,B|441:240|441:240|417:224|417:224|358:224,1,146.250005578995,8|8,0:0|0:0,0:0:0:0:
296,126,89909,1,0,1:0:0:0:
358,224,90061,2,0,L|412:224,1,36.5625013947487,0|0,1:0|1:0,0:0:0:0:
256,0,90212,5,0,1:0:0:0:
256,0,90667,6,0,B|208:28|208:28|208:132,1,146.250005578995,8|8,0:0|0:0,0:0:0:0:
172,200,91122,1,0,1:0:0:0:
252,180,91273,1,0,1:0:0:0:
136,124,91425,1,8,0:0:0:0:
224,256,91576,5,2,0:0:0:0:
228,276,91652,1,2,0:0:0:0:
236,296,91728,2,0,L|296:284,1,36.5625013947487,10|2,0:0|0:0,0:0:0:0:
312,224,91879,2,0,L|347:231,1,36.5625013947487,10|2,0:0|0:0,0:0:0:0:
472,160,92031,6,0,L|404:146,1,48.75,10|2,0:0|0:0,0:0:0:0:
368,72,92182,2,0,L|314:85,1,48.75,10|2,0:0|0:0,0:0:0:0:
92,284,92334,6,0,L|166:269,1,60.9375,10|2,0:0|0:0,0:0:0:0:
376,336,92485,2,0,L|435:350,1,60.9375,10|0,0:0|0:0,0:0:0:0:
