osu file format v14

[General]
AudioFilename: audio.ogg
AudioLeadIn: 0
PreviewTime: 48299
Countdown: 0
SampleSet: Soft
StackLeniency: 0.7
Mode: 0
LetterboxInBreaks: 0
WidescreenStoryboard: 1

[Editor]
Bookmarks: 39303
DistanceSpacing: 1.2
BeatDivisor: 4
GridSize: 32
TimelineZoom: 1.5

[Metadata]
Title:Kimi no Tonari de (TV Size)
TitleUnicode:キミのとなりで (TV Size)
Artist:Kito Akari
ArtistUnicode:鬼頭明里
Creator:Aakki
Version:Nexus' Adachi
Source:安達としまむら
Tags:iceluin gay jpop j-pop nexusqi kazuma shirahane suou japanese pop anime adachi and to shimamura lugu ed ending yuri adashima こだまさおり Saori Kodama 伊藤 翼 Tsubasa Itō Itou Ito
BeatmapID:2804601
BeatmapSetID:1335007

[Difficulty]
HPDrainRate:5.8
CircleSize:4.1
OverallDifficulty:8.8
ApproachRate:9.3
SliderMultiplier:1.75
SliderTickRate:1

[Events]
//Background and Video events
0,0,"1101639.jpg",0,0
//Break Periods
//Storyboard Layer 0 (Background)
//Storyboard Layer 1 (Fail)
//Storyboard Layer 2 (Pass)
//Storyboard Layer 3 (Foreground)
//Storyboard Layer 4 (Overlay)
//Storyboard Sound Samples

[TimingPoints]
516,303.030303030303,4,2,1,40,1,0
516,-142.857142857143,4,2,1,40,0,0
10212,-133.333333333333,4,2,1,50,0,0
19909,-117.647058823529,4,2,1,50,0,0
24985,-117.647058823529,4,2,1,5,0,0
25061,-117.647058823529,4,2,1,50,0,0
25591,-117.647058823529,4,2,1,5,0,0
25667,-117.647058823529,4,2,1,50,0,0
28394,-105.263157894737,4,2,1,50,0,0
29606,-111.111111111111,4,2,1,55,0,0
30061,-125,4,2,1,55,0,0
30515,-142.857142857143,4,2,1,55,0,0
30970,-166.666666666667,4,2,1,55,0,0
31728,-125,4,2,1,55,0,0
32031,-111.111111111111,4,2,1,55,0,0
32485,-125,4,2,1,55,0,0
32940,-142.857142857143,4,2,1,55,0,0
33394,-166.666666666667,4,2,1,55,0,0
34152,-100,4,2,1,55,0,0
34379,-100,4,2,1,5,0,0
34455,-111.111111111111,4,2,1,55,0,0
34909,-125,4,2,1,55,0,0
35364,-142.857142857143,4,2,1,55,0,0
35819,-166.666666666667,4,2,1,55,0,0
36273,-111.111111111111,4,2,1,55,0,0
36652,-111.111111111111,4,2,1,5,0,0
36879,-111.111111111111,4,2,1,55,0,0
37334,-125,4,2,1,55,0,0
37788,-142.857142857143,4,2,1,55,0,0
39303,-105.263157894737,4,2,1,55,0,0
42106,-105.263157894737,4,2,1,5,0,0
42182,-105.263157894737,4,2,1,55,0,0
44076,-105.263157894737,4,2,1,5,0,0
44152,-100,4,2,1,55,0,0
44379,-100,4,2,1,5,0,0
44455,-100,4,2,1,55,0,0
44833,-100,4,2,1,5,0,0
44909,-100,4,2,1,55,0,0
45288,-100,4,2,1,55,0,0
45364,-100,4,2,1,55,0,0
46576,-90.9090909090909,4,2,1,65,0,0
46803,-90.9090909090909,4,2,1,5,0,0
46879,-90.9090909090909,4,2,1,65,0,0
47864,-90.9090909090909,4,2,1,5,0,0
47940,-90.9090909090909,4,2,1,65,0,0
48697,-166.666666666667,4,2,1,45,0,0
48849,-86.9565217391304,4,2,1,70,0,1
49076,-86.9565217391304,4,2,1,5,0,1
49152,-86.9565217391304,4,2,1,70,0,1
50288,-86.9565217391304,4,2,1,5,0,1
50364,-86.9565217391304,4,2,1,70,0,1
51500,-86.9565217391304,4,2,1,5,0,1
51576,-86.9565217391304,4,2,1,70,0,1
52712,-86.9565217391304,4,2,1,5,0,1
52788,-86.9565217391304,4,2,1,70,0,1
53924,-86.9565217391304,4,2,1,70,0,1
54000,-86.9565217391304,4,2,1,70,0,1
54379,-86.9565217391304,4,2,1,5,0,1
54455,-86.9565217391304,4,2,1,70,0,1
55136,-86.9565217391304,4,2,1,5,0,1
55212,-86.9565217391304,4,2,1,70,0,1
55742,-86.9565217391304,4,2,1,5,0,1
55818,-86.9565217391304,4,2,1,70,0,1
56349,-86.9565217391304,4,2,1,5,0,1
56425,-86.9565217391304,4,2,1,70,0,1
57561,-86.9565217391304,4,2,1,5,0,1
57637,-86.9565217391304,4,2,1,70,0,1
58773,-86.9565217391304,4,2,1,5,0,1
58849,-86.9565217391304,4,2,1,70,0,1
59985,-86.9565217391304,4,2,1,5,0,1
60061,-86.9565217391304,4,2,1,70,0,1
61197,-86.9565217391304,4,2,1,5,0,1
61273,-86.9565217391304,4,2,1,70,0,1
62409,-86.9565217391304,4,2,1,5,0,1
62485,-86.9565217391304,4,2,1,70,0,1
64682,-86.9565217391304,4,2,1,5,0,1
64758,-86.9565217391304,4,2,1,70,0,1
65591,-86.9565217391304,4,2,1,5,0,1
65667,-86.9565217391304,4,2,1,70,0,1
66046,-86.9565217391304,4,2,1,5,0,1
66122,-86.9565217391304,4,2,1,70,0,1
67712,-86.9565217391304,4,2,1,5,0,1
67788,-86.9565217391304,4,2,1,70,0,1
68167,-86.9565217391304,4,2,1,70,0,0
68243,-86.9565217391304,4,2,1,80,0,1
68470,-86.9565217391304,4,2,1,5,0,1
68546,-86.9565217391304,4,2,1,80,0,1
69682,-86.9565217391304,4,2,1,5,0,1
69758,-86.9565217391304,4,2,1,80,0,1
70894,-86.9565217391304,4,2,1,5,0,1
70970,-86.9565217391304,4,2,1,80,0,1
72106,-86.9565217391304,4,2,1,5,0,1
72182,-86.9565217391304,4,2,1,70,0,1
73167,-86.9565217391304,4,2,1,5,0,1
73243,-86.9565217391304,4,2,1,80,0,1
73546,-86.9565217391304,4,2,1,50,0,1
73849,-86.9565217391304,4,2,1,55,0,1
74152,-86.9565217391304,4,2,1,60,0,1
74455,-86.9565217391304,4,2,1,65,0,1
74758,-86.9565217391304,4,2,1,70,0,1
75061,-86.9565217391304,4,2,1,75,0,1
75364,-86.9565217391304,4,2,1,80,0,1
75667,-86.9565217391304,4,2,1,75,0,1
75894,-86.9565217391304,4,2,1,5,0,1
75970,-86.9565217391304,4,2,1,50,0,1
76273,-86.9565217391304,4,2,1,55,0,1
76576,-86.9565217391304,4,2,1,60,0,1
76879,-86.9565217391304,4,2,1,65,0,1
77182,-86.9565217391304,4,2,1,70,0,1
77485,-86.9565217391304,4,2,1,75,0,1
77788,-86.9565217391304,4,2,1,80,0,1
78091,-86.9565217391304,4,2,1,85,0,1
78318,-86.9565217391304,4,2,1,5,0,1
78394,-86.9565217391304,4,2,1,85,0,1
78773,-86.9565217391304,4,2,1,5,0,1
78849,-86.9565217391304,4,2,1,85,0,1
79227,-86.9565217391304,4,2,1,5,0,1
79303,-86.9565217391304,4,2,1,85,0,1
80515,-100,4,2,1,50,0,0
80742,-100,4,2,1,5,0,0
80819,-100,4,2,1,50,0,0
83167,-100,4,2,1,5,0,0
83243,-100,4,2,1,50,0,0
85288,-100,4,2,1,5,0,0
85364,-100,4,2,1,60,0,0
85591,-100,4,2,1,5,0,0
85667,-100,4,2,1,60,0,0
86046,-100,4,2,1,5,0,0
86122,-100,4,2,1,60,0,0
86955,-100,4,2,1,5,0,0
87031,-100,4,2,1,60,0,0
87637,-125,4,2,1,55,0,0
91273,-111.111111111111,4,2,1,55,0,0
91728,-111.111111111111,4,2,1,65,0,0
92031,-99.9999999999999,4,2,1,75,0,0
92182,-83.3333333333333,4,2,1,75,0,0
92334,-71.4285714285714,4,2,1,85,0,0
92485,-62.5,4,2,1,85,0,0

[Colours]
Combo1 : 9,175,255
Combo2 : 255,70,70
Combo3 : 255,255,81
Combo4 : 255,74,165

[HitObjects]
213,98,516,6,0,B|223:88|220:68|220:68|228:89|246:94,2,61.2499981307984,6|2|2,1:2|0:0|0:0,0:0:0:0:
67,36,970,2,0,L|135:45,1,61.2499981307984,2|0,0:0|0:0,0:0:0:0:
8,110,1273,2,0,L|76:119,1,61.2499981307984,2|0,0:0|0:0,0:0:0:0:
144,220,1576,2,0,P|154:190|129:146,1,61.2499981307984,2|2,0:0|0:0,0:0:0:0:
46,314,1879,5,2,0:0:0:0:
41,325,2031,1,2,0:0:0:0:
45,335,2182,1,2,0:0:0:0:
192,344,2334,2,0,P|158:364|125:355,1,61.2499981307984,2|2,0:0|0:0,0:0:0:0:
126,351,2561,1,2,0:0:0:0:
126,351,2637,1,2,0:0:0:0:
224,263,2788,1,2,0:0:0:0:
353,384,2940,5,2,0:0:0:0:
350,373,3091,1,2,0:0:0:0:
419,243,3243,5,2,0:0:0:0:
422,232,3394,1,2,0:0:0:0:
302,307,3546,2,0,P|331:294|365:297,1,61.2499981307984,2|2,0:0|0:0,0:0:0:0:
425,342,3849,2,0,P|452:354|482:353,1,61.2499981307984,2|2,0:0|0:0,0:0:0:0:
512,218,4152,5,2,0:0:0:0:
316,96,4379,1,2,0:0:0:0:
316,96,4455,2,0,B|327:165,1,61.2499981307984,2|2,0:0|0:0,0:0:0:0:
291,236,4758,1,2,0:0:0:0:
147,123,4909,2,0,L|183:131,3,30.6249990653992,2|2|2|2,0:0|0:0|0:0|0:0,0:0:0:0:
246,161,5212,1,2,0:0:0:0:
364,15,5364,6,0,B|347:8|343:-9|343:-9|346:8|331:30,2,61.2499981307984,6|2|2,1:2|0:0|0:0,0:0:0:0:
470,61,5818,2,0,P|442:83|391:80,1,61.2499981307984,2|0,0:0|0:0,0:0:0:0:
436,180,6122,2,0,P|400:175|366:137,1,61.2499981307984,2|0,0:0|0:0,0:0:0:0:
255,85,6424,2,0,L|327:97,1,61.2499981307984,2|2,0:0|0:0,0:0:0:0:
141,29,6728,5,2,0:0:0:0:
130,31,6880,1,2,0:0:0:0:
119,34,7031,1,2,0:0:0:0:
77,157,7182,2,0,P|119:152|141:126,1,61.2499981307984,2|2,0:0|0:0,0:0:0:0:
157,114,7409,1,2,0:0:0:0:
157,114,7485,1,2,0:0:0:0:
25,90,7636,1,2,0:0:0:0:
118,235,7788,5,2,0:0:0:0:
121,245,7939,1,2,0:0:0:0:
51,335,8091,2,0,L|111:324,1,61.2499981307984,10|2,0:0|0:0,0:0:0:0:
245,194,8394,5,2,0:0:0:0:
240,202,8545,1,2,0:0:0:0:
255,284,8697,2,0,L|194:272,1,61.2499981307984,10|2,0:0|0:0,0:0:0:0:
33,230,9000,5,2,0:0:0:0:
137,38,9227,1,2,0:0:0:0:
137,38,9303,2,0,P|153:69|141:100,1,61.2499981307984,10|10,0:0|0:0,0:0:0:0:
136,110,9531,1,10,0:0:0:0:
136,110,9606,1,8,0:0:0:0:
159,187,9758,1,8,3:0:0:0:
240,202,9909,1,6,3:0:0:0:
294,139,10061,1,6,3:0:0:0:
390,289,10212,6,0,B|362:260|324:269|324:269|315:310|262:318,2,131.25000500679,6|10|2,1:2|0:0|0:0,0:0:0:0:
467,384,10970,1,2,0:0:0:0:
467,384,11122,2,0,P|458:339|473:312,1,65.6250025033952,10|2,0:0|0:0,0:0:0:0:
512,175,11425,6,0,B|524:100|524:100|501:70|463:94,1,131.25000500679,2|10,0:0|0:0,0:0:0:0:
366,158,11879,2,0,P|400:164|436:144,1,65.6250025033952,2|0,0:0|0:0,0:0:0:0:
273,112,12182,2,0,P|281:146|286:190,1,65.6250025033952,2|8,0:0|0:0,0:0:0:0:
273,112,12485,1,2,1:2:0:0:
288,306,12637,6,0,B|205:308|254:248|149:262,1,131.25000500679,2|10,1:2|0:0,0:0:0:0:
76,381,13091,2,0,B|103:304|103:304|75:296|52:255,1,131.25000500679,2|0,0:0|0:0,0:0:0:0:
121,111,13546,6,0,P|74:119|26:47,2,131.25000500679,8|0|8,0:0|0:0|0:0,0:0:0:0:
244,215,14455,2,0,B|238:137,1,65.6250025033952,2|0,0:0|0:0,0:0:0:0:
323,260,14758,2,0,B|317:185,1,65.6250025033952,10|0,0:0|0:0,0:0:0:0:
310,20,15061,6,0,B|387:33|387:33|388:66|421:88,1,131.25000500679,2|8,1:2|0:0,0:0:0:0:
503,0,15515,2,0,P|495:56|490:136,1,131.25000500679,2|0,0:0|0:0,0:0:0:0:
490,130,15970,1,10,0:0:0:0:
293,118,16197,5,0,0:0:0:0:
293,118,16273,2,0,B|328:132|363:104|342:86|379:67|423:83,1,131.25000500679,2|8,0:0|0:0,0:0:0:0:
295,37,16728,2,0,P|254:-2|165:22,1,131.25000500679,2|0,0:0|0:0,0:0:0:0:
103,95,17182,2,0,P|141:88|185:85,1,65.6250025033952,10|0,0:0|1:0,0:0:0:0:
303,204,17485,6,0,B|226:185|226:185|216:210|180:219,1,131.25000500679,2|10,1:2|0:0,0:0:0:0:
45,170,17940,2,0,P|97:202|95:271,1,131.25000500679,2|0,0:0|0:0,0:0:0:0:
0,321,18394,2,0,B|50:334|50:334|59:363|59:363|119:382,1,131.25000500679,8|0,0:0|0:0,0:0:0:0:
281,371,18849,5,0,1:0:0:0:
97,266,19000,1,8,0:0:0:0:
194,384,19152,1,8,3:0:0:0:
194,384,19228,1,8,3:0:0:0:
194,384,19303,1,8,3:0:0:0:
173,304,19455,1,8,3:0:0:0:
222,207,19606,1,4,3:0:0:0:
203,134,19758,1,4,3:0:0:0:
374,324,19909,6,0,B|405:288|447:305|447:305|455:346|498:355,1,148.750002837181,4|10,1:2|0:0,0:0:0:0:
374,324,20364,1,2,0:0:0:0:
481,164,20516,2,0,P|509:198|490:251,1,74.3750014185906,2|0,0:0|0:0,0:0:0:0:
318,263,20819,1,10,0:0:0:0:
417,120,20970,1,2,0:0:0:0:
318,263,21122,6,0,B|276:275|241:246|263:232|221:202|174:222,1,148.750002837181,2|10,0:0|0:0,0:0:0:0:
232,336,21576,2,0,P|202:352|146:343,1,74.3750014185906,2|0,0:0|0:0,0:0:0:0:
40,288,21879,2,0,P|80:281|136:276,1,74.3750014185906,2|8,0:0|0:0,0:0:0:0:
0,367,22182,1,0,1:0:0:0:
143,200,22334,6,0,B|136:154|167:125|167:125|143:82|89:93,1,148.750002837181,2|10,1:2|0:0,0:0:0:0:
320,148,22788,2,0,P|279:164|247:173,1,74.3750014185906,2|0,0:0|0:0,0:0:0:0:
113,90,23091,2,0,P|143:116|180:115,1,74.3750014185906,2|8,0:0|0:0,0:0:0:0:
357,23,23394,6,0,B|437:40|437:40|431:80|466:100,1,148.750002837181,2|0,0:0|0:0,0:0:0:0:
290,66,23849,1,8,0:0:0:0:
463,311,24152,2,0,P|485:279|467:228,1,74.3750014185906,2|0,0:0|0:0,0:0:0:0:
389,123,24455,2,0,P|400:160|403:205,1,74.3750014185906,10|0,0:0|0:0,0:0:0:0:
312,363,24758,6,0,P|286:323|215:336,1,111.562502127886,2|0,1:2|0:0,0:0:0:0:
221,335,25061,2,0,P|177:339|146:311,1,74.3750014185906,8|0,0:0|0:0,0:0:0:0:
244,106,25364,6,0,P|284:132|271:203,1,111.562502127886,2|0,0:0|0:0,0:0:0:0:
287,199,25667,2,0,P|258:229|210:225,1,74.3750014185906,8|0,0:0|0:0,0:0:0:0:
23,81,25970,6,0,B|110:68|58:20|165:18,1,148.750002837181,2|10,0:0|0:0,0:0:0:0:
116,135,26425,2,0,P|154:157|204:153,1,74.3750014185906,2|0,0:0|0:0,0:0:0:0:
59,246,26728,2,0,P|54:207|36:156,1,74.3750014185906,2|8,0:0|0:0,0:0:0:0:
8,318,27031,1,0,1:0:0:0:
211,311,27182,6,0,B|165:291|134:328|134:328|140:371|94:399,1,148.750002837181,2|10,1:2|0:0,0:0:0:0:
274,381,27637,2,0,P|311:368|351:359,1,74.3750014185906,2|0,0:0|0:0,0:0:0:0:
501,326,27940,1,2,1:2:0:0:
301,267,28091,1,8,0:0:0:0:
434,384,28243,1,0,1:0:0:0:
512,150,28394,5,10,0:0:0:0:
402,297,28546,1,0,1:0:0:0:
397,98,28697,2,0,P|416:138|434:193,1,83.1249977803231,14|8,0:0|0:0,0:0:0:0:
437,203,28925,1,8,0:0:0:0:
437,203,29000,1,10,0:0:0:0:
350,178,29152,1,8,3:0:0:0:
303,91,29303,1,6,3:0:0:0:
226,70,29455,1,4,3:0:0:0:
129,272,29606,6,0,B|158:283|178:334|178:334|171:280|201:249,1,157.499995193482,6|0,1:2|0:0,0:0:0:0:
170,181,30061,6,0,B|146:171|128:128|128:128|134:174|109:200,1,140,8|0,3:0|0:0,0:0:0:0:
309,327,30516,6,0,B|288:338|270:376|270:376|275:333|251:308,1,122.499996261597,8|0,3:0|0:0,0:0:0:0:
282,238,30971,6,0,B|301:230|314:196|314:196|310:232|330:253,1,104.999996795654,4|0,3:0|0:0,0:0:0:0:
249,68,31425,1,0,1:0:0:0:
396,210,31576,1,0,1:0:0:0:
180,169,31728,2,0,P|205:162|260:153,1,70,10|2,0:0|0:0,0:0:0:0:
512,49,32031,6,0,B|447:68|414:9|414:9|442:13|460:-8,1,157.499995193482,4|0,1:2|0:0,0:0:0:0:
408,107,32485,6,0,B|361:151|307:115|307:115|333:106|339:81,1,140,10|2,3:0|0:0,0:0:0:0:
170,249,32940,6,0,B|207:287|253:260|253:260|232:252|228:230,1,122.499996261597,8|0,3:0|0:0,0:0:0:0:
257,345,33394,6,0,B|304:359|330:312|330:312|308:315|294:298,1,104.999996795654,6|0,3:0|0:0,0:0:0:0:
192,171,33849,1,0,1:0:0:0:
314,311,34000,1,0,1:0:0:0:
258,117,34152,2,0,B|233:64|168:77|168:77|190:79|191:91,1,131.25,14|0,0:0|0:0,0:0:0:0:
194,96,34455,6,0,B|260:79|260:79|269:60|269:60|341:42,1,157.499995193482,6|2,1:2|0:0,0:0:0:0:
340,127,34909,6,0,B|398:141|398:141|406:158|406:158|464:173,1,140,10|2,3:0|0:0,0:0:0:0:
257,229,35364,6,0,B|207:241|207:241|200:256|200:256|146:269,1,122.499996261597,10|0,3:0|0:0,0:0:0:0:
135,182,35819,6,0,B|91:171|91:171|81:157|81:157|22:141,1,104.999996795654,4|0,3:0|0:0,0:0:0:0:
165,35,36273,2,0,P|139:61|153:122,1,78.7499975967408,2|0,1:2|1:0,0:0:0:0:
71,281,36576,2,0,P|67:252|59:230,1,39.3749987983704,10|0,0:0|0:0,0:0:0:0:
361,363,36879,6,0,B|400:400|455:372|455:372|462:334|400:317,1,157.499995193482,4|2,3:2|0:0,0:0:0:0:
318,292,37334,6,0,B|286:322|233:291|233:291|231:266|258:253,1,140,10|2,3:0|0:0,0:0:0:0:
366,167,37788,6,0,P|383:195|373:232,1,61.2499981307984,6|2,3:0|0:0,0:0:0:0:
318,100,38091,5,2,1:2:0:0:
456,260,38243,1,8,0:0:0:0:
252,145,38394,1,2,1:2:0:0:
502,50,38546,1,10,0:0:0:0:
502,50,38622,1,8,0:0:0:0:
502,50,38697,1,8,0:0:0:0:
361,197,38849,6,0,L|368:147,1,30.6249990653992,10|2,3:0|0:0,0:0:0:0:
410,6,39000,1,6,3:0:0:0:
414,37,39076,1,2,0:0:0:0:
419,67,39152,1,6,3:0:0:0:
424,97,39228,1,2,0:0:0:0:
429,128,39303,1,4,1:2:0:0:
320,279,39455,6,0,B|213:272|284:199|146:216,1,166.249995560646,2|2,0:0|1:2,0:0:0:0:
38,323,39909,1,10,0:0:0:0:
0,257,40061,1,2,0:0:0:0:
119,115,40212,1,2,1:2:0:0:
86,186,40364,1,2,1:2:0:0:
172,380,40515,6,0,P|199:328|183:284,1,83.1249977803231,2|8,0:0|0:0,0:0:0:0:
126,120,40819,1,2,0:0:0:0:
221,220,40970,2,0,P|175:230|110:257,1,83.1249977803231,2|8,1:2|0:0,0:0:0:0:
247,75,41273,2,0,P|285:120|274:159,1,83.1249977803231,2|2,0:0|1:2,0:0:0:0:
336,310,41576,2,0,P|341:271|357:223,1,83.1249977803231,2|0,0:0|1:0,0:0:0:0:
503,100,41879,6,0,B|438:83|438:83|414:54|450:26,1,124.687496670485,2|0,0:0|0:0,0:0:0:0:
451,28,42182,1,2,1:2:0:0:
279,151,42334,2,0,P|319:157|365:132,1,83.1249977803231,10|0,0:0|0:0,0:0:0:0:
213,230,42637,1,2,1:2:0:0:
348,57,42788,1,0,1:0:0:0:
206,242,42940,6,0,P|199:189|186:152,1,83.1249977803231,2|8,0:0|0:0,0:0:0:0:
118,217,43243,1,0,0:0:0:0:
197,2,43394,2,0,P|241:38|241:77,1,83.1249977803231,2|8,1:2|3:0,0:0:0:0:
165,69,43697,1,4,3:0:0:0:
334,218,43849,2,0,P|419:188|428:151,1,124.687496670485,4|0,1:2|0:0,0:0:0:0:
437,273,44152,6,0,P|404:231|447:152,1,131.25,6|0,1:2|0:0,0:0:0:0:
426,162,44455,1,10,0:0:0:0:
215,321,44606,2,0,B|291:336|291:336|285:364|313:389,1,131.25,6|0,1:2|0:0,0:0:0:0:
308,384,44909,1,10,0:0:0:0:
129,222,45061,2,0,B|124:166|157:132|157:132|143:86|89:91,1,175,6|0,1:2|1:0,0:0:0:0:
53,260,45515,5,8,0:0:0:0:
53,260,45590,1,8,0:0:0:0:
53,260,45666,1,8,0:0:0:0:
224,90,45819,1,8,0:0:0:0:
320,277,45970,1,8,3:0:0:0:
248,245,46122,1,10,3:0:0:0:
198,330,46273,1,4,3:0:0:0:
126,297,46425,1,6,3:0:0:0:
304,77,46576,6,0,P|366:128|338:206,1,144.375004405975,6|0,1:2|0:0,0:0:0:0:
340,200,46879,1,8,1:2:0:0:
335,181,46955,1,8,0:0:0:0:
345,159,47031,1,8,0:0:0:0:
367,141,47106,1,8,0:0:0:0:
399,140,47182,1,10,1:2:0:0:
431,162,47258,1,8,0:0:0:0:
437,203,47334,1,10,0:0:0:0:
401,238,47409,1,8,0:0:0:0:
405,289,47485,1,10,0:0:0:0:
452,325,47561,1,8,0:0:0:0:
510,297,47637,6,0,B|474:280|441:295|441:295|438:349|384:363,1,144.375004405975,6|0,1:2|0:0,0:0:0:0:
405,354,47940,5,10,0:0:0:0:
304,77,48092,1,10,0:0:0:0:
7,233,48849,6,0,B|98:206|98:206|115:238|153:244,1,150.937502878904,6|0,1:2|0:0,0:0:0:0:
152,246,49152,1,2,0:0:0:0:
111,0,49303,2,0,P|84:37|103:106,1,100.62500191927,10|0,0:0|0:0,0:0:0:0:
237,274,49606,2,0,P|226:212|210:166,1,100.62500191927,2|0,1:2|0:0,0:0:0:0:
286,72,49909,1,10,0:0:0:0:
463,310,50061,6,0,P|385:315|356:390,1,150.937502878904,2|0,0:0|0:0,0:0:0:0:
361,384,50364,2,0,P|379:326|364:282,1,100.62500191927,2|8,0:0|0:0,0:0:0:0:
198,95,50667,1,2,0:0:0:0:
407,197,50819,2,0,P|358:209|282:232,1,100.62500191927,0|0,1:0|0:0,0:0:0:0:
451,125,51122,1,10,0:0:0:0:
211,340,51273,6,0,B|175:312|132:311|132:311|112:271|148:242,1,150.937502878904,2|0,0:0|0:0,0:0:0:0:
146,248,51576,2,0,P|144:284|130:366,1,100.62500191927,2|8,0:0|0:0,0:0:0:0:
221,205,51879,1,2,0:0:0:0:
0,88,52031,2,0,P|71:96|139:-7,1,201.250003838539,2|10,1:2|0:0,0:0:0:0:
364,172,52485,6,0,B|317:177|284:150|312:130|268:99|218:118,1,150.937502878904,2|0,0:0|0:0,0:0:0:0:
226,119,52788,1,2,0:0:0:0:
433,0,52940,2,0,P|465:29|452:92,1,100.62500191927,8|0,0:0|0:0,0:0:0:0:
314,350,53243,5,2,1:2:0:0:
336,267,53394,1,2,0:0:0:0:
358,182,53546,1,10,0:0:0:0:
75,358,53697,6,0,B|116:325|187:331|187:331|217:287|179:255,1,201.250003838539,6|2,1:2|0:0,0:0:0:0:
63,59,54152,2,0,P|14:94|27:185,1,150.937502878904,10|0,0:0|0:0,0:0:0:0:
16,192,54455,2,0,P|63:184|116:171,1,100.62500191927,0|0,1:0|0:0,0:0:0:0:
82,263,54758,1,10,0:0:0:0:
270,17,54909,6,0,B|352:36|352:36|384:67|335:103,1,150.937502878904,6|0,1:2|0:0,0:0:0:0:
274,134,55212,2,0,P|224:125|175:113,1,100.62500191927,2|10,1:2|0:0,0:0:0:0:
337,328,55515,6,0,B|419:309|419:309|451:278|402:242,1,150.937502878904,6|0,1:2|0:0,0:0:0:0:
341,211,55818,2,0,P|291:219|242:231,1,100.62500191927,2|8,1:2|0:0,0:0:0:0:
493,10,56122,6,0,P|432:51|459:138,1,150.937502878904,6|0,1:2|0:0,0:0:0:0:
451,131,56425,1,2,1:2:0:0:
332,45,56576,5,8,0:0:0:0:
436,216,56728,1,2,1:2:0:0:
325,32,56879,5,8,0:0:0:0:
360,261,57031,1,2,1:2:0:0:
319,22,57182,5,8,0:0:0:0:
203,284,57334,2,0,B|239:257|280:278|280:278|282:323|333:340,1,150.937502878904,6|0,1:2|0:0,0:0:0:0:
316,333,57637,5,2,1:2:0:0:
360,356,57712,1,2,0:0:0:0:
404,346,57788,1,10,0:0:0:0:
427,311,57864,1,2,0:0:0:0:
454,288,57940,1,2,1:2:0:0:
484,288,58015,1,2,0:0:0:0:
503,304,58091,1,10,0:0:0:0:
511,322,58167,1,10,3:0:0:0:
511,336,58243,1,6,3:0:0:0:
502,348,58319,1,6,3:0:0:0:
496,355,58394,1,10,0:0:0:0:
258,109,58546,6,0,P|173:109|146:177,1,150.937502878904,6|0,1:2|0:0,0:0:0:0:
132,159,58849,2,0,P|162:217|155:263,1,100.62500191927,2|8,0:0|0:0,0:0:0:0:
54,122,59152,1,2,0:0:0:0:
230,323,59303,2,0,P|183:334|113:359,1,100.62500191927,2|0,1:2|0:0,0:0:0:0:
76,228,59606,1,10,0:0:0:0:
361,384,59758,6,0,B|327:285|327:285|354:275|378:220,1,150.937502878904,2|0,0:0|0:0,0:0:0:0:
372,248,60061,2,0,P|388:197|355:146,1,100.62500191927,2|8,0:0|0:0,0:0:0:0:
196,2,60364,1,2,0:0:0:0:
407,36,60516,5,2,1:2:0:0:
324,73,60667,1,2,0:0:0:0:
237,109,60819,1,10,0:0:0:0:
488,215,60970,6,0,B|454:179|415:197|415:197|406:241|354:252,1,150.937502878904,2|0,0:0|0:0,0:0:0:0:
362,247,61273,1,2,0:0:0:0:
195,353,61425,1,10,0:0:0:0:
348,150,61576,1,2,0:0:0:0:
371,365,61728,2,0,P|315:336|264:326,1,100.62500191927,2|2,1:2|0:0,0:0:0:0:
441,310,62031,1,10,0:0:0:0:
224,99,62182,6,0,P|135:95|104:183,1,150.937502878904,2|0,0:0|0:0,0:0:0:0:
101,157,62485,1,2,0:0:0:0:
196,0,62637,1,8,0:0:0:0:
58,229,62788,2,0,P|16:169|25:119,1,100.62500191927,2|0,0:0|1:0,0:0:0:0:
120,291,63091,2,0,P|51:316|2:295,1,100.62500191927,2|8,0:0|0:0,0:0:0:0:
58,229,63394,1,2,0:0:0:0:
323,285,63546,5,6,1:2:0:0:
126,384,63697,1,2,0:0:0:0:
209,200,63849,2,0,P|230:247|247:318,1,100.62500191927,10|0,0:0|0:0,0:0:0:0:
385,180,64152,2,0,P|323:172|278:141,1,100.62500191927,2|0,1:2|0:0,0:0:0:0:
27,60,64455,6,0,B|115:54|71:5|179:11,1,150.937502878904,14|0,0:0|0:0,0:0:0:0:
173,28,64758,2,0,B|233:25|276:66|276:66|327:34|309:-10,1,201.250003838539,2|8,1:2|0:0,0:0:0:0:
197,114,65212,1,2,0:0:0:0:
374,269,65364,2,0,P|464:264|490:184,1,150.937502878904,6|0,1:2|0:0,0:0:0:0:
482,205,65667,1,10,0:0:0:0:
259,384,65819,6,0,B|289:316|289:316|265:260|217:272,1,150.937502878904,6|0,1:2|0:0,0:0:0:0:
219,279,66122,1,2,1:2:0:0:
312,102,66273,2,0,P|344:133|331:202,1,100.62500191927,10|2,0:0|0:0,0:0:0:0:
260,196,66576,5,2,1:2:0:0:
188,176,66728,1,2,0:0:0:0:
9,136,66879,5,10,0:0:0:0:
116,100,67031,1,2,0:0:0:0:
271,34,67182,5,2,1:2:0:0:
107,0,67334,1,2,0:0:0:0:
308,113,67485,6,0,B|336:87|383:97|383:97|393:137|435:148,1,150.937502878904,14|0,0:0|0:0,0:0:0:0:
440,152,67788,5,2,1:2:0:0:
272,380,67940,1,10,0:0:0:0:
272,380,68016,1,8,0:0:0:0:
272,380,68091,1,10,0:0:0:0:
500,220,68243,6,0,B|417:240|417:240|420:283|366:304,1,150.937502878904,6|0,1:2|0:0,0:0:0:0:
374,303,68546,5,2,1:2:0:0:
320,105,68697,1,10,0:0:0:0:
281,300,68849,5,0,1:0:0:0:
295,26,69000,1,8,0:0:0:0:
219,239,69152,5,2,1:2:0:0:
367,0,69303,1,10,0:0:0:0:
219,239,69455,6,0,B|188:200|154:201|154:201|134:244|83:246,1,150.937502878904,6|0,1:2|0:0,0:0:0:0:
82,229,69758,1,2,1:2:0:0:
242,84,69909,1,10,0:0:0:0:
26,296,70061,2,0,P|-4:244|11:196,1,100.62500191927,2|8,1:2|0:0,0:0:0:0:
36,14,70364,2,0,P|47:47|59:111,1,100.62500191927,2|8,1:2|0:0,0:0:0:0:
283,354,70667,6,0,B|384:360|327:295|441:316,1,150.937502878904,6|0,1:2|0:0,0:0:0:0:
435,324,70970,5,2,1:2:0:0:
269,271,71122,1,10,0:0:0:0:
506,122,71273,5,2,1:2:0:0:
279,277,71425,1,10,0:0:0:0:
1,58,71728,6,0,B|66:-20|152:44|152:44|122:100|64:90,1,251.562504798174,6|0,1:2|0:0,0:0:0:0:
91,90,72182,5,2,1:2:0:0:
68,131,72258,1,2,0:0:0:0:
90,169,72334,1,14,0:0:0:0:
128,173,72409,1,2,0:0:0:0:
154,150,72485,1,2,1:2:0:0:
182,140,72561,1,2,0:0:0:0:
211,149,72637,1,14,0:0:0:0:
228,167,72712,1,10,3:0:0:0:
231,186,72788,1,6,3:0:0:0:
222,205,72864,1,6,3:0:0:0:
212,212,72940,2,0,P|191:117|235:89,1,150.937502878904,14|0,0:0|0:0,0:0:0:0:
226,80,73243,6,0,P|266:73|320:118,1,100.62500191927,2|0,1:2|0:0,0:0:0:0:
416,258,73546,1,2,1:2:0:0:
468,175,73697,1,2,1:2:0:0:
348,308,73849,1,0,1:0:0:0:
354,196,74000,1,0,1:0:0:0:
313,384,74152,1,0,1:0:0:0:
237,271,74303,1,2,1:2:0:0:
512,384,74455,6,0,P|461:374|401:367,1,100.62500191927,2|8,1:2|0:0,0:0:0:0:
259,190,74758,1,2,1:2:0:0:
354,303,74909,1,10,0:0:0:0:
147,260,75061,1,0,1:0:0:0:
349,290,75212,1,8,0:0:0:0:
107,378,75364,1,0,1:0:0:0:
337,281,75515,1,10,0:0:0:0:
137,63,75667,6,0,P|65:51|13:121,1,150.937502878904,6|0,1:2|0:0,0:0:0:0:
1,109,75970,2,0,P|-5:148|11:169,1,50.3125009596348,10|8,1:2|0:0,0:0:0:0:
70,296,76122,1,10,0:0:0:0:
70,296,76197,1,8,0:0:0:0:
70,296,76273,1,8,1:2:0:0:
70,296,76349,1,8,0:0:0:0:
70,296,76425,1,8,0:0:0:0:
70,296,76500,1,8,0:0:0:0:
70,296,76576,5,10,1:2:0:0:
93,303,76651,1,8,0:0:0:0:
118,298,76727,1,8,0:0:0:0:
137,283,76803,1,8,0:0:0:0:
160,276,76879,1,10,1:2:0:0:
185,281,76955,1,8,0:0:0:0:
204,296,77031,1,8,0:0:0:0:
215,314,77106,1,8,0:0:0:0:
218,330,77182,5,10,1:2:0:0:
185,291,77257,1,8,0:0:0:0:
177,244,77333,1,8,0:0:0:0:
194,199,77409,1,8,0:0:0:0:
231,168,77485,1,10,1:2:0:0:
278,160,77560,1,8,0:0:0:0:
323,176,77636,1,8,0:0:0:0:
354,214,77712,1,8,0:0:0:0:
355,263,77788,6,0,P|329:281|301:273,1,50.3125009596348,10|10,1:2|0:0,0:0:0:0:
335,374,77940,2,0,P|303:368|289:342,1,50.3125009596348,10|10,0:0|0:0,0:0:0:0:
129,153,78091,6,0,B|88:125|55:152|55:152|53:199|8:216,1,150.937502878904,6|0,1:2|0:0,0:0:0:0:
12,208,78394,1,10,0:2:0:0:
187,0,78546,2,0,P|202:56|221:156,1,150.937502878904,4|0,1:2|0:0,0:0:0:0:
231,168,78849,1,8,0:0:0:0:
0,314,79000,6,0,P|67:306|122:376,1,150.937502878904,4|0,1:2|0:0,0:0:0:0:
120,380,79303,1,8,0:0:0:0:
298,242,79455,2,0,B|239:242|202:280|202:280|141:247|164:184,1,201.250003838539,4|8,1:2|0:0,0:0:0:0:
311,354,79909,1,0,1:0:0:0:
311,354,79986,1,8,3:0:0:0:
311,354,80062,2,0,P|340:374|387:368,1,50.3125009596348,4|4,3:0|3:0,0:0:0:0:
445,344,80212,1,12,0:0:0:0:
445,344,80515,6,0,B|410:263|410:263|434:253|447:222,1,131.25,6|0,1:2|0:0,0:0:0:0:
440,234,80819,1,10,0:0:0:0:
484,64,80970,2,0,P|497:112|508:166,1,87.5,2|0,1:2|0:0,0:0:0:0:
332,261,81273,1,10,0:0:0:0:
347,185,81425,2,0,P|356:142|365:98,1,87.5,2|0,1:2|0:0,0:0:0:0:
183,261,81728,5,8,0:0:0:0:
183,261,81879,2,0,P|227:269|266:306,1,87.5,0|0,1:0|0:0,0:0:0:0:
119,384,82182,2,0,P|110:326|98:278,1,87.5,8|0,0:0|1:0,0:0:0:0:
16,89,82485,1,2,1:2:0:0:
83,134,82636,1,10,0:0:0:0:
9,170,82788,1,2,0:0:0:0:
185,30,82940,6,0,P|272:44|284:102,1,131.25,6|0,1:2|0:0,0:0:0:0:
282,86,83243,1,10,0:0:0:0:
148,216,83394,2,0,P|195:199|257:190,1,87.5,2|0,1:2|0:0,0:0:0:0:
408,346,83697,1,10,0:0:0:0:
361,286,83849,2,0,P|314:269|252:260,1,87.5,2|0,1:2|0:0,0:0:0:0:
469,117,84152,5,8,0:0:0:0:
469,117,84303,2,0,P|495:148|475:209,1,87.5,0|0,1:0|0:0,0:0:0:0:
371,20,84606,1,8,0:0:0:0:
270,150,84758,1,0,1:0:0:0:
301,159,84833,1,0,1:0:0:0:
333,154,84909,1,2,1:2:0:0:
360,136,84985,1,0,1:0:0:0:
378,109,85061,2,0,P|324:125|318:205,1,131.25,14|0,0:0|0:0,0:0:0:0:
356,280,85364,6,0,B|319:259|288:278|288:278|282:320|246:330,1,131.25,6|0,1:2|0:0,0:0:0:0:
257,325,85667,1,10,0:0:0:0:
104,160,85819,2,0,B|135:159|170:186|170:186|207:164|183:121,1,131.25,6|0,1:2|0:0,0:0:0:0:
189,136,86122,1,10,0:0:0:0:
28,332,86273,2,0,P|16:209|-1:159,1,175,6|8,1:2|0:0,0:0:0:0:
210,24,86728,6,0,B|287:40|287:40|279:68|320:106,1,131.25,6|0,1:2|0:0,0:0:0:0:
320,95,87031,1,10,0:0:0:0:
313,127,87106,1,8,0:0:0:0:
306,159,87182,1,8,0:0:0:0:
299,191,87258,1,8,0:0:0:0:
292,223,87334,2,0,P|264:209|240:199,1,43.75,10|0,3:0|0:0,0:0:0:0:
199,262,87485,2,0,P|177:267|129:276,1,43.75,6|0,3:0|0:0,0:0:0:0:
279,340,87637,6,0,B|365:339|315:286|413:286,1,140,6|0,1:2|1:0,0:0:0:0:
468,384,88091,2,0,P|471:367|479:311,1,70,0|0,1:0|1:0,0:0:0:0:
402,287,88394,1,8,0:0:0:0:
402,287,88546,1,0,1:0:0:0:
512,179,88697,1,0,1:0:0:0:
502,193,88772,1,0,1:0:0:0:
487,202,88848,1,0,1:0:0:0:
470,203,88924,1,0,1:0:0:0:
451,197,89000,6,0,P|400:145|326:167,1,140,0|0,1:0|1:0,0:0:0:0:
327,241,89455,2,0,P|298:230|262:217,1,70,8|0,0:0|0:0,0:0:0:0:
225,145,89758,1,8,0:0:0:0:
113,252,89909,1,0,1:0:0:0:
147,254,89985,1,0,1:0:0:0:
175,275,90061,1,0,1:0:0:0:
187,308,90136,1,0,1:0:0:0:
180,339,90212,6,0,P|157:313|188:218,1,140,0|0,1:0|0:0,0:0:0:0:
206,77,90667,2,0,P|217:108|226:157,1,70,8|0,0:0|0:0,0:0:0:0:
297,36,90970,1,8,0:0:0:0:
225,0,91122,1,0,1:0:0:0:
292,197,91273,6,0,P|328:199|364:175,1,78.7499975967408,2|8,1:2|0:0,0:0:0:0:
416,20,91576,1,2,0:0:0:0:
446,8,91651,1,2,0:0:0:0:
478,15,91727,1,10,0:0:0:0:
502,36,91803,1,2,0:0:0:0:
512,67,91879,1,10,0:0:0:0:
504,99,91954,1,2,0:0:0:0:
482,122,92031,6,0,L|440:114,1,43.75,10|2,0:0|0:0,0:0:0:0:
414,186,92182,2,0,L|358:175,1,52.4999983978272,10|2,0:0|0:0,0:0:0:0:
240,80,92334,6,0,P|232:115|247:147,1,61.2499981307984,10|2,0:0|0:0,0:0:0:0:
173,251,92485,2,0,P|199:275|234:278,1,70,10|0,0:0|0:0,0:0:0:0:
