osu file format v14

[General]
AudioFilename: audio.ogg
AudioLeadIn: 0
PreviewTime: 48299
Countdown: 0
SampleSet: Soft
StackLeniency: 0.7
Mode: 0
LetterboxInBreaks: 0
WidescreenStoryboard: 1

[Editor]
DistanceSpacing: 1.6
BeatDivisor: 4
GridSize: 32
TimelineZoom: 3.599998

[Metadata]
Title:Kimi no Tonari de (TV Size)
TitleUnicode:キミのとなりで (TV Size)
Artist:Kito Akari
ArtistUnicode:鬼頭明里
Creator:Aakki
Version:Lugu's Hard
Source:安達としまむら
Tags:iceluin gay jpop j-pop nexusqi kazuma shirahane suou japanese pop anime adachi and to shimamura lugu ed ending yuri adashima こだまさおり Saori Kodama 伊藤 翼 Tsubasa Itō Itou Ito
BeatmapID:2948923
BeatmapSetID:1335007

[Difficulty]
HPDrainRate:4
CircleSize:3.2
OverallDifficulty:6.5
ApproachRate:8
SliderMultiplier:1.42
SliderTickRate:1

[Events]
//Background and Video events
0,0,"1101639.jpg",0,0
//Break Periods
//Storyboard Layer 0 (Background)
//Storyboard Layer 1 (Fail)
//Storyboard Layer 2 (Pass)
//Storyboard Layer 3 (Foreground)
//Storyboard Layer 4 (Overlay)
//Storyboard Sound Samples

[TimingPoints]
516,303.030303030303,4,2,1,40,1,0
516,-200,4,2,1,40,0,0
10212,-125,4,2,1,50,0,0
19909,-111.111111111111,4,2,1,50,0,0
29606,-142.857142857143,4,2,1,55,0,0
44152,-111.111111111111,4,2,1,55,0,0
46576,-111.111111111111,4,2,1,65,0,0
48697,-111.111111111111,4,2,1,45,0,0
48849,-90.9090909090909,4,2,1,70,0,1
49076,-90.9090909090909,4,2,1,5,0,1
49152,-90.9090909090909,4,2,1,70,0,1
51500,-90.9090909090909,4,2,1,5,0,1
51576,-90.9090909090909,4,2,1,70,0,1
53924,-90.9090909090909,4,2,1,5,0,1
54000,-90.9090909090909,4,2,1,70,0,1
58773,-90.9090909090909,4,2,1,5,0,1
58849,-90.9090909090909,4,2,1,70,0,1
62409,-90.9090909090909,4,2,1,5,0,1
62485,-90.9090909090909,4,2,1,70,0,1
68243,-90.9090909090909,4,2,1,80,0,1
70894,-90.9090909090909,4,2,1,5,0,1
70970,-90.9090909090909,4,2,1,80,0,1
71425,-125,4,2,1,80,0,1
71652,-200,4,2,1,5,0,1
71728,-90.9090909090909,4,2,1,80,0,1
72182,-90.9090909090909,4,2,1,70,0,1
73243,-90.9090909090909,4,2,1,80,0,1
73546,-90.9090909090909,4,2,1,50,0,1
73849,-90.9090909090909,4,2,1,55,0,1
74152,-90.9090909090909,4,2,1,60,0,1
74455,-90.9090909090909,4,2,1,65,0,1
74758,-90.9090909090909,4,2,1,70,0,1
75061,-90.9090909090909,4,2,1,75,0,1
75364,-90.9090909090909,4,2,1,80,0,1
75667,-90.9090909090909,4,2,1,75,0,1
75970,-90.9090909090909,4,2,1,50,0,1
76273,-90.9090909090909,4,2,1,55,0,1
76576,-90.9090909090909,4,2,1,60,0,1
76879,-90.9090909090909,4,2,1,65,0,1
77182,-90.9090909090909,4,2,1,70,0,1
77485,-90.9090909090909,4,2,1,75,0,1
77788,-90.9090909090909,4,2,1,80,0,1
78091,-100,4,2,1,85,0,0
80515,-100,4,2,1,50,0,0
85364,-100,4,2,1,60,0,0
87637,-125,4,2,1,55,0,0
91728,-125,4,2,1,65,0,0
92031,-125,4,2,1,75,0,0
92334,-125,4,2,1,85,0,0

[Colours]
Combo1 : 9,175,255
Combo2 : 255,70,70
Combo3 : 255,255,81
Combo4 : 255,74,165

[HitObjects]
107,115,516,6,0,L|103:159,2,35.5,6|2|2,1:2|0:0|0:0,0:0:0:0:
148,46,970,2,0,P|174:40|221:50,1,71,2|2,0:0|0:0,0:0:0:0:
286,169,1576,1,2,0:0:0:0:
228,232,1728,6,0,L|232:275,2,35.5,2|2|2,0:0|0:0|0:0,0:0:0:0:
161,178,2182,1,2,0:0:0:0:
161,178,2334,2,0,L|164:138,2,35.5,2|2|2,0:0|0:0|0:0,0:0:0:0:
101,237,2788,1,2,0:0:0:0:
53,301,2940,6,0,L|59:345,1,35.5,2|2,0:0|0:0,0:0:0:0:
130,370,3243,2,0,L|174:364,1,35.5,2|2,0:0|0:0,0:0:0:0:
232,317,3546,2,0,L|267:321,1,35.5,2|2,0:0|0:0,0:0:0:0:
332,372,3849,1,2,0:0:0:0:
417,372,4000,1,2,0:0:0:0:
417,372,4152,6,0,L|492:367,1,71,2|2,0:0|0:0,0:0:0:0:
474,279,4606,2,0,L|403:283,1,71,2|2,0:0|0:0,0:0:0:0:
356,198,5061,1,2,0:0:0:0:
388,123,5212,1,2,0:0:0:0:
469,93,5364,6,0,L|474:142,2,35.5,6|2|2,1:2|0:0|0:0,0:0:0:0:
403,39,5819,2,0,P|371:30|324:24,1,71,2|2,0:0|0:0,0:0:0:0:
181,87,6425,1,2,0:0:0:0:
181,87,6576,6,0,L|188:135,2,35.5,2|2|2,0:0|0:0|0:0,0:0:0:0:
97,50,7031,1,2,0:0:0:0:
97,50,7182,2,0,L|104:2,2,35.5,2|2|2,0:0|0:0|0:0,0:0:0:0:
38,121,7637,1,2,0:0:0:0:
38,121,7788,2,0,L|33:202,1,71,2|10,0:0|0:0,0:0:0:0:
158,328,8394,2,0,L|156:367,2,35.5,2|2|10,0:0|0:0|0:0,0:0:0:0:
33,191,9000,6,0,L|37:120,1,71,2|10,0:0|0:0,0:0:0:0:
141,216,9455,2,0,P|150:215|160:215,1,17.75,10|10,0:0|0:0,0:0:0:0:
197,240,9606,2,0,P|216:238|236:238,1,35.5,8|8,0:0|3:0,0:0:0:0:
311,296,9909,1,6,3:0:0:0:
311,296,10061,1,6,3:0:0:0:
399,357,10212,6,0,P|405:299|457:251,1,113.6,6|10,1:2|0:0,0:0:0:0:
394,82,10819,2,0,P|366:77|337:74,1,56.8,2|2,0:0|0:0,0:0:0:0:
267,16,11122,2,0,P|239:35|221:52,1,56.8,10|2,0:0|0:0,0:0:0:0:
144,97,11425,6,0,P|145:149|189:211,1,113.6,2|10,0:0|0:0,0:0:0:0:
250,251,11879,2,0,P|216:226|138:220,1,113.6,2|2,0:0|0:0,0:0:0:0:
62,181,12334,1,8,0:0:0:0:
4,251,12485,1,2,1:2:0:0:
55,326,12637,6,0,L|187:341,1,113.6,2|10,1:2|0:0,0:0:0:0:
247,382,13091,2,0,P|281:375|319:250,1,170.4,2|8,0:0|0:0,0:0:0:0:
272,86,13849,2,0,P|313:72|379:95,1,113.6,0|8,0:0|0:0,0:0:0:0:
440,166,14303,1,0,0:0:0:0:
440,166,14455,2,0,L|430:283,1,113.6,2|10,0:0|0:0,0:0:0:0:
240,170,15061,6,0,L|235:53,1,113.6,2|8,1:2|0:0,0:0:0:0:
144,61,15515,2,0,L|149:178,1,113.6,2|0,0:0|0:0,0:0:0:0:
98,250,15970,1,10,0:0:0:0:
237,366,16273,6,0,P|284:355|357:355,1,113.6,2|8,0:0|0:0,0:0:0:0:
398,277,16728,2,0,P|342:265|285:266,1,113.6,2|0,0:0|0:0,0:0:0:0:
195,260,17182,1,10,0:0:0:0:
176,170,17334,1,0,1:0:0:0:
249,117,17485,6,0,P|276:143|353:170,1,113.6,2|10,1:2|0:0,0:0:0:0:
449,122,17940,2,0,L|462:291,1,170.4,2|8,0:0|0:0,0:0:0:0:
346,169,18697,5,0,0:0:0:0:
346,169,18849,2,0,L|289:163,1,56.8,0|8,1:0|0:0,0:0:0:0:
186,158,19152,1,8,3:0:0:0:
186,158,19228,1,8,3:0:0:0:
186,158,19303,2,0,L|192:215,1,56.8,8|8,3:0|3:0,0:0:0:0:
285,309,19606,2,0,L|291:252,1,56.8,4|4,3:0|3:0,0:0:0:0:
341,136,19909,6,0,P|385:121|460:157,1,127.799996099854,4|10,1:2|0:0,0:0:0:0:
416,248,20364,1,2,0:0:0:0:
416,248,20516,2,0,P|406:283|407:321,1,63.8999980499268,2|0,0:0|0:0,0:0:0:0:
499,361,20819,2,0,P|509:326|508:288,1,63.8999980499268,10|2,0:0|0:0,0:0:0:0:
416,248,21122,6,0,L|269:260,1,127.799996099854,2|10,0:0|0:0,0:0:0:0:
213,327,21576,2,0,L|66:315,1,127.799996099854,2|2,0:0|0:0,0:0:0:0:
39,227,22031,1,8,0:0:0:0:
39,227,22182,1,0,1:0:0:0:
101,149,22334,6,0,P|145:159|175:188,2,63.8999980499268,2|0|10,1:2|0:0|0:0,0:0:0:0:
49,62,22788,2,0,P|86:42|172:37,1,127.799996099854,2|2,0:0|0:0,0:0:0:0:
245,116,23243,1,8,0:0:0:0:
245,116,23394,2,0,P|298:148|371:133,1,127.799996099854,2|0,0:0|0:0,0:0:0:0:
438,83,23849,1,8,0:0:0:0:
478,280,24152,6,0,L|346:260,1,127.799996099854,2|10,0:0|0:0,0:0:0:0:
274,312,24606,1,0,0:0:0:0:
201,362,24758,2,0,L|56:345,2,127.799996099854,2|8|2,1:2|0:0|0:0,0:0:0:0:
276,185,25667,1,8,0:0:0:0:
401,359,25970,6,0,P|385:327|381:293,1,63.8999980499268,2|0,0:0|0:0,0:0:0:0:
290,274,26273,1,10,0:0:0:0:
290,274,26425,2,0,P|301:237|318:211,1,63.8999980499268,2|0,0:0|0:0,0:0:0:0:
365,137,26728,2,0,P|399:134|432:145,1,63.8999980499268,2|8,0:0|0:0,0:0:0:0:
494,85,27031,1,0,1:0:0:0:
423,36,27182,6,0,L|280:43,1,127.799996099854,2|10,1:2|0:0,0:0:0:0:
221,99,27637,2,0,L|158:93,1,63.8999980499268,2|0,0:0|0:0,0:0:0:0:
80,41,27940,2,0,P|64:81|68:114,1,63.8999980499268,2|8,1:2|0:0,0:0:0:0:
120,179,28243,1,0,1:0:0:0:
52,246,28394,2,0,P|40:301|98:364,1,127.799996099854,10|14,0:0|0:0,0:0:0:0:
169,314,28849,1,8,0:0:0:0:
169,314,28925,1,8,0:0:0:0:
169,314,29000,6,0,P|221:301|293:352,1,127.799996099854,10|6,0:0|3:0,0:0:0:0:
367,381,29455,1,4,3:0:0:0:
447,330,29606,6,0,L|428:166,1,149.099995449829,6|8,1:2|3:0,0:0:0:0:
266,28,30516,2,0,L|240:188,1,149.099995449829,8|4,3:0|3:0,0:0:0:0:
436,63,31425,2,0,P|460:65|483:75,2,49.6999984832764,0|0|10,1:0|1:0|0:0,0:0:0:0:
365,196,32031,6,0,P|406:246|387:344,1,149.099995449829,4|10,1:2|3:0,0:0:0:0:
179,369,32940,2,0,P|165:308|215:221,1,149.099995449829,8|6,3:0|3:0,0:0:0:0:
58,59,33849,2,0,P|52:86|51:115,1,49.6999984832764,0|0,1:0|1:0,0:0:0:0:
0,177,34152,1,14,0:0:0:0:
72,306,34455,6,0,P|130:283|205:227,1,149.099995449829,6|10,1:2|3:0,0:0:0:0:
368,379,35364,2,0,P|400:350|450:242,1,149.099995449829,10|4,3:0|3:0,0:0:0:0:
467,33,36273,2,0,P|500:15|528:10,2,49.6999984832764,2|0|10,1:2|1:0|0:0,0:0:0:0:
318,16,36879,6,0,P|352:37|386:147,1,149.099995449829,4|10,3:2|3:0,0:0:0:0:
171,192,37788,2,0,P|189:153|295:126,1,149.099995449829,6|8,3:0|0:0,0:0:0:0:
395,221,38546,2,0,P|421:216|450:213,2,49.6999984832764,10|8|10,0:0|0:0|3:0,0:0:0:0:
355,302,39000,1,6,3:0:0:0:
355,302,39152,1,6,3:0:0:0:
274,339,39303,6,0,P|242:328|156:322,1,99.3999969665528,4|0,1:2|0:0,0:0:0:0:
105,275,39758,1,2,1:2:0:0:
105,275,39909,2,0,P|71:244|70:172,1,99.3999969665528,10|2,0:0|1:2,0:0:0:0:
135,124,40364,1,2,1:2:0:0:
135,124,40515,6,0,P|175:130|250:136,1,99.3999969665528,2|2,0:0|0:0,0:0:0:0:
309,80,40970,2,0,P|326:107|318:189,2,99.3999969665528,2|2|2,1:2|0:0|0:0,0:0:0:0:
227,33,41728,5,0,1:0:0:0:
140,37,41879,2,0,L|86:39,1,49.6999984832764,2|0,0:0|0:0,0:0:0:0:
23,104,42182,1,2,1:2:0:0:
23,104,42334,2,0,L|34:160,1,49.6999984832764,10|0,0:0|0:0,0:0:0:0:
107,210,42637,2,0,L|96:266,1,49.6999984832764,2|0,1:2|1:0,0:0:0:0:
24,357,42940,6,0,L|125:343,1,99.3999969665528,2|0,0:0|0:0,0:0:0:0:
199,290,43394,2,0,L|297:303,1,99.3999969665528,2|4,1:2|3:0,0:0:0:0:
376,369,43849,1,4,1:2:0:0:
505,200,44152,6,0,P|488:135|502:53,1,127.799996099854,6|10,1:2|0:0,0:0:0:0:
413,0,44606,2,0,L|276:19,1,127.799996099854,6|10,1:2|0:0,0:0:0:0:
236,112,45061,2,0,L|106:88,1,127.799996099854,6|0,1:2|1:0,0:0:0:0:
26,37,45515,1,8,0:0:0:0:
26,37,45591,1,8,0:0:0:0:
26,37,45667,1,8,0:0:0:0:
0,131,45819,2,0,P|11:162|34:187,1,63.8999980499268,8|8,0:0|3:0,0:0:0:0:
101,256,46122,2,0,P|133:267|173:266,1,63.8999980499268,10|4,3:0|3:0,0:0:0:0:
240,205,46425,1,6,3:0:0:0:
347,255,46576,6,0,P|390:323|365:379,1,127.799996099854,6|8,1:2|1:2,0:0:0:0:
276,349,47031,1,8,0:0:0:0:
276,349,47106,1,8,0:0:0:0:
276,349,47182,2,0,L|272:390,4,31.9499990249634,10|8|10|8|10,1:2|0:0|0:0|0:0|0:0,0:0:0:0:
190,284,47637,6,0,B|135:297|135:297|118:319|118:319|61:336,1,127.799996099854,6|10,1:2|0:0,0:0:0:0:
0,273,48091,1,10,0:0:0:0:
103,120,48849,6,0,B|134:93|174:110|174:110|192:136|228:140,1,117.150003575134,6|0,1:2|2:0,0:0:0:0:
229,140,49152,1,2,0:0:0:0:
323,65,49303,2,0,P|291:53|243:60,1,78.1000023834229,10|0,0:0|0:0,0:0:0:0:
312,157,49606,2,0,P|344:169|392:162,1,78.1000023834229,2|0,1:2|0:0,0:0:0:0:
453,97,49909,1,10,0:0:0:0:
484,184,50061,2,0,L|478:269,1,78.1000023834229,2|0,0:0|1:0,0:0:0:0:
396,327,50364,2,0,L|390:242,1,78.1000023834229,2|8,0:0|0:0,0:0:0:0:
312,157,50667,2,0,L|293:333,1,156.200004766846,2|0,0:0|0:0,0:0:0:0:
203,359,51122,1,10,0:0:0:0:
112,311,51273,6,0,P|102:273|128:191,1,117.150003575134,2|0,0:0|2:0,0:0:0:0:
139,177,51576,2,0,P|104:154|54:153,1,78.1000023834229,2|8,0:0|0:0,0:0:0:0:
3,73,51879,1,2,0:0:0:0:
3,73,52031,2,0,P|38:50|88:49,1,78.1000023834229,2|0,1:2|0:0,0:0:0:0:
165,87,52334,1,10,0:0:0:0:
268,49,52485,2,0,L|258:139,1,78.1000023834229,2|0,0:0|1:0,0:0:0:0:
186,203,52788,2,0,L|204:372,1,156.200004766846,2|0,0:0|0:0,0:0:0:0:
289,315,53243,1,2,1:2:0:0:
289,315,53394,2,0,P|326:302|374:300,1,78.1000023834229,2|10,0:0|0:0,0:0:0:0:
466,374,53697,6,0,L|480:224,1,117.150003575134,6|0,1:2|2:0,0:0:0:0:
465,242,54000,1,2,0:0:0:0:
364,299,54152,2,0,L|349:200,1,78.1000023834229,10|0,0:0|0:0,0:0:0:0:
413,141,54455,2,0,P|377:121|335:121,1,78.1000023834229,0|0,1:0|0:0,0:0:0:0:
204,145,54758,1,10,0:0:0:0:
266,223,54909,6,0,P|250:177|266:58,1,156.200004766846,6|2,1:2|1:2,0:0:0:0:
355,20,55364,1,10,0:0:0:0:
259,71,55515,2,0,P|215:94|97:76,1,156.200004766846,6|2,1:2|1:2,0:0:0:0:
20,24,55970,1,8,0:0:0:0:
111,84,56122,6,0,B|103:139|103:139|73:169|73:169|62:237,1,156.200004766846,6|2,1:2|1:2,0:0:0:0:
147,290,56576,2,0,L|160:205,1,78.1000023834229,8|2,0:0|1:2,0:0:0:0:
256,236,56879,2,0,L|243:151,1,78.1000023834229,8|2,0:0|1:2,0:0:0:0:
348,195,57182,1,8,0:0:0:0:
441,130,57334,6,0,L|427:303,1,156.200004766846,6|0,1:2|1:0,0:0:0:0:
342,313,57788,2,0,L|278:353,2,39.0500011917115,10|2|2,0:0|0:0|1:2,0:0:0:0:
260,258,58091,2,0,L|196:298,2,39.0500011917115,10|10|6,0:0|3:0|3:0,0:0:0:0:
180,195,58394,1,10,0:0:0:0:
245,88,58546,6,0,P|288:96|332:162,1,117.150003575134,6|0,1:2|2:0,0:0:0:0:
349,166,58849,2,0,P|357:210|346:248,1,78.1000023834229,2|8,0:0|0:0,0:0:0:0:
385,334,59152,1,2,0:0:0:0:
385,334,59303,2,0,L|462:327,1,78.1000023834229,2|0,1:2|0:0,0:0:0:0:
349,241,59606,1,10,0:0:0:0:
349,241,59758,2,0,L|272:248,1,78.1000023834229,2|0,0:0|1:0,0:0:0:0:
455,231,60061,2,0,P|474:189|469:152,1,78.1000023834229,2|8,0:0|0:0,0:0:0:0:
362,117,60364,2,0,P|343:75|348:38,1,78.1000023834229,2|2,0:0|1:2,0:0:0:0:
453,20,60667,1,2,0:0:0:0:
346,44,60819,1,10,0:0:0:0:
260,24,60970,6,0,P|217:22|171:32,1,78.1000023834229,2|0,0:0|1:0,0:0:0:0:
122,117,61273,2,0,P|165:115|211:125,1,78.1000023834229,2|10,0:0|0:0,0:0:0:0:
274,199,61576,1,2,0:0:0:0:
180,225,61728,2,0,P|160:260|157:315,1,78.1000023834229,2|2,1:2|0:0,0:0:0:0:
233,367,62031,1,10,0:0:0:0:
326,304,62182,6,0,P|376:286|455:288,1,117.150003575134,2|0,0:0|2:0,0:0:0:0:
462,302,62485,2,0,L|472:221,1,78.1000023834229,2|8,0:0|0:0,0:0:0:0:
412,144,62788,1,0,0:0:0:0:
322,191,62940,2,0,P|309:145|318:98,1,78.1000023834229,0|0,1:0|0:0,0:0:0:0:
217,95,63243,2,0,P|230:49|221:2,1,78.1000023834229,8|2,0:0|0:0,0:0:0:0:
114,99,63546,6,0,L|123:179,1,78.1000023834229,6|2,1:2|0:0,0:0:0:0:
67,253,63849,2,0,L|58:333,1,78.1000023834229,10|0,0:0|0:0,0:0:0:0:
169,384,64152,2,0,L|160:304,1,78.1000023834229,2|0,1:2|0:0,0:0:0:0:
218,214,64455,2,0,L|227:134,1,78.1000023834229,14|0,0:0|0:0,0:0:0:0:
160,29,64758,6,0,L|326:36,1,156.200004766846,2|8,1:2|0:0,0:0:0:0:
324,138,65212,1,2,0:0:0:0:
324,138,65364,2,0,L|338:222,1,78.1000023834229,6|0,1:2|0:0,0:0:0:0:
412,267,65667,1,10,0:0:0:0:
341,336,65819,6,0,L|377:180,1,156.200004766846,6|2,1:2|1:2,0:0:0:0:
408,66,66273,2,0,P|370:49|329:53,1,78.1000023834229,10|2,0:0|0:0,0:0:0:0:
224,24,66576,2,0,P|221:76|118:80,1,156.200004766846,2|10,1:2|0:0,0:0:0:0:
52,45,67031,1,2,0:0:0:0:
3,133,67182,6,0,L|13:215,1,78.1000023834229,2|2,1:2|0:0,0:0:0:0:
99,262,67485,2,0,L|109:180,1,78.1000023834229,14|2,0:0|0:0,0:0:0:0:
198,124,67788,1,2,1:2:0:0:
198,124,67864,1,0,1:0:0:0:
198,124,67940,2,0,L|207:173,2,39.0500011917115,10|8|10,0:0|0:0|0:0,0:0:0:0:
293,171,68243,6,0,L|258:330,1,156.200004766846,6|2,1:2|1:2,0:0:0:0:
381,377,68697,2,0,L|370:299,1,78.1000023834229,10|0,0:0|1:0,0:0:0:0:
459,248,69000,2,0,L|477:167,1,78.1000023834229,8|2,0:0|1:2,0:0:0:0:
394,104,69303,1,10,0:0:0:0:
293,171,69455,6,0,L|264:0,1,156.200004766846,6|2,1:2|1:2,0:0:0:0:
394,104,69909,1,10,0:0:0:0:
501,54,70061,2,0,L|472:212,1,156.200004766846,2|2,1:2|1:2,0:0:0:0:
381,271,70515,1,8,0:0:0:0:
286,332,70667,6,0,P|239:315|167:318,1,117.150003575134,6|0,1:2|2:0,0:0:0:0:
156,333,70970,1,2,1:2:0:0:
78,283,71122,2,0,P|68:239|98:189,1,78.1000023834229,10|2,0:0|1:2,0:0:0:0:
161,121,71425,6,0,L|259:112,1,85.2,10|0,0:0|2:0,0:0:0:0:
270,90,71728,6,0,B|204:67|147:95|147:95|111:144|47:126,1,234.300007150269,6|2,1:2|1:2,0:0:0:0:
70,37,72334,2,0,L|92:200,1,156.200004766846,14|14,0:0|0:0,0:0:0:0:
69,306,72864,1,6,3:0:0:0:
78,296,72940,2,0,L|175:303,1,78.1000023834229,14|2,0:0|0:0,0:0:0:0:
255,254,73243,6,0,P|296:236|301:123,1,156.200004766846,2|2,1:2|1:2,0:0:0:0:
353,37,73697,1,2,1:2:0:0:
353,37,73849,2,0,P|393:30|433:39,1,78.1000023834229,0|0,1:0|1:0,0:0:0:0:
494,131,74152,2,0,P|454:138|414:129,1,78.1000023834229,0|2,1:0|1:2,0:0:0:0:
290,116,74455,5,2,1:2:0:0:
200,73,74606,1,8,0:0:0:0:
124,109,74758,1,2,1:2:0:0:
23,76,74909,2,0,L|7:-7,1,78.1000023834229,10|0,0:0|1:0,0:0:0:0:
124,109,75212,2,0,L|108:192,1,78.1000023834229,8|0,0:0|1:0,0:0:0:0:
22,236,75515,1,10,0:0:0:0:
104,305,75667,6,0,B|165:282|165:282|197:291|197:291|266:263,1,156.200004766846,6|10,1:2|1:2,0:0:0:0:
252,159,76122,1,10,0:0:0:0:
340,89,76273,2,0,L|387:95,3,39.0500011917115,8|8|8|8,1:2|0:0|0:0|0:0,0:0:0:0:
411,116,76576,2,0,L|449:111,3,39.0500011917115,10|8|8|8,1:2|0:0|0:0|0:0,0:0:0:0:
483,146,76879,2,0,L|477:193,3,39.0500011917115,10|8|8|8,1:2|0:0|0:0|0:0,0:0:0:0:
454,211,77182,1,10,1:2:0:0:
379,279,77334,1,8,0:0:0:0:
447,364,77485,2,0,P|412:374|347:359,1,78.1000023834229,10|8,1:2|0:0,0:0:0:0:
286,308,77788,2,0,L|282:269,3,39.0500011917115,10|10|10|10,1:2|0:0|0:0|0:0,0:0:0:0:
246,248,78091,6,0,P|196:241|123:326,1,142,6|10,1:2|0:2,0:0:0:0:
34,371,78546,2,0,L|24:224,1,142,4|8,1:2|0:0,0:0:0:0:
5,110,79000,6,0,L|152:118,1,142,4|8,1:2|0:0,0:0:0:0:
236,199,79455,2,0,L|388:178,1,142,4|8,1:2|0:0,0:0:0:0:
460,89,79909,5,0,1:0:0:0:
372,46,80061,1,4,3:0:0:0:
288,94,80212,1,12,0:0:0:0:
144,348,80515,6,0,P|174:320|206:309,1,71,6|0,1:2|0:0,0:0:0:0:
291,306,80819,1,10,0:0:0:0:
361,367,80970,2,0,P|398:381|436:383,1,71,2|0,1:2|0:0,0:0:0:0:
487,313,81273,1,10,0:0:0:0:
446,217,81425,2,0,L|279:217,1,142,2|8,1:2|0:0,0:0:0:0:
230,138,81879,6,0,P|190:189|190:274,1,142,0|8,1:0|0:0,0:0:0:0:
135,351,82334,1,0,1:0:0:0:
135,351,82485,2,0,P|97:359|65:350,2,71,2|10|2,1:2|0:0|0:0,0:0:0:0:
69,261,82940,6,0,P|50:218|69:110,1,142,6|10,1:2|0:0,0:0:0:0:
130,37,83394,2,0,P|169:26|208:39,1,71,2|0,1:2|0:0,0:0:0:0:
255,113,83697,1,10,0:0:0:0:
340,47,83849,2,0,P|352:93|328:195,1,142,2|8,1:2|0:0,0:0:0:0:
256,252,84303,6,0,L|408:216,1,142,0|8,1:0|0:0,0:0:0:0:
422,306,84758,1,0,1:0:0:0:
318,333,84909,1,2,1:2:0:0:
318,333,84985,1,0,1:0:0:0:
318,333,85061,2,0,L|235:354,1,71,14|2,0:0|0:0,0:0:0:0:
422,306,85364,6,0,L|450:156,1,142,6|10,1:2|0:0,0:0:0:0:
360,82,85819,2,0,L|333:221,1,142,6|10,1:2|0:0,0:0:0:0:
242,142,86273,2,0,L|86:172,1,142,6|8,1:2|0:0,0:0:0:0:
36,270,86728,2,0,L|192:300,1,142,6|10,1:2|0:0,0:0:0:0:
261,370,87182,2,0,L|336:352,1,71,8|10,0:0|3:0,0:0:0:0:
442,372,87485,1,6,3:0:0:0:
499,266,87637,6,0,P|451:226|382:240,1,113.6,6|0,1:2|1:0,0:0:0:0:
256,192,88091,12,10,92485,0:0:0:0:
