osu file format v14

[General]
AudioFilename: audio.ogg
AudioLeadIn: 0
PreviewTime: 48299
Countdown: 0
SampleSet: Soft
StackLeniency: 0.4
Mode: 0
LetterboxInBreaks: 0
WidescreenStoryboard: 1

[Editor]
DistanceSpacing: 1.1
BeatDivisor: 4
GridSize: 8
TimelineZoom: 1.6

[Metadata]
Title:Kimi no Tonari de (TV Size)
TitleUnicode:キミのとなりで (TV Size)
Artist:Kito Akari
ArtistUnicode:鬼頭明里
Creator:Aakki
Version:Kazuma's Easy
Source:安達としまむら
Tags:iceluin gay jpop j-pop nexusqi kazuma shirahane suou japanese pop anime adachi and to shimamura lugu ed ending yuri adashima こだまさおり Saori Kodama 伊藤 翼 Tsubasa Itō Itou Ito
BeatmapID:2816686
BeatmapSetID:1335007

[Difficulty]
HPDrainRate:2
CircleSize:2.4
OverallDifficulty:3
ApproachRate:4
SliderMultiplier:0.85
SliderTickRate:1

[Events]
//Background and Video events
0,0,"1101639.jpg",0,0
//Break Periods
//Storyboard Layer 0 (Background)
//Storyboard Layer 1 (Fail)
//Storyboard Layer 2 (Pass)
//Storyboard Layer 3 (Foreground)
//Storyboard Layer 4 (Overlay)
//Storyboard Sound Samples

[TimingPoints]
516,303.030303030303,4,2,1,40,1,0
10212,-100,4,2,1,50,0,0
29606,-100,4,2,1,55,0,0
46576,-100,4,2,1,65,0,0
48697,-100,4,2,1,45,0,0
48849,-100,4,2,1,70,0,1
68243,-100,4,2,1,80,0,1
72182,-100,4,2,1,70,0,1
73243,-100,4,2,1,80,0,1
73546,-100,4,2,1,50,0,1
73849,-100,4,2,1,55,0,1
74152,-100,4,2,1,60,0,1
74455,-100,4,2,1,65,0,1
74758,-100,4,2,1,70,0,1
75061,-100,4,2,1,75,0,1
75364,-100,4,2,1,80,0,1
75667,-100,4,2,1,75,0,1
75970,-100,4,2,1,50,0,1
76273,-100,4,2,1,55,0,1
76576,-100,4,2,1,60,0,1
76879,-100,4,2,1,65,0,1
77182,-100,4,2,1,70,0,1
77485,-100,4,2,1,75,0,1
77788,-100,4,2,1,80,0,1
78091,-100,4,2,1,85,0,1
80515,-100,4,2,1,50,0,0
85364,-100,4,2,1,60,0,0
87637,-100,4,2,1,55,0,0
91728,-100,4,2,1,65,0,0
92031,-100,4,2,1,75,0,0
92334,-100,4,2,1,85,0,0

[Colours]
Combo1 : 9,175,255
Combo2 : 255,70,70
Combo3 : 255,255,81
Combo4 : 255,74,165

[HitObjects]
44,309,10212,5,6,1:2:0:0:
112,245,10515,2,0,B|158:224|201:239|186:276|233:291|283:287,1,170,10|10,0:0|0:0,0:0:0:0:
340,345,11425,2,0,P|363:282|326:217,1,127.5,2|2,0:0|0:0,0:0:0:0:
276,161,12182,1,2,0:0:0:0:
331,32,12637,6,0,P|272:6|213:36,1,127.5,2|2,1:2|0:0,0:0:0:0:
103,112,13546,1,8,0:0:0:0:
171,174,13849,2,0,L|171:269,1,85,0|8,0:0|0:0,0:0:0:0:
171,352,14455,1,2,0:0:0:0:
264,352,14758,1,10,0:0:0:0:
315,273,15061,6,0,B|355:255|386:270|386:270|414:284|448:270,1,127.5,2|2,1:2|0:0,0:0:0:0:
508,151,15970,1,10,0:0:0:0:
435,91,16273,2,0,B|384:91|384:91|366:102|366:102|306:102,1,127.5,2|2,0:0|0:0,0:0:0:0:
170,101,17182,1,10,0:0:0:0:
170,194,17485,5,2,1:2:0:0:
43,254,17940,2,0,B|-5:142|84:142|41:37,1,212.5,2|0,0:0|0:0,0:0:0:0:
125,0,19000,1,8,0:0:0:0:
193,63,19303,2,0,L|292:63,1,85,8|4,3:0|3:0,0:0:0:0:
349,122,19909,6,0,B|349:195|349:195|363:214|363:214|363:287,1,170,4|2,1:2|0:0,0:0:0:0:
418,363,20819,1,10,0:0:0:0:
472,287,21122,2,0,B|472:215|472:215|487:193|487:193|487:161,1,127.5,2|2,0:0|0:0,0:0:0:0:
485,70,21879,1,2,0:0:0:0:
374,156,22334,6,0,P|318:178|246:142,1,127.5,2|2,1:2|0:0,0:0:0:0:
195,85,23091,1,2,0:0:0:0:
127,149,23394,2,0,L|127:276,1,127.5,2|8,0:0|0:0,0:0:0:0:
189,345,24152,2,0,P|238:333|281:348,1,85,2|10,0:0|0:0,0:0:0:0:
340,279,24758,6,0,B|377:233|356:190|356:190|333:150|360:108,1,170,2|2,1:2|0:0,0:0:0:0:
497,0,25970,2,0,B|497:58|497:58|507:69|507:69|507:137,1,127.5,2|2,0:0|0:0,0:0:0:0:
508,217,26728,1,2,0:0:0:0:
407,315,27182,6,0,B|372:300|368:266|368:266|361:300|326:320,1,127.5,2|2,1:2|0:0,0:0:0:0:
256,368,27940,1,2,1:2:0:0:
161,264,28394,2,0,B|119:278|119:278|80:264,2,85,10|14|10,0:0|0:0|0:0,0:0:0:0:
232,203,29303,1,6,3:0:0:0:
295,133,29606,6,0,B|335:133|335:133|350:146|350:146|417:146,1,127.5,6|8,1:2|3:0,0:0:0:0:
418,5,30516,2,0,B|350:5|350:5|335:18|335:18|295:18,2,127.5,8|4|0,3:0|3:0|1:0,0:0:0:0:
448,93,31728,1,10,0:0:0:0:
484,179,32031,6,0,B|509:238|509:238|477:293,1,127.5,4|10,1:2|3:0,0:0:0:0:
336,293,32940,2,0,B|311:234|311:234|343:179,2,127.5,8|6|0,3:0|3:0|1:0,0:0:0:0:
248,326,34152,1,14,0:0:0:0:
160,359,34455,6,0,P|99:376|39:357,1,127.5,6|10,1:2|3:0,0:0:0:0:
37,216,35364,2,0,B|12:169|23:138|23:138|57:99|33:43,1,170,10|2,3:0|0:0,0:0:0:0:
116,4,36273,2,0,P|160:-10|206:4,1,85,2|10,1:2|0:0,0:0:0:0:
252,73,36879,6,0,B|252:124|252:124|260:137|260:137|260:206,1,127.5,4|10,3:2|3:0,0:0:0:0:
323,323,37788,1,6,3:0:0:0:
395,264,38091,2,0,P|434:251|485:271,2,85,2|2|8,1:2|1:2|0:0,0:0:0:0:
323,323,39000,1,6,3:0:0:0:
254,259,39303,6,0,B|182:305|182:305|110:260,1,170,4|10,1:2|0:0,0:0:0:0:
40,197,40212,1,2,1:2:0:0:
110,135,40515,2,0,B|182:89|182:89|257:136,1,170,2|8,0:0|0:0,0:0:0:0:
322,197,41425,1,2,1:2:0:0:
410,165,41728,6,0,B|446:75|382:75|407:-1,1,170,0|10,1:0|0:0,0:0:0:0:
313,0,42637,1,2,1:2:0:0:
246,64,42940,2,0,B|173:86|189:46|120:65,2,127.5,2|2|4,0:0|1:2|1:2,0:0:0:0:
313,0,44152,5,6,1:2:0:0:
412,98,44606,1,6,1:2:0:0:
313,198,45061,2,0,P|252:224|198:195,1,127.5,6|8,1:2|0:0,0:0:0:0:
77,57,46122,1,10,3:0:0:0:
77,197,46576,6,0,B|77:254|77:254|84:263|84:263|84:322,1,127.5,6|8,1:2|0:0,0:0:0:0:
177,322,47334,1,10,0:0:0:0:
177,228,47637,1,6,1:2:0:0:
177,87,48091,1,10,0:0:0:0:
410,87,48849,6,0,L|410:220,1,127.5,6|10,1:2|0:0,0:0:0:0:
355,290,49606,2,0,P|299:317|234:280,1,127.5,2|2,1:2|0:0,0:0:0:0:
182,220,50364,2,0,L|182:135,1,85,2|2,0:0|0:0,0:0:0:0:
41,135,51122,1,10,0:0:0:0:
41,228,51425,6,0,L|41:325,1,85,0|8,1:0|0:0,0:0:0:0:
114,371,52031,2,0,B|169:340|169:340|232:375,1,127.5,2|2,1:2|0:0,0:0:0:0:
296,310,52788,1,2,0:0:0:0:
296,169,53243,1,2,1:2:0:0:
421,230,53697,6,0,P|441:163|406:101,1,127.5,6|10,1:2|0:0,0:0:0:0:
351,47,54455,1,0,1:0:0:0:
210,47,54909,2,0,L|210:137,1,85,6|2,1:2|1:2,0:0:0:0:
163,212,55515,2,0,P|151:252|164:293,1,85,6|2,1:2|1:2,0:0:0:0:
257,294,56122,6,0,P|269:254|256:213,1,85,6|2,1:2|1:2,0:0:0:0:
210,132,56728,1,2,1:2:0:0:
210,38,57031,1,2,1:2:0:0:
303,39,57334,2,0,B|372:18|372:63|432:39,1,127.5,6|10,1:2|0:0,0:0:0:0:
496,104,58091,1,10,0:0:0:0:
405,211,58546,6,0,L|405:345,1,127.5,6|8,1:2|0:0,0:0:0:0:
311,339,59303,1,2,1:2:0:0:
253,265,59606,1,10,0:0:0:0:
196,339,59909,2,0,P|152:354|109:334,1,85,0|8,1:0|0:0,0:0:0:0:
62,265,60515,1,2,1:2:0:0:
62,124,60970,6,0,B|131:103|131:148|191:124,1,127.5,2|10,0:0|0:0,0:0:0:0:
267,78,61728,1,2,1:2:0:0:
347,192,62182,1,2,0:0:0:0:
347,285,62485,1,2,0:0:0:0:
462,364,62940,2,0,P|448:324|462:284,1,85,0|8,1:0|0:0,0:0:0:0:
510,204,63546,6,0,B|528:166|528:166|512:126,1,85,6|10,1:2|0:0,0:0:0:0:
458,49,64152,1,2,1:2:0:0:
406,126,64455,2,0,B|388:164|388:164|404:204,1,85,14|2,0:0|1:2,0:0:0:0:
297,357,65364,2,0,B|244:357|244:357|229:367|229:367|160:367,1,127.5,6|6,1:2|1:2,0:0:0:0:
56,288,66273,5,10,0:0:0:0:
127,228,66576,2,0,P|144:183|119:140,2,85,2|10|2,1:2|0:0|1:2,0:0:0:0:
56,288,67485,1,14,0:0:0:0:
127,348,67788,1,2,1:2:0:0:
224,247,68243,6,0,B|289:225|289:263|353:247,1,127.5,6|10,1:2|0:0,0:0:0:0:
425,194,69000,1,8,0:0:0:0:
356,71,69455,2,0,P|297:45|233:77,1,127.5,6|10,1:2|0:0,0:0:0:0:
166,122,70212,1,8,0:0:0:0:
240,241,70667,6,0,B|295:240|295:240|308:247|308:247|366:247,1,127.5,6|10,1:2|0:0,0:0:0:0:
437,307,71425,1,10,0:0:0:0:
366,368,71728,2,0,B|287:402|287:339|196:367,1,170,6|14,1:2|0:0,0:0:0:0:
107,363,72637,1,14,0:0:0:0:
107,269,72940,1,14,0:0:0:0:
173,203,73243,6,0,P|217:187|259:205,2,85,2|2|0,1:2|1:2|1:0,0:0:0:0:
107,269,74152,1,0,1:0:0:0:
42,200,74455,2,0,P|28:156|50:109,2,85,2|2|0,1:2|1:2|1:0,0:0:0:0:
107,269,75364,1,0,1:0:0:0:
173,203,75667,6,0,B|227:203|227:203|237:210|237:210|307:210,1,127.5,6|10,1:2|0:0,0:0:0:0:
408,122,76576,1,10,1:2:0:0:
468,193,76879,2,0,P|483:225|461:286,1,85,10|10,1:2|1:2,0:0:0:0:
419,348,77485,1,10,1:2:0:0:
357,277,77788,1,10,1:2:0:0:
297,348,78091,6,0,P|240:372|185:344,1,127.5,6|4,1:2|1:2,0:0:0:0:
111,225,79000,2,0,P|55:197|0:221,1,127.5,4|4,1:2|1:2,0:0:0:0:
59,348,79909,1,0,1:0:0:0:
152,348,80212,1,12,0:0:0:0:
225,289,80515,6,0,B|281:258|281:258|337:293,1,127.5,6|2,1:2|1:2,0:0:0:0:
402,168,81425,2,0,B|455:201|455:201|511:170,2,127.5,2|0|0,1:2|1:0|1:0,0:0:0:0:
336,100,82637,1,10,0:0:0:0:
268,34,82940,6,0,P|210:4|147:41,1,127.5,6|2,1:2|1:2,0:0:0:0:
110,159,83849,2,0,P|56:129|-1:152,2,127.5,2|0|0,1:2|1:0|1:0,0:0:0:0:
169,230,85061,1,14,0:0:0:0:
228,157,85364,5,6,1:2:0:0:
297,278,85819,1,6,1:2:0:0:
369,157,86273,1,6,1:2:0:0:
464,259,86728,6,0,B|444:193|483:193|469:134,1,127.5,6|8,1:2|0:0,0:0:0:0:
434,47,87485,2,0,P|413:44|392:47,1,42.5,6|6,3:0|1:2,0:0:0:0:
256,192,87788,12,10,92485,0:0:0:0:
