osu file format v14

[General]
AudioFilename: audio.ogg
AudioLeadIn: 0
PreviewTime: 48299
Countdown: 0
SampleSet: Soft
StackLeniency: 0.6
Mode: 0
LetterboxInBreaks: 0
WidescreenStoryboard: 1

[Editor]
Bookmarks: 10212,19909,29606,39303,44152,48849,80515,87637
DistanceSpacing: 1
BeatDivisor: 4
GridSize: 32
TimelineZoom: 2.1

[Metadata]
Title:Kimi no Tonari de (TV Size)
TitleUnicode:キミのとなりで (TV Size)
Artist:Kito Akari
ArtistUnicode:鬼頭明里
Creator:Aakki
Version:Iceluin's Insane
Source:安達としまむら
Tags:iceluin gay jpop j-pop nexusqi kazuma shirahane suou japanese pop anime adachi and to shimamura lugu ed ending yuri adashima こだまさおり Saori Kodama 伊藤 翼 Tsubasa Itō Itou Ito
BeatmapID:2816685
BeatmapSetID:1335007

[Difficulty]
HPDrainRate:5
CircleSize:4
OverallDifficulty:8
ApproachRate:9
SliderMultiplier:1.6
SliderTickRate:1

[Events]
//Background and Video events
0,0,"1101639.jpg",0,0
//Break Periods
//Storyboard Layer 0 (Background)
//Storyboard Layer 1 (Fail)
//Storyboard Layer 2 (Pass)
//Storyboard Layer 3 (Foreground)
//Storyboard Layer 4 (Overlay)
//Storyboard Sound Samples

[TimingPoints]
516,303.030303030303,4,2,1,40,1,0
516,-142.857142857143,4,2,1,40,0,0
10212,-117.647058823529,4,2,1,50,0,0
19909,-100,4,2,1,50,0,0
20743,-100,4,2,1,5,0,0
20819,-100,4,2,1,50,0,0
26197,-100,4,2,1,5,0,0
26273,-100,4,2,1,50,0,0
27409,-100,4,2,1,5,0,0
27485,-100,4,2,1,50,0,0
29606,-142.857142857143,4,2,1,55,0,0
30061,-166.666666666667,4,2,1,55,0,0
30516,-200,4,2,1,55,0,0
30970,-250.000000000001,4,2,1,55,0,0
32031,-142.857142857143,4,2,1,55,0,0
32485,-166.666666666667,4,2,1,55,0,0
32940,-200,4,2,1,55,0,0
33394,-250.000000000001,4,2,1,55,0,0
34152,-166.666666666667,4,2,1,55,0,0
34379,-166.666666666667,4,2,1,5,0,0
34455,-142.857142857143,4,2,1,55,0,0
34909,-166.666666666667,4,2,1,55,0,0
35364,-200,4,2,1,55,0,0
35819,-250.000000000001,4,2,1,55,0,0
36879,-142.857142857143,4,2,1,55,0,0
37334,-166.666666666667,4,2,1,55,0,0
37788,-200,4,2,1,55,0,0
38243,-142.857142857143,4,2,1,55,0,0
39303,-117.647058823529,4,2,1,55,0,0
44076,-117.647058823529,4,2,1,5,0,0
44152,-100,4,2,1,55,0,0
44379,-100,4,2,1,5,0,0
44455,-100,4,2,1,55,0,0
44833,-100,4,2,1,5,0,0
44909,-100,4,2,1,55,0,0
46500,-100,4,2,1,5,0,0
46576,-100,4,2,1,65,0,0
46803,-100,4,2,1,5,0,0
46879,-100,4,2,1,65,0,0
47864,-100,4,2,1,5,0,0
47940,-100,4,2,1,65,0,0
48697,-100,4,2,1,45,0,0
48849,-90.9090909090909,4,2,1,70,0,1
49076,-90.9090909090909,4,2,1,5,0,1
49152,-90.9090909090909,4,2,1,70,0,1
49833,-90.9090909090909,4,2,1,5,0,1
49909,-90.9090909090909,4,2,1,70,0,1
50288,-90.9090909090909,4,2,1,5,0,1
50364,-90.9090909090909,4,2,1,70,0,1
51045,-90.9090909090909,4,2,1,5,0,1
51122,-90.9090909090909,4,2,1,70,0,1
51500,-90.9090909090909,4,2,1,5,0,1
51576,-90.9090909090909,4,2,1,70,0,1
52258,-90.9090909090909,4,2,1,5,0,1
52334,-90.9090909090909,4,2,1,70,0,1
52712,-90.9090909090909,4,2,1,5,0,1
52788,-90.9090909090909,4,2,1,70,0,1
53924,-90.9090909090909,4,2,1,5,0,1
54000,-90.9090909090909,4,2,1,70,0,1
55136,-90.9090909090909,4,2,1,5,0,1
55212,-90.9090909090909,4,2,1,70,0,1
55743,-90.9090909090909,4,2,1,5,0,1
55819,-90.9090909090909,4,2,1,70,0,1
56349,-90.9090909090909,4,2,1,5,0,1
56425,-90.9090909090909,4,2,1,70,0,1
58773,-90.9090909090909,4,2,1,5,0,1
58849,-90.9090909090909,4,2,1,70,0,1
59530,-90.9090909090909,4,2,1,5,0,1
59606,-90.9090909090909,4,2,1,70,0,1
59985,-90.9090909090909,4,2,1,5,0,1
60061,-90.9090909090909,4,2,1,70,0,1
61197,-90.9090909090909,4,2,1,5,0,1
61273,-90.9090909090909,4,2,1,70,0,1
62409,-90.9090909090909,4,2,1,5,0,1
62485,-90.9090909090909,4,2,1,70,0,1
64379,-90.9090909090909,4,2,1,5,0,1
64455,-90.9090909090909,4,2,1,70,0,1
65591,-90.9090909090909,4,2,1,5,0,1
65667,-90.9090909090909,4,2,1,70,0,1
66046,-90.9090909090909,4,2,1,5,0,1
66122,-90.9090909090909,4,2,1,70,0,1
68243,-90.9090909090909,4,2,1,80,0,1
68470,-90.9090909090909,4,2,1,5,0,1
68546,-90.9090909090909,4,2,1,80,0,1
69682,-90.9090909090909,4,2,1,5,0,1
69758,-90.9090909090909,4,2,1,80,0,1
70894,-90.9090909090909,4,2,1,5,0,1
70970,-90.9090909090909,4,2,1,80,0,1
72106,-90.9090909090909,4,2,1,5,0,1
72182,-90.9090909090909,4,2,1,70,0,1
73167,-90.9090909090909,4,2,1,5,0,1
73243,-166.666666666667,4,2,1,80,0,1
73546,-166.666666666667,4,2,1,50,0,1
73849,-142.857142857143,4,2,1,55,0,1
74152,-142.857142857143,4,2,1,60,0,1
74455,-125,4,2,1,65,0,1
74758,-125,4,2,1,70,0,1
75061,-111.111111111111,4,2,1,75,0,1
75364,-111.111111111111,4,2,1,80,0,1
75667,-100,4,2,1,75,0,1
75970,-100,4,2,1,50,0,1
76273,-100,4,2,1,55,0,1
76576,-100,4,2,1,60,0,1
76879,-100,4,2,1,65,0,1
77182,-100,4,2,1,70,0,1
77485,-100,4,2,1,75,0,1
77788,-100,4,2,1,80,0,1
78091,-90.9090909090909,4,2,1,85,0,1
78318,-90.9090909090909,4,2,1,5,0,1
78394,-90.9090909090909,4,2,1,85,0,1
78773,-90.9090909090909,4,2,1,5,0,1
78849,-90.9090909090909,4,2,1,85,0,1
79227,-90.9090909090909,4,2,1,5,0,1
79303,-90.9090909090909,4,2,1,85,0,1
80515,-111.111111111111,4,2,1,50,0,0
80742,-111.111111111111,4,2,1,5,0,0
80819,-111.111111111111,4,2,1,50,0,0
83167,-111.111111111111,4,2,1,5,0,0
83244,-111.111111111111,4,2,1,50,0,0
85364,-111.111111111111,4,2,1,60,0,0
85591,-111.111111111111,4,2,1,5,0,0
85668,-111.111111111111,4,2,1,60,0,0
86046,-111.111111111111,4,2,1,5,0,0
86122,-111.111111111111,4,2,1,60,0,0
87637,-142.857142857143,4,2,1,55,0,0
91728,-142.857142857143,4,2,1,65,0,0
92031,-142.857142857143,4,2,1,75,0,0
92334,-142.857142857143,4,2,1,85,0,0

[Colours]
Combo1 : 9,175,255
Combo2 : 255,70,70
Combo3 : 255,255,81
Combo4 : 255,74,165

[HitObjects]
128,256,516,6,0,L|128:200,1,55.9999982910157,6|2,1:2|0:0,0:0:0:0:
193,142,819,1,2,0:0:0:0:
180,123,970,2,0,P|128:104|76:123,2,111.999996582031,2|2|2,0:0|0:0|0:0,0:0:0:0:
128,256,1728,6,0,B|72:256,1,55.9999982910157,2|2,0:0|0:0,0:0:0:0:
200,321,2031,1,2,0:0:0:0:
214,301,2182,1,2,0:0:0:0:
286,366,2334,2,0,L|349:366,1,55.9999982910157,2|2,0:0|0:0,0:0:0:0:
378,331,2561,1,2,0:0:0:0:
378,331,2637,2,0,B|389:305|389:305|378:279,1,55.9999982910157,2|2,0:0|0:0,0:0:0:0:
271,188,2940,5,2,0:0:0:0:
257,208,3091,1,2,0:0:0:0:
137,142,3243,2,0,L|195:142,1,55.9999982910157,2|2,0:0|0:0,0:0:0:0:
287,71,3546,1,2,0:0:0:0:
273,91,3697,1,2,0:0:0:0:
153,25,3849,2,0,L|211:25,1,55.9999982910157,2|2,0:0|0:0,0:0:0:0:
351,137,4152,5,2,0:0:0:0:
415,17,4379,1,2,0:0:0:0:
415,17,4455,2,0,P|408:43|414:70,1,55.9999982910157,2|2,0:0|0:0,0:0:0:0:
503,70,4758,2,0,P|510:43|503:16,1,55.9999982910157,2|2,0:0|0:0,0:0:0:0:
458,137,5061,2,0,L|458:183,2,27.9999991455078,2|2|2,0:0|0:0|0:0,0:0:0:0:
487,249,5364,6,0,B|431:249,1,55.9999982910157,6|2,1:2|0:0,0:0:0:0:
371,319,5667,1,2,0:0:0:0:
359,299,5818,2,0,B|334:248|334:248|359:198,2,111.999996582031,2|2|2,0:0|0:0|0:0,0:0:0:0:
246,369,6576,6,0,B|302:369,1,55.9999982910157,2|2,0:0|0:0,0:0:0:0:
174,304,6880,1,2,0:0:0:0:
160,324,7031,1,2,0:0:0:0:
88,259,7182,2,0,B|32:259,1,55.9999982910157,2|2,0:0|0:0,0:0:0:0:
0,219,7409,1,2,0:0:0:0:
0,219,7485,2,0,P|-6:192|0:165,1,55.9999982910157,2|2,0:0|0:0,0:0:0:0:
74,60,7788,5,2,0:0:0:0:
88,76,7939,1,2,0:0:0:0:
266,76,8091,2,0,L|210:76,1,55.9999982910157,10|2,0:0|0:0,0:0:0:0:
145,172,8394,1,2,0:0:0:0:
159,188,8545,1,2,0:0:0:0:
337,188,8697,2,0,L|281:188,1,55.9999982910157,10|2,0:0|0:0,0:0:0:0:
216,284,9000,5,2,0:0:0:0:
320,370,9228,1,2,0:0:0:0:
320,370,9303,2,0,B|309:344|309:344|320:318,1,55.9999982910157,10|10,0:0|0:0,0:0:0:0:
338,276,9531,1,10,0:0:0:0:
338,276,9606,1,8,0:0:0:0:
404,339,9758,1,8,3:0:0:0:
485,295,9909,1,6,3:0:0:0:
469,205,10061,1,6,3:0:0:0:
343,131,10212,6,0,B|374:149|374:188|374:188|374:149|403:130,2,136.000002593994,6|10|2,1:2|0:0|0:0,0:0:0:0:
280,199,10970,1,2,0:0:0:0:
343,63,11122,2,0,L|343:132,1,68.0000012969971,10|2,0:0|0:0,0:0:0:0:
221,63,11425,2,0,P|281:37|342:62,1,136.000002593994,2|10,0:0|0:0,0:0:0:0:
280,199,11879,2,0,P|220:225|159:200,1,136.000002593994,2|2,0:0|0:0,0:0:0:0:
0,134,12334,1,8,0:0:0:0:
63,74,12485,1,2,1:2:0:0:
63,74,12637,6,0,B|96:136|96:136|64:193,1,136.000002593994,2|10,1:2|0:0,0:0:0:0:
0,309,13091,2,0,P|60:283|121:308,1,136.000002593994,2|0,0:0|0:0,0:0:0:0:
260,372,13546,2,0,B|215:315|236:229|283:260|303:177|262:118,1,272.000005187988,8|8,0:0|0:0,0:0:0:0:
187,180,14455,1,2,0:0:0:0:
187,180,14758,1,10,0:0:0:0:
187,180,15061,6,0,L|323:180,1,136.000002593994,2|8,1:2|0:0,0:0:0:0:
437,117,15515,2,0,P|411:178|437:239,1,136.000002593994,2|0,0:0|0:0,0:0:0:0:
323,342,15970,1,10,0:0:0:0:
323,342,16273,6,0,B|187:342,1,136.000002593994,2|8,0:0|0:0,0:0:0:0:
187,180,16728,2,0,B|323:180,1,136.000002593994,2|0,0:0|0:0,0:0:0:0:
435,32,17182,1,10,0:0:0:0:
498,98,17334,1,0,1:0:0:0:
498,98,17485,6,0,P|437:124|376:99,1,136.000002593994,2|10,1:2|0:0,0:0:0:0:
196,33,17940,2,0,P|256:6|317:31,1,136.000002593994,2|0,0:0|0:0,0:0:0:0:
255,180,18394,1,8,0:0:0:0:
196,33,18697,1,0,0:0:0:0:
196,33,18849,1,0,1:0:0:0:
65,101,19000,2,0,B|95:86|95:86|126:101,1,68.0000012969971,8|8,0:0|3:0,0:0:0:0:
170,132,19228,1,8,3:0:0:0:
170,132,19303,1,8,3:0:0:0:
97,187,19455,1,8,3:0:0:0:
129,273,19606,1,4,3:0:0:0:
221,269,19758,1,4,3:0:0:0:
372,178,19909,6,0,B|255:178|255:178|276:187|289:201,1,160,4|10,1:2|0:0,0:0:0:0:
221,268,20364,1,2,0:0:0:0:
359,375,20516,2,0,P|383:322|359:269,1,120,2|0,0:0|2:0,0:0:0:0:
358,268,20819,2,0,L|438:268,1,80,10|2,0:0|0:0,0:0:0:0:
512,102,21122,6,0,B|443:102|443:102|421:88|421:88|356:88,1,160,2|10,0:0|0:0,0:0:0:0:
205,27,21576,2,0,P|242:93|204:159,1,160,2|2,0:0|0:0,0:0:0:0:
72,38,22031,1,8,0:0:0:0:
4,93,22182,1,0,1:0:0:0:
4,93,22334,6,0,P|72:129|140:93,1,160,2|10,1:2|0:0,0:0:0:0:
330,20,22788,2,0,B|309:57|324:73|375:96|324:117|309:133|330:172,1,160,2|2,0:0|0:0,0:0:0:0:
456,308,23243,1,8,0:0:0:0:
468,220,23394,6,0,B|428:203|382:228|407:250|363:274|323:260,1,160,2|0,0:0|0:0,0:0:0:0:
202,159,23849,1,8,0:0:0:0:
202,361,24152,1,2,0:0:0:0:
202,361,24455,2,0,L|122:361,1,80,10|0,0:0|0:0,0:0:0:0:
46,246,24758,6,0,B|115:246|115:246|137:260|137:260|202:260,1,160,2|8,1:2|0:0,0:0:0:0:
291,260,25212,1,0,0:0:0:0:
422,196,25364,2,0,B|380:263|380:263|421:333,1,160,2|8,0:0|0:0,0:0:0:0:
486,264,25819,1,0,0:0:0:0:
422,76,25970,6,0,L|422:206,1,120,2|0,0:0|2:0,0:0:0:0:
422,196,26273,1,10,0:0:0:0:
291,260,26425,2,0,B|291:100,1,160,2|2,0:0|0:0,0:0:0:0:
223,32,26879,1,8,0:0:0:0:
158,207,27031,1,0,1:0:0:0:
158,207,27182,6,0,P|179:153|156:100,1,120,2|0,1:2|2:0,0:0:0:0:
155,99,27485,1,10,0:0:0:0:
2,193,27637,2,0,B|71:193|71:193|93:207|93:207|158:207,1,160,2|2,0:0|1:2,0:0:0:0:
36,371,28091,2,0,L|36:291,1,80,8|0,0:0|1:0,0:0:0:0:
36,101,28393,5,10,0:0:0:0:
157,207,28545,1,0,1:0:0:0:
2,193,28697,1,14,0:0:0:0:
123,299,28849,1,8,0:0:0:0:
123,299,28925,1,8,0:0:0:0:
123,299,29000,1,10,0:0:0:0:
200,360,29152,1,8,3:0:0:0:
281,305,29303,1,6,3:0:0:0:
253,210,29455,1,4,3:0:0:0:
156,105,29606,6,0,P|137:155|156:206,1,111.999996582031,6|0,1:2|0:0,0:0:0:0:
253,210,30061,6,0,P|270:166|253:122,1,95.9999970703126,8|0,3:0|0:0,0:0:0:0:
361,50,30516,6,0,P|346:86|361:122,1,80,8|0,3:0|0:0,0:0:0:0:
456,122,30970,6,0,P|466:92|455:63,1,64,4|0,3:0|0:0,0:0:0:0:
408,194,31425,5,0,1:0:0:0:
408,194,31576,1,0,1:0:0:0:
473,363,31728,1,10,0:0:0:0:
473,363,32031,6,0,L|361:363,1,111.999996582031,4|0,1:2|0:0,0:0:0:0:
361,277,32485,6,0,L|456:277,1,95.9999970703126,10|2,3:0|0:0,0:0:0:0:
283,317,32940,6,0,L|203:317,1,80,8|0,3:0|0:0,0:0:0:0:
202,228,33394,6,0,L|266:228,1,64,6|0,3:0|0:0,0:0:0:0:
125,273,33849,5,0,1:0:0:0:
125,273,34000,1,0,1:0:0:0:
24,108,34152,2,0,P|34:144|22:177,1,71.9999978027344,14|0,0:0|2:0,0:0:0:0:
22,176,34455,6,0,B|73:154|73:154|125:177,1,111.999996582031,6|2,1:2|0:0,0:0:0:0:
125,273,34909,6,0,B|81:292|81:292|37:273,1,95.9999970703126,10|2,3:0|0:0,0:0:0:0:
202,228,35364,6,0,B|238:211|238:211|274:227,1,80,10|0,3:0|0:0,0:0:0:0:
275,319,35819,6,0,B|245:331|245:331|216:319,1,64,4|0,3:0|0:0,0:0:0:0:
349,271,36273,5,2,1:2:0:0:
349,271,36425,1,0,1:0:0:0:
463,377,36576,1,10,0:0:0:0:
463,377,36879,6,0,B|463:296|463:296|444:270,1,111.999996582031,4|2,3:2|0:0,0:0:0:0:
349,271,37334,6,0,B|333:292|333:292|333:361,1,95.9999970703126,10|2,3:0|0:0,0:0:0:0:
392,197,37788,6,0,B|392:139|392:139|379:121,1,80,6|2,3:0|1:2,0:0:0:0:
329,9,38243,5,8,0:0:0:0:
174,120,38394,2,0,L|230:120,1,55.9999982910157,2|10,1:2|0:0,0:0:0:0:
280,121,38622,1,8,0:0:0:0:
280,121,38697,1,8,0:0:0:0:
392,197,38849,5,10,3:0:0:0:
411,216,38924,1,2,0:0:0:0:
419,244,39000,1,6,3:0:0:0:
411,271,39076,1,2,0:0:0:0:
392,292,39152,2,0,L|364:292,1,27.9999991455078,6|2,3:0|0:0,0:0:0:0:
280,243,39303,6,0,B|221:243|221:243|202:254|202:254|147:254,1,136.000002593994,4|0,1:2|0:0,0:0:0:0:
87,186,39758,1,2,1:2:0:0:
26,322,39909,2,0,L|26:254,1,68.0000012969971,10|2,0:0|0:0,0:0:0:0:
26,118,40212,1,2,1:2:0:0:
26,118,40364,1,2,1:2:0:0:
146,254,40515,5,2,0:0:0:0:
209,187,40667,2,0,P|148:160|87:186,1,136.000002593994,8|2,0:0|1:2,0:0:0:0:
209,321,41122,2,0,P|270:346|330:319,1,136.000002593994,8|2,0:0|1:2,0:0:0:0:
330,318,41728,6,0,L|330:182,1,136.000002593994,0|0,1:0|0:0,0:0:0:0:
393,116,42182,1,2,1:2:0:0:
456,250,42334,2,0,L|456:182,1,68.0000012969971,10|0,0:0|0:0,0:0:0:0:
456,50,42637,1,2,1:2:0:0:
456,50,42788,1,0,1:0:0:0:
330,182,42940,5,2,0:0:0:0:
266,115,43091,2,0,B|329:89|329:89|393:116,1,136.000002593994,8|2,0:0|1:2,0:0:0:0:
391,249,43546,1,8,3:0:0:0:
330,316,43697,1,4,3:0:0:0:
202,182,43849,2,0,P|221:228|203:274,1,102.000001945496,4|0,1:2|2:0,0:0:0:0:
202,274,44152,6,0,L|82:274,1,120,6|0,1:2|2:0,0:0:0:0:
82,274,44455,1,10,0:0:0:0:
202,182,44606,2,0,L|82:182,1,120,6|0,1:2|2:0,0:0:0:0:
82,182,44909,1,10,0:0:0:0:
201,89,45061,6,0,B|131:89|131:89|109:76|109:76|44:76,1,160,6|0,1:2|1:0,0:0:0:0:
202,14,45515,1,8,0:0:0:0:
202,14,45591,1,8,0:0:0:0:
202,14,45667,2,0,P|214:51|201:88,1,80,8|8,0:0|0:0,0:0:0:0:
328,180,45970,1,8,3:0:0:0:
394,117,46122,1,10,3:0:0:0:
459,179,46273,2,0,P|484:230|458:282,1,120,4|0,3:0|2:0,0:0:0:0:
457,282,46576,6,0,L|337:282,1,120,6|0,1:2|2:0,0:0:0:0:
286,283,46879,2,0,B|295:301|295:301|285:319,3,40,8|8|8|8,1:2|0:0|0:0|0:0,0:0:0:0:
266,344,47182,1,10,1:2:0:0:
239,363,47257,1,8,0:0:0:0:
208,375,47333,1,10,0:0:0:0:
175,372,47409,1,8,0:0:0:0:
150,355,47485,1,10,0:0:0:0:
200,163,47637,6,0,L|200:283,1,120,6|0,1:2|2:0,0:0:0:0:
200,283,47940,1,10,0:0:0:0:
200,77,48091,1,10,0:0:0:0:
384,256,48849,6,0,B|397:223|397:223|370:165|370:165|383:135,1,132.00000402832,6|0,1:2|2:0,0:0:0:0:
382,135,49152,1,2,0:0:0:0:
201,223,49303,2,0,L|294:223,1,88.000002685547,10|0,0:0|0:0,0:0:0:0:
472,159,49606,2,0,B|501:217|501:217|474:278,1,132.00000402832,2|0,1:2|2:0,0:0:0:0:
473,278,49909,1,10,0:0:0:0:
289,355,50061,6,0,L|289:223,1,132.00000402832,2|0,0:0|2:0,0:0:0:0:
289,223,50364,1,2,0:0:0:0:
132,98,50515,1,8,0:0:0:0:
221,52,50667,2,0,B|221:144|221:144|201:183|201:183|201:268,1,220.000006713867,2|0,0:0|2:0,0:0:0:0:
201,267,51122,1,10,0:0:0:0:
83,366,51273,6,0,B|142:336|142:336|199:365,1,132.00000402832,2|0,0:0|2:0,0:0:0:0:
200,365,51576,1,2,0:0:0:0:
289,223,51728,1,8,0:0:0:0:
212,162,51879,1,2,0:0:0:0:
365,46,52031,2,0,P|338:104|366:162,1,132.00000402832,2|0,1:2|2:0,0:0:0:0:
366,162,52334,1,10,0:0:0:0:
512,46,52485,6,0,P|538:103|511:161,1,132.00000402832,2|0,0:0|2:0,0:0:0:0:
511,162,52788,1,2,0:0:0:0:
437,311,52940,2,0,L|437:223,1,88.000002685547,8|0,0:0|0:0,0:0:0:0:
365,46,53243,1,2,1:2:0:0:
289,104,53394,1,2,0:0:0:0:
213,46,53546,1,10,0:0:0:0:
20,102,53697,6,0,B|77:134|77:134|136:103,1,132.00000402832,6|0,1:2|2:0,0:0:0:0:
135,103,54000,1,2,0:0:0:0:
288,200,54152,2,0,B|151:200|151:200|197:239,1,176.000005371094,10|0,0:0|1:0,0:0:0:0:
247,295,54606,1,0,0:0:0:0:
345,131,54758,1,10,0:0:0:0:
404,199,54909,6,0,B|344:229|344:229|286:198,1,132.00000402832,6|0,1:2|2:0,0:0:0:0:
287,199,55212,2,0,L|199:199,1,88.000002685547,2|10,1:2|0:0,0:0:0:0:
41,295,55516,2,0,B|101:265|101:265|159:296,1,132.00000402832,6|0,1:2|2:0,0:0:0:0:
159,295,55819,2,0,L|247:295,1,88.000002685547,2|8,1:2|0:0,0:0:0:0:
247,114,56122,6,0,B|133:114|133:114|155:138,1,132.00000402832,6|0,1:2|2:0,0:0:0:0:
145,127,56425,1,2,1:2:0:0:
247,295,56576,5,8,0:0:0:0:
247,114,56728,1,2,1:2:0:0:
323,253,56879,5,8,0:0:0:0:
323,79,57031,1,2,1:2:0:0:
399,209,57182,5,8,0:0:0:0:
402,45,57334,6,0,B|427:82|415:137|383:116|370:173|399:210,1,176.000005371094,6|0,1:2|1:0,0:0:0:0:
472,251,57712,5,2,0:0:0:0:
472,251,57788,2,0,B|493:259|493:259|512:249,1,44.0000013427735,10|2,0:0|0:0,0:0:0:0:
512,167,57940,2,0,B|491:159|491:159|471:168,1,44.0000013427735,2|2,1:2|0:0,0:0:0:0:
398,209,58091,5,10,0:0:0:0:
366,233,58166,1,10,3:0:0:0:
327,236,58242,1,6,3:0:0:0:
292,219,58318,1,6,3:0:0:0:
275,183,58394,2,0,L|275:139,1,44.0000013427735,10|0,0:0|0:0,0:0:0:0:
179,51,58546,6,0,B|179:183,1,132.00000402832,6|0,1:2|2:0,0:0:0:0:
179,183,58849,1,2,0:0:0:0:
59,328,59000,1,8,0:0:0:0:
0,256,59152,1,2,0:0:0:0:
179,183,59303,2,0,B|121:212|121:212|60:185,1,132.00000402832,2|0,1:2|2:0,0:0:0:0:
59,184,59606,1,10,0:0:0:0:
179,51,59758,6,0,B|237:22|237:22|298:49,1,132.00000402832,2|0,0:0|2:0,0:0:0:0:
298,49,60061,1,2,0:0:0:0:
398,209,60212,1,8,0:0:0:0:
457,143,60364,1,2,0:0:0:0:
298,49,60515,1,2,1:2:0:0:
298,49,60667,1,2,0:0:0:0:
179,183,60819,1,10,0:0:0:0:
245,242,60970,6,0,P|270:182|244:123,1,132.00000402832,2|0,0:0|2:0,0:0:0:0:
244,123,61273,1,2,0:0:0:0:
179,301,61425,1,10,0:0:0:0:
113,242,61576,1,2,0:0:0:0:
244,123,61728,2,0,L|332:123,1,88.000002685547,2|2,1:2|0:0,0:0:0:0:
437,277,62031,1,10,0:0:0:0:
494,207,62182,6,0,B|436:174|436:174|380:207,1,132.00000402832,2|0,0:0|2:0,0:0:0:0:
379,207,62485,1,2,0:0:0:0:
332,123,62637,1,8,0:0:0:0:
284,38,62788,2,0,B|208:38|208:38|184:53|184:53|113:53,1,176.000005371094
112,243,63243,1,8,0:0:0:0:
33,191,63394,1,2,0:0:0:0:
112,53,63546,6,0,L|112:141,1,88.000002685547,6|2,1:2|0:0,0:0:0:0:
112,331,63849,2,0,L|112:243,1,88.000002685547,10|0,0:0|0:0,0:0:0:0:
275,150,64152,2,0,P|234:194|276:237,1,132.00000402832,2|0,1:2|0:0,0:0:0:0:
277,238,64455,6,0,L|277:326,1,88.000002685547,14|0,0:0|0:0,0:0:0:0:
445,326,64758,2,0,L|445:149,1,176.000005371094,2|8,1:2|0:0,0:0:0:0:
361,80,65212,1,2,0:0:0:0:
277,238,65364,2,0,B|217:211|217:211|156:237,1,132.00000402832,6|0,1:2|2:0,0:0:0:0:
156,237,65667,1,10,0:0:0:0:
0,356,65819,6,0,P|24:297|0:237,1,132.00000402832,6|0,1:2|2:0,0:0:0:0:
0,236,66122,1,2,1:2:0:0:
103,131,66273,1,10,0:0:0:0:
133,144,66425,1,2,0:0:0:0:
236,39,66576,1,2,1:2:0:0:
266,52,66728,1,2,0:0:0:0:
362,160,66879,2,0,B|343:119|343:119|361:80,1,88.000002685547,10|2,0:0|0:0,0:0:0:0:
512,0,67182,5,2,1:2:0:0:
432,0,67334,1,2,0:0:0:0:
362,160,67485,1,14,0:0:0:0:
442,160,67637,1,2,0:0:0:0:
501,279,67788,1,2,1:2:0:0:
475,302,67863,1,0,1:0:0:0:
442,310,67939,1,10,0:0:0:0:
410,302,68015,1,8,0:0:0:0:
385,280,68091,1,10,0:0:0:0:
243,159,68243,6,0,P|302:134|362:160,1,132.00000402832,6|0,1:2|2:0,0:0:0:0:
362,160,68546,1,2,1:2:0:0:
302,322,68697,2,0,L|302:234,1,88.000002685547,10|0,0:0|1:0,0:0:0:0:
184,84,69000,1,8,0:0:0:0:
59,175,69152,5,2,1:2:0:0:
118,250,69303,1,10,0:0:0:0:
2,367,69455,6,0,P|-24:308|1:249,1,132.00000402832,6|0,1:2|2:0,0:0:0:0:
0,249,69758,1,2,1:2:0:0:
59,87,69909,2,0,L|59:175,1,88.000002685547,10|2,0:0|1:2,0:0:0:0:
118,338,70212,2,0,L|118:250,1,88.000002685547,8|2,0:0|1:2,0:0:0:0:
243,159,70515,5,8,0:0:0:0:
420,234,70667,6,0,B|359:263|359:263|301:233,1,132.00000402832,6|0,1:2|2:0,0:0:0:0:
301,233,70970,1,2,1:2:0:0:
184,84,71122,1,10,0:0:0:0:
184,233,71273,1,2,1:2:0:0:
301,84,71425,1,10,0:0:0:0:
301,84,71728,6,0,B|355:60|418:95|384:125|445:158|500:138,1,220.000006713867,6|0,1:2|2:0,0:0:0:0:
499,138,72182,1,2,1:2:0:0:
499,298,72334,1,14,0:0:0:0:
471,276,72409,1,2,0:0:0:0:
436,269,72485,1,2,1:2:0:0:
401,277,72561,1,2,0:0:0:0:
374,300,72637,2,0,B|384:321|384:321|375:338,3,44.0000013427735,14|10|6|6,0:0|3:0|3:0|3:0,0:0:0:0:
355,368,72940,2,0,L|223:368,1,132.00000402832,14|0,0:0|2:0,0:0:0:0:
223,368,73243,5,2,1:2:0:0:
223,368,73546,2,0,L|223:320,1,47.9999985351563,2|2,1:2|1:2,0:0:0:0:
95,270,73849,6,0,P|121:278|148:271,1,55.9999982910157,0|0,1:0|1:0,0:0:0:0:
148,179,74152,2,0,P|121:172|94:179,1,55.9999982910157,0|2,1:0|1:2,0:0:0:0:
230,126,74455,6,0,B|242:94|242:94|230:67,1,64,2|8,1:2|0:0,0:0:0:0:
364,66,74758,2,0,B|351:94|351:94|363:126,1,64,2|10,1:2|0:0,0:0:0:0:
512,193,75061,6,0,B|481:193|481:193|473:187|473:187|442:187,1,71.9999978027344,0|8,1:0|0:0,0:0:0:0:
442,365,75364,2,0,B|474:365|474:365|482:359|482:359|513:359,1,71.9999978027344,0|10,1:0|0:0,0:0:0:0:
329,273,75667,5,6,1:2:0:0:
329,273,75970,2,0,L|289:273,3,40,10|8|10|8,1:2|0:0|0:0|0:0,0:0:0:0:
251,303,76273,2,0,L|211:303,3,40,8|8|8|8,1:2|0:0|0:0|0:0,0:0:0:0:
171,273,76576,2,0,L|131:273,3,40,10|8|8|8,1:2|0:0|0:0|0:0,0:0:0:0:
93,240,76879,6,0,B|84:222|84:222|92:204,3,40,10|8|8|8,1:2|0:0|0:0|0:0,0:0:0:0:
118,160,77182,2,0,B|127:142|127:142|119:124,3,40,10|8|8|8,1:2|0:0|0:0|0:0,0:0:0:0:
92,80,77485,5,10,1:2:0:0:
110,52,77561,1,8,0:0:0:0:
139,36,77637,1,8,0:0:0:0:
173,35,77713,1,8,0:0:0:0:
204,50,77788,2,0,L|244:50,1,40,10|10,1:2|0:0,0:0:0:0:
330,121,77940,2,0,L|290:121,1,40,10|10,0:0|0:0,0:0:0:0:
202,198,78091,6,0,B|260:198|260:198|278:209|278:209|332:209,1,132.00000402832,6|0,1:2|2:0,0:0:0:0:
330,209,78394,1,10,0:2:0:0:
488,279,78546,6,0,B|430:279|430:279|412:290|412:290|358:290,1,132.00000402832,4|0,1:2|2:0,0:0:0:0:
359,290,78849,1,8,0:0:0:0:
202,357,79000,6,0,B|260:357|260:357|278:368|278:368|332:368,1,132.00000402832,4|0,1:2|2:0,0:0:0:0:
331,368,79303,1,8,0:0:0:0:
330,209,79455,6,0,B|253:209|253:209|229:223|229:223|157:223,1,176.000005371094,4|8,1:2|0:0,0:0:0:0:
0,303,79910,1,0,1:0:0:0:
23,277,79985,1,8,3:0:0:0:
31,244,80061,1,4,3:0:0:0:
23,212,80137,1,4,3:0:0:0:
1,187,80213,1,12,0:0:0:0:
1,187,80515,6,0,L|1:79,1,107.999996704102,6|0,1:2|2:0,0:0:0:0:
1,79,80819,1,10,0:0:0:0:
158,79,80970,2,0,L|158:223,1,143.999995605469,2|10,1:2|0:0,0:0:0:0:
291,295,81425,2,0,P|256:285|222:295,1,71.9999978027344,2|0,1:2|0:0,0:0:0:0:
355,224,81728,5,8,0:0:0:0:
419,367,81879,2,0,L|419:295,1,71.9999978027344,0|0,1:0|0:0,0:0:0:0:
419,153,82182,1,8,0:0:0:0:
419,153,82334,1,0,1:0:0:0:
355,224,82485,1,2,1:2:0:0:
260,80,82637,1,10,0:0:0:0:
260,80,82940,6,0,B|206:62|206:62|157:79,1,107.999996704102,6|0,1:2|2:0,0:0:0:0:
157,78,83244,1,10,0:0:0:0:
22,218,83394,2,0,B|61:238|61:238|98:222|98:222|157:222,1,143.999995605469,2|10,1:2|0:0,0:0:0:0:
260,80,83850,2,0,L|345:80,1,71.9999978027344,2|0,1:2|0:0,0:0:0:0:
206,151,84153,5,8,0:0:0:0:
260,222,84304,2,0,L|334:222,1,71.9999978027344,0|0,1:0|0:0,0:0:0:0:
424,80,84607,1,8,0:0:0:0:
476,268,84758,1,0,1:0:0:0:
453,242,84833,1,0,1:0:0:0:
445,209,84909,1,2,1:2:0:0:
453,177,84985,1,0,1:0:0:0:
475,152,85061,1,14,0:0:0:0:
475,152,85364,6,0,P|424:168|373:151,1,107.999996704102,6|0,1:2|2:0,0:0:0:0:
373,151,85668,1,10,0:0:0:0:
230,79,85819,2,0,P|281:63|332:80,1,107.999996704102,6|0,1:2|2:0,0:0:0:0:
331,79,86122,1,10,0:0:0:0:
280,223,86274,2,0,L|280:151,1,71.9999978027344,6|0,1:2|0:0,0:0:0:0:
180,7,86577,5,8,0:0:0:0:
57,79,86728,2,0,L|129:79,1,71.9999978027344,6|0,1:2|0:0,0:0:0:0:
280,151,87031,1,10,0:0:0:0:
280,151,87106,1,8,0:0:0:0:
280,151,87183,1,8,0:0:0:0:
331,79,87334,1,10,3:0:0:0:
416,106,87486,1,6,3:0:0:0:
332,225,87637,6,0,P|281:245|230:225,1,111.999996582031,6|0,1:2|1:0,0:0:0:0:
128,225,88091,2,0,P|178:204|229:224,1,111.999996582031,0|8,1:0|0:0,0:0:0:0:
280,151,88546,1,0,1:0:0:0:
179,290,88697,2,0,B|174:304|174:304|180:315,3,27.9999991455078,0|0|0|0,1:0|1:0|1:0|1:0,0:0:0:0:
219,348,89000,6,0,L|331:348,1,111.999996582031,0|0,1:0|1:0,0:0:0:0:
394,282,89455,1,8,0:0:0:0:
394,282,89758,1,8,0:0:0:0:
280,151,89909,2,0,L|280:123,3,27.9999991455078,0|0|0|0,1:0|1:0|1:0|1:0,0:0:0:0:
280,78,90212,6,0,B|228:101|228:101|178:76,1,111.999996582031,0|0,1:0|0:0,0:0:0:0:
77,74,90667,2,0,B|129:51|129:51|178:75,1,111.999996582031,8|8,0:0|0:0,0:0:0:0:
126,148,91122,1,0,1:0:0:0:
226,4,91273,1,0,1:0:0:0:
126,148,91425,5,8,0:0:0:0:
178,220,91576,1,2,0:0:0:0:
178,220,91652,1,2,0:0:0:0:
178,220,91728,2,0,L|206:220,3,27.9999991455078,10|2|10|2,0:0|0:0|0:0|0:0,0:0:0:0:
253,220,92031,1,10,0:0:0:0:
273,243,92106,1,2,0:0:0:0:
281,273,92182,1,10,0:0:0:0:
273,302,92258,1,2,0:0:0:0:
253,325,92334,6,0,L|225:325,1,27.9999991455078,10|2,0:0|0:0,0:0:0:0:
102,325,92485,2,0,L|130:325,1,27.9999991455078,10|0,0:0|0:0,0:0:0:0:
