osu file format v14

[General]
AudioFilename: audio.mp3
AudioLeadIn: 0
PreviewTime: 48859
Countdown: 0
SampleSet: Soft
StackLeniency: 0.2
Mode: 0
LetterboxInBreaks: 0
WidescreenStoryboard: 0

[Editor]
Bookmarks: 526,10222,19919,29616,39313,48859,58556,68253,80525,90071,97344,107192,116889,126586,136132,145829,155525,165374,175071,187041,196738,202798,212495,224616,234313,244010,253859,263404
DistanceSpacing: 1.2
BeatDivisor: 4
GridSize: 4
TimelineZoom: 1

[Metadata]
Title:Kimi no Tonari de
TitleUnicode:キミのとなりで
Artist:Kito Akari
ArtistUnicode:鬼頭明里
Creator:Nyukai
Version:Insane: Adachi & Shimamura
Source:安達としまむら
Tags:adashima こだまさおり Saori Kodama 伊藤 翼 Tsubasa Itō Itou Ito gay kitou kitō adachi to shimamura and ending ed full version japanese jpop j-pop pop anime yuri collab collaboration akareh
BeatmapID:2956319
BeatmapSetID:1436845

[Difficulty]
HPDrainRate:6
CircleSize:4.7
OverallDifficulty:8.2
ApproachRate:9
SliderMultiplier:1.6
SliderTickRate:1

[Events]
//Background and Video events
0,0,"cute.jpg",0,0
//Break Periods
//Storyboard Layer 0 (Background)
//Storyboard Layer 1 (Fail)
//Storyboard Layer 2 (Pass)
//Storyboard Layer 3 (Foreground)
//Storyboard Layer 4 (Overlay)
//Storyboard Sound Samples

[TimingPoints]
526,303.030303030303,4,2,1,50,1,0
526,-133.333333333333,4,2,1,50,0,0
10222,-117.647058823529,4,2,1,60,0,0
21359,-117.647058823529,4,2,1,5,0,0
21435,-117.647058823529,4,2,1,60,0,0
26207,-117.647058823529,4,2,1,5,0,0
26283,-117.647058823529,4,2,1,60,0,0
29616,-133.333333333333,4,2,1,60,0,0
29995,-133.333333333333,4,2,1,5,0,0
30071,-133.333333333333,4,2,1,60,0,0
30450,-133.333333333333,4,2,1,5,0,0
30526,-133.333333333333,4,2,1,60,0,0
30904,-133.333333333333,4,2,1,5,0,0
30980,-133.333333333333,4,2,1,60,0,0
39313,-117.647058823529,4,2,1,60,0,0
40753,-117.647058823529,4,2,1,5,0,0
40829,-117.647058823529,4,2,1,60,0,0
44389,-117.647058823529,4,2,1,5,0,0
44465,-117.647058823529,4,2,1,60,0,0
44844,-117.647058823529,4,2,1,5,0,0
44919,-117.647058823529,4,2,1,60,0,0
45450,-117.647058823529,4,2,1,5,0,0
45525,-117.647058823529,4,2,1,60,0,0
46586,-100,4,2,1,70,0,0
46813,-100,4,2,1,5,0,0
46889,-100,4,2,1,50,0,0
47647,-100,4,2,1,70,0,0
48859,-90.9090909090909,4,2,1,80,0,1
49086,-90.9090909090909,4,2,1,5,0,1
49162,-90.9090909090909,4,2,1,80,0,1
49541,-90.9090909090909,4,2,1,5,0,1
49616,-90.9090909090909,4,2,1,80,0,1
49844,-90.9090909090909,4,2,1,5,0,1
49919,-90.9090909090909,4,2,1,80,0,1
50904,-90.9090909090909,4,2,1,5,0,1
50980,-90.9090909090909,4,2,1,80,0,1
54692,-90.9090909090909,4,2,1,5,0,1
54768,-90.9090909090909,4,2,1,80,0,1
57571,-90.9090909090909,4,2,1,5,0,1
57647,-90.9090909090909,4,2,1,80,0,1
58480,-90.9090909090909,4,2,1,80,0,0
58556,-90.9090909090909,4,2,1,80,0,1
58783,-90.9090909090909,4,2,1,5,0,1
58859,-90.9090909090909,4,2,1,80,0,1
59995,-90.9090909090909,4,2,1,5,0,1
60071,-90.9090909090909,4,2,1,80,0,1
61207,-90.9090909090909,4,2,1,5,0,1
61283,-90.9090909090909,4,2,1,80,0,1
62419,-90.9090909090909,4,2,1,5,0,1
62495,-90.9090909090909,4,2,1,80,0,1
67722,-90.9090909090909,4,2,1,5,0,1
67798,-90.9090909090909,4,2,1,80,0,1
68177,-90.9090909090909,4,2,1,80,0,0
68253,-90.9090909090909,4,2,1,80,0,1
68480,-90.9090909090909,4,2,1,5,0,1
68556,-90.9090909090909,4,2,1,80,0,1
70904,-90.9090909090909,4,2,1,5,0,1
70980,-90.9090909090909,4,2,1,80,0,1
75904,-90.9090909090909,4,2,1,5,0,1
75980,-90.9090909090909,4,2,1,80,0,1
76889,-90.9090909090909,4,2,1,60,0,1
78101,-90.9090909090909,4,2,1,80,0,1
78329,-90.9090909090909,4,2,1,5,0,1
78404,-90.9090909090909,4,2,1,80,0,1
78783,-90.9090909090909,4,2,1,5,0,1
78859,-90.9090909090909,4,2,1,80,0,1
79238,-90.9090909090909,4,2,1,5,0,1
79313,-90.9090909090909,4,2,1,80,0,1
80525,-100,4,2,1,80,0,0
86965,-100,4,2,1,5,0,0
87041,-100,4,2,1,80,0,0
87874,-100,4,2,1,5,0,0
87950,-100,4,2,1,80,0,0
91662,-100,4,2,1,5,0,0
91738,-100,4,2,1,80,0,0
96207,-100,4,2,1,5,0,0
96283,-100,4,2,1,80,0,0
97344,-133.333333333333,4,2,1,60,0,0
103480,-133.333333333333,4,2,1,5,0,0
103556,-133.333333333333,4,2,1,60,0,0
106359,-133.333333333333,4,2,1,5,0,0
106435,-133.333333333333,4,2,1,60,0,0
122874,-133.333333333333,4,2,1,5,0,0
122950,-133.333333333333,4,2,1,60,0,0
124162,-117.647058823529,4,2,1,60,0,0
131359,-117.647058823529,4,2,1,5,0,0
131435,-117.647058823529,4,2,1,60,0,0
134086,-117.647058823529,4,2,1,5,0,0
134162,-117.647058823529,4,2,1,60,0,0
136132,-90.9090909090909,4,2,1,80,0,1
137116,-90.9090909090909,4,2,1,5,0,1
137192,-90.9090909090909,4,2,1,80,0,1
138329,-90.9090909090909,4,2,1,5,0,1
138404,-90.9090909090909,4,2,1,80,0,1
139541,-90.9090909090909,4,2,1,5,0,1
139616,-90.9090909090909,4,2,1,80,0,1
144844,-90.9090909090909,4,2,1,5,0,1
144919,-90.9090909090909,4,2,1,80,0,1
145753,-90.9090909090909,4,2,1,80,0,0
145829,-90.9090909090909,4,2,1,80,0,1
146056,-90.9090909090909,4,2,1,5,0,1
146132,-90.9090909090909,4,2,1,80,0,1
146813,-90.9090909090909,4,2,1,5,0,1
146889,-90.9090909090909,4,2,1,80,0,1
155450,-90.9090909090909,4,2,1,80,0,0
155525,-90.9090909090909,4,2,1,80,0,1
155753,-90.9090909090909,4,2,1,5,0,1
155829,-90.9090909090909,4,2,1,80,0,1
158935,-90.9090909090909,4,2,1,5,0,1
159010,-90.9090909090909,4,2,1,80,0,1
160753,-90.9090909090909,4,2,1,5,0,1
160829,-90.9090909090909,4,2,1,80,0,1
163177,-90.9090909090909,4,2,1,5,0,1
163253,-90.9090909090909,4,2,1,80,0,1
163859,-90.9090909090909,4,2,1,60,0,1
165374,-100,4,2,1,60,0,0
175904,-100,4,2,1,5,0,0
175980,-100,4,2,1,60,0,0
179919,-125,4,2,1,60,0,0
187041,-90.9090909090909,4,2,1,70,0,0
188783,-90.9090909090909,4,2,1,5,0,0
188859,-90.9090909090909,4,2,1,70,0,0
192116,-90.9090909090909,4,2,1,5,0,0
192192,-90.9090909090909,4,2,1,70,0,0
196207,-90.9090909090909,4,2,1,5,0,0
196283,-90.9090909090909,4,2,1,70,0,0
196738,-181.818181818181,4,2,1,40,0,0
200222,-100,4,2,1,60,0,0
202798,-90.9090909090909,4,2,1,70,0,0
203025,-90.9090909090909,4,2,1,5,0,0
203101,-90.9090909090909,4,2,1,70,0,0
203329,-90.9090909090909,4,2,1,5,0,0
203404,-90.9090909090909,4,2,1,70,0,0
203632,-90.9090909090909,4,2,1,5,0,0
203707,-90.9090909090909,4,2,1,70,0,0
204238,-90.9090909090909,4,2,1,5,0,0
204313,-90.9090909090909,4,2,1,70,0,0
204844,-90.9090909090909,4,2,1,5,0,0
204919,-90.9090909090909,4,2,1,70,0,0
205222,-125,4,2,1,70,0,0
206435,-90.9090909090909,4,2,1,70,0,0
213177,-90.9090909090909,4,2,1,5,0,0
213253,-90.9090909090909,4,2,1,70,0,0
214541,-90.9090909090909,4,2,1,5,0,0
214616,-90.9090909090909,4,2,1,70,0,0
215147,-90.9090909090909,4,2,1,5,0,0
215222,-90.9090909090909,4,2,1,70,0,0
216056,-90.9090909090909,4,2,1,5,0,0
216132,-90.9090909090909,4,2,1,70,0,0
218177,-90.9090909090909,4,2,1,5,0,0
218253,-90.9090909090909,4,2,1,70,0,0
219844,-90.9090909090909,4,2,1,5,0,0
219919,-90.9090909090909,4,2,1,70,0,0
224616,-133.333333333333,4,2,1,50,0,0
228480,-133.333333333333,4,2,1,5,0,0
228556,-133.333333333333,4,2,1,50,0,0
229313,-117.647058823529,4,2,1,60,0,0
230677,-100,4,2,1,60,0,0
230904,-100,4,2,1,5,0,0
230980,-100,4,2,1,60,0,0
231510,-100,4,2,1,5,0,0
231586,-100,4,2,1,60,0,0
231889,-100,4,2,1,70,0,0
234313,-90.9090909090909,4,2,1,80,0,1
235298,-90.9090909090909,4,2,1,5,0,1
235374,-90.9090909090909,4,2,1,80,0,1
241813,-90.9090909090909,4,2,1,5,0,1
241889,-90.9090909090909,4,2,1,80,0,1
243935,-90.9090909090909,4,2,1,80,0,0
244010,-90.9090909090909,4,2,1,80,0,1
253101,-90.9090909090909,4,2,1,60,0,1
253859,-90.9090909090909,4,2,1,80,0,1
254995,-90.9090909090909,4,2,1,5,0,1
255071,-90.9090909090909,4,2,1,80,0,1
256207,-90.9090909090909,4,2,1,5,0,1
256283,-100,4,2,1,80,0,0
262722,-100,4,2,1,5,0,0
262798,-100,4,2,1,80,0,0
263404,-125,4,2,1,60,0,0
268253,-250,4,2,1,60,0,0

[Colours]
Combo1 : 139,134,198
Combo2 : 203,149,173
SliderBorder : 139,134,198
SliderTrackOverride : 203,149,173

[HitObjects]
361,298,526,6,0,L|337:228,1,60.0000022888184,6|0,1:2|0:0,0:0:0:0:
316,172,829,1,0,0:0:0:0:
316,172,980,2,0,P|268:172|212:120,1,120.000004577637,2|0,0:0|0:0,0:0:0:0:
148,100,1435,2,0,L|96:152,1,60.0000022888184,2|0,0:0|0:0,0:0:0:0:
105,142,1738,5,2,0:0:0:0:
113,234,1889,2,0,L|156:192,2,60.0000022888184,0|0|2,0:0|0:0|0:0,0:0:0:0:
152,300,2344,2,0,L|195:258,1,60.0000022888184
224,240,2571,1,0,0:0:0:0:
224,240,2647,2,0,P|251:229|278:241,1,60.0000022888184,2|0,0:0|0:0,0:0:0:0:
328,192,2950,5,2,0:0:0:0:
328,192,3101,1,0,0:0:0:0:
278,142,3253,2,0,P|251:154|224:144,1,60.0000022888184,0|2,0:0|0:0,0:0:0:0:
152,160,3556,1,0,0:0:0:0:
152,160,3707,1,0,0:0:0:0:
84,180,3859,2,0,L|36:252,1,60.0000022888184,2|0,0:0|0:0,0:0:0:0:
12,292,4162,5,2,0:0:0:0:
110,285,4313,1,0,0:0:0:0:
110,285,4389,1,2,0:0:0:0:
110,285,4465,2,0,L|144:236,1,60.0000022888184,2|0,0:0|0:0,0:0:0:0:
223,143,4768,1,0,0:0:0:0:
208,272,4919,2,0,L|188:304,1,30.0000011444092,2|0,0:0|0:0,0:0:0:0:
256,320,5071,2,0,L|276:288,2,30.0000011444092,2|2|0,0:0|0:0|0:0,0:0:0:0:
144,235,5374,5,6,1:2:0:0:
88,192,5526,1,0,0:0:0:0:
144,149,5677,1,0,0:0:0:0:
144,149,5829,2,0,L|248:76,1,120.000004577637,2|2,0:0|0:0,0:0:0:0:
284,136,6283,2,0,L|220:184,1,60.0000022888184
236,172,6586,5,2,0:0:0:0:
144,235,6738,2,0,P|133:262|145:289,1,60.0000022888184
145,289,7041,1,2,0:0:0:0:
228,336,7192,2,0,P|254:347|282:337,1,60.0000022888184
366,289,7495,1,2,0:0:0:0:
366,289,7647,1,0,0:0:0:0:
296,192,7798,6,0,B|256:172|256:172|216:192,1,90.0000034332277,2|2,0:0|0:0,0:0:0:0:
180,132,8101,2,0,L|248:100,1,60.0000022888184,8|0,0:0|0:0,0:0:0:0:
350,166,8404,2,0,L|282:198,1,60.0000022888184,2|0,0:0|0:0,0:0:0:0:
180,252,8707,1,8,0:0:0:0:
180,252,8859,1,0,0:0:0:0:
216,340,9010,2,0,P|256:360|296:340,1,90.0000034332277,2|2,0:0|0:0,0:0:0:0:
256,284,9313,1,8,0:0:0:0:
235,134,9465,5,10,0:0:0:0:
235,134,9541,1,8,0:0:0:0:
235,134,9616,1,10,0:0:0:0:
339,243,9768,1,0,1:0:0:0:
191,217,9919,1,0,1:0:0:0:
326,151,10071,1,0,1:0:0:0:
256,284,10222,6,0,P|203:243|124:257,1,136.000002593994,6|10,1:2|0:0,0:0:0:0:
33,183,10829,1,2,0:0:0:0:
9,264,10980,1,0,0:0:0:0:
33,183,11132,2,0,P|52:138|51:104,1,68.0000012969971,10|0,0:0|0:0,0:0:0:0:
110,45,11435,2,0,P|148:93|156:180,1,136.000002593994,2|8,0:0|0:0,0:0:0:0:
190,240,11889,2,0,P|231:186|240:120,1,136.000002593994,2|0,0:0|0:0,0:0:0:0:
321,149,12344,1,8,0:0:0:0:
397,120,12495,1,0,1:0:0:0:
473,91,12647,6,0,L|455:243,1,136.000002593994,2|8,1:2|0:0,0:0:0:0:
496,297,13101,2,0,B|439:327|381:280|411:277|361:249|297:258|290:295,1,204.000003890991,2|8,0:0|0:0,0:0:0:0:
227,303,13707,1,0,0:0:0:0:
158,257,13859,2,0,L|152:119,1,136.000002593994,2|8,0:0|0:0,0:0:0:0:
111,50,14313,2,0,P|168:27|129:114,1,204.000003890991,2|10,0:0|0:0,0:0:0:0:
71,167,14919,1,0,0:0:0:0:
13,224,15071,6,0,P|45:244|143:202,1,136.000002593994,2|8,1:2|0:0,0:0:0:0:
194,271,15525,2,0,P|226:251|324:293,1,136.000002593994,2|0,0:0|0:0,0:0:0:0:
387,314,15980,2,0,L|382:219,1,68.0000012969971,10|0,0:0|0:0,0:0:0:0:
475,357,16283,2,0,L|468:203,1,136.000002593994,2|8,0:0|0:0,0:0:0:0:
422,153,16738,2,0,P|376:177|296:135,1,136.000002593994,2|0,0:0|0:0,0:0:0:0:
370,37,17192,2,0,L|364:124,1,68.0000012969971,10|0,0:0|1:0,0:0:0:0:
283,13,17495,6,0,L|272:166,1,136.000002593994,2|8,1:2|0:0,0:0:0:0:
264,239,17950,2,0,P|221:235|292:170,1,204.000003890991,2|8,0:0|0:0,0:0:0:0:
315,305,18707,2,0,P|263:323|221:316,2,68.0000012969971,2|0|8,0:0|1:0|0:0,0:0:0:0:
396,325,19162,5,0,1:0:0:0:
418,327,19238,1,0,1:0:0:0:
436,329,19313,1,0,1:0:0:0:
366,254,19465,5,2,1:2:0:0:
460,209,19616,1,0,1:0:0:0:
323,162,19768,1,2,1:2:0:0:
419,118,19919,6,0,B|384:88|384:88|344:80|344:80|304:44,1,136.000002593994,4|10,1:2|0:0,0:0:0:0:
256,112,20374,1,0,0:0:0:0:
204,47,20526,2,0,L|128:52,1,68.0000012969971,2|0,0:0|0:0,0:0:0:0:
256,112,20829,2,0,L|323:107,1,68.0000012969971,10|0,0:0|0:0,0:0:0:0:
456,148,21132,2,0,P|477:191|453:234,1,102.000001945496,2|0,0:0|0:0,0:0:0:0:
453,234,21435,1,8,0:0:0:0:
376,260,21586,2,0,P|340:272|312:260,1,68.0000012969971,2|0,0:0|0:0,0:0:0:0:
313,122,21889,2,0,P|344:111|375:123,1,68.0000012969971,2|8,0:0|0:0,0:0:0:0:
272,192,22192,1,0,1:0:0:0:
272,192,22344,6,0,B|212:192|212:192|208:188|208:188|208:196|208:196|204:192|204:192|144:192,1,136.000002593994,2|8,1:2|0:0,0:0:0:0:
72,224,22798,2,0,B|60:192|60:192|72:160,1,68.0000012969971,2|0,0:0|0:0,0:0:0:0:
100,84,23101,1,2,0:0:0:0:
147,192,23253,2,0,B|159:224|159:224|147:256,1,68.0000012969971,8|0,0:0|0:0,0:0:0:0:
196,348,23556,2,0,B|232:348|256:320|256:320|280:348|316:348,1,136.000002593994,2|8,0:0|0:0,0:0:0:0:
315,347,24010,1,0,0:0:0:0:
183,267,24162,2,0,P|171:236|182:205,1,68.0000012969971,2|0,0:0|0:0,0:0:0:0:
329,205,24465,2,0,P|340:236|328:267,1,68.0000012969971,10|0,0:0|0:0,0:0:0:0:
256,168,24768,6,0,B|284:100|228:100|254:36,1,136.000002593994,2|8,1:2|0:0,0:0:0:0:
182,136,25222,1,0,0:0:0:0:
182,136,25374,2,0,B|155:199|211:199|183:267,1,136.000002593994,2|8,0:0|0:0,0:0:0:0:
112,232,25829,1,0,0:0:0:0:
256,168,25980,2,0,B|292:168|292:168|320:184|320:184|364:184,1,102.000001945496,2|0,0:0|0:0,0:0:0:0:
353,184,26283,1,8,0:0:0:0:
432,204,26435,2,0,P|463:191|494:202,1,68.0000012969971,2|0,0:0|0:0,0:0:0:0:
492,284,26738,2,0,P|460:294|429:282,1,68.0000012969971,2|8,0:0|0:0,0:0:0:0:
353,184,27041,1,0,1:0:0:0:
316,314,27192,6,0,L|358:166,1,136.000002593994,2|8,1:2|0:0,0:0:0:0:
272,164,27647,1,2,0:0:0:0:
353,183,27798,2,0,P|363:151|351:120,1,68.0000012969971,0|2,0:0|1:2,0:0:0:0:
272,164,28101,2,0,P|259:195|270:226,1,68.0000012969971,8|0,0:0|1:0,0:0:0:0:
429,282,28404,5,10,0:0:0:0:
429,122,28556,1,0,1:0:0:0:
334,251,28707,1,10,0:0:0:0:
485,202,28859,1,8,0:0:0:0:
485,202,28935,1,8,0:0:0:0:
485,202,29010,1,10,0:0:0:0:
334,153,29162,1,0,1:0:0:0:
420,349,29313,2,0,L|429:282,1,68.0000012969971,2|0,1:2|1:0,0:0:0:0:
334,251,29616,6,0,B|281:229|264:258|235:279|176:247,1,150.000005722046,6|0,1:2|0:0,0:0:0:0:
177,273,30071,2,0,P|150:251|222:187,1,150.000005722046,2|0,1:2|0:0,0:0:0:0:
228,190,30526,2,0,P|255:168|181:104,1,150.000005722046,2|0,1:2|0:0,0:0:0:0:
188,81,30980,1,2,1:2:0:0:
402,51,31435,1,0,1:0:0:0:
395,122,31586,1,0,1:0:0:0:
384,194,31738,2,0,L|377:256,1,60.0000022888184,10|0,0:0|0:0,0:0:0:0:
402,321,32041,5,4,1:2:0:0:
402,321,32192,2,0,P|373:327|345:318,1,60.0000022888184,2|0,0:0|0:0,0:0:0:0:
278,258,32495,1,2,1:2:0:0:
248,318,32647,1,0,0:0:0:0:
215,380,32798,2,0,P|189:366|155:364,1,60.0000022888184,2|0,0:0|0:0,0:0:0:0:
84,318,33101,2,0,L|78:190,1,120.000004577637,2|0,0:0|1:0,0:0:0:0:
67,126,33556,2,0,P|115:135|138:160,1,60.0000022888184,2|0,0:0|0:0,0:0:0:0:
185,104,33859,2,0,P|196:153|190:172,1,60.0000022888184,2|0,1:2|1:0,0:0:0:0:
215,239,34162,2,0,P|264:199|268:182,1,60.0000022888184,10|0,0:0|0:0,0:0:0:0:
155,297,34465,6,0,P|202:323|271:305,1,120.000004577637,4|0,1:2|0:0,0:0:0:0:
343,349,34919,2,0,L|336:202,1,120.000004577637,2|0,0:0|0:0,0:0:0:0:
421,269,35374,2,0,L|414:122,1,120.000004577637,2|0,1:2|0:0,0:0:0:0:
423,77,35829,1,0,1:0:0:0:
423,77,35980,2,0,P|378:86|357:109,1,60.0000022888184,2|0,0:0|0:0,0:0:0:0:
317,43,36283,2,0,P|272:34|251:11,1,60.0000022888184,2|0,1:2|1:0,0:0:0:0:
191,8,36586,2,0,L|200:74,1,60.0000022888184,10|0,0:0|0:0,0:0:0:0:
140,109,36889,5,4,1:2:0:0:
75,77,37041,1,0,0:0:0:0:
28,131,37192,2,0,L|39:202,1,60.0000022888184,2|0,0:0|1:0,0:0:0:0:
77,249,37495,2,0,P|44:263|2:253,2,60.0000022888184,2|0|2,0:0|0:0|1:2,0:0:0:0:
123,305,37950,1,0,0:0:0:0:
123,305,38101,2,0,P|179:314|201:330,1,60.0000022888184,0|8,1:2|0:0,0:0:0:0:
220,375,38404,1,14,1:2:0:0:
294,345,38556,5,2,0:0:0:0:
294,345,38632,1,8,0:0:0:0:
294,345,38707,2,0,P|298:298|292:269,1,60.0000022888184,8|0,0:0|1:0,0:0:0:0:
240,239,39010,2,2,L|200:251,2,30.0000011444092
305,184,39313,5,4,1:2:0:0:
364,128,39465,2,0,P|395:117|426:129,1,68.0000012969971,2|0,0:0|0:0,0:0:0:0:
476,192,39768,1,2,1:2:0:0:
424,255,39919,2,0,P|392:268|361:257,1,68.0000012969971,8|0,0:0|0:0,0:0:0:0:
305,184,40222,1,2,1:2:0:0:
240,232,40374,1,0,1:0:0:0:
292,296,40525,6,0,P|264:332|188:332,1,102.000001945496,2|0,0:0|0:0,0:0:0:0:
210,341,40829,1,2,0:0:0:0:
164,272,40980,2,0,L|80:264,1,68.0000012969971,0|8,1:0|0:0,0:0:0:0:
240,232,41283,1,2,0:0:0:0:
240,232,41435,2,0,L|324:224,1,68.0000012969971,0|0,1:0|0:0,0:0:0:0:
388,216,41738,5,0,1:2:0:0:
288,112,41889,2,0,B|256:100|256:100|224:112,1,68.0000012969971,2|0,0:0|0:0,0:0:0:0:
224,111,42192,1,2,1:2:0:0:
192,36,42344,2,0,L|268:12,1,68.0000012969971,8|0,0:0|0:0,0:0:0:0:
352,91,42647,2,0,L|276:115,1,68.0000012969971,2|0,1:2|1:0,0:0:0:0:
136,176,42950,5,2,0:0:0:0:
160,256,43101,1,8,0:0:0:0:
240,232,43253,1,0,0:0:0:0:
216,152,43404,1,2,1:2:0:0:
136,176,43556,2,0,P|104:187|73:177,1,68.0000012969971,0|0,1:0|1:0,0:0:0:0:
72,96,43859,2,0,P|103:85|134:97,1,68.0000012969971,8|2,0:0|0:0,0:0:0:0:
255,256,44162,6,0,P|207:240|159:255,1,102.000001945496,4|0,1:2|0:0,0:0:0:0:
208,312,44465,1,8,0:0:0:0:
40,176,44616,6,0,P|87:160|135:175,1,102.000001945496,4|0,1:2|0:0,0:0:0:0:
87,232,44919,1,8,0:0:0:0:
255,256,45071,6,0,B|335:284|335:284|415:256,1,170.000003242493,4|0,1:2|0:0,0:0:0:0:
452,240,45525,5,8,0:0:0:0:
452,240,45601,1,8,0:0:0:0:
452,240,45677,1,8,0:0:0:0:
336,192,45829,1,8,0:0:0:0:
380,80,45980,1,0,1:0:0:0:
500,128,46132,1,2,1:2:0:0:
336,192,46283,2,0,L|256:160,1,68.0000012969971,0|0,1:0|1:0,0:0:0:0:
111,136,46586,6,0,P|92:192|112:248,1,120,6|0,1:2|0:0,0:0:0:0:
136,268,46889,5,8,0:0:0:0:
158,288,46964,1,8,0:0:0:0:
183,303,47040,1,8,0:0:0:0:
211,314,47116,1,8,0:0:0:0:
241,319,47192,1,8,0:0:0:0:
271,318,47267,1,8,0:0:0:0:
300,311,47343,1,8,0:0:0:0:
327,299,47419,1,8,0:0:0:0:
352,282,47495,1,8,0:0:0:0:
328,136,47647,6,0,B|280:136|256:108|256:108|232:136|184:136,1,160,4|0,1:2|1:0,0:0:0:0:
332,40,48101,1,8,0:0:0:0:
332,40,48859,6,0,L|324:208,1,132.00000402832,4|0,1:2|0:0,0:0:0:0:
325,171,49162,1,2,0:0:0:0:
318,276,49313,2,0,P|269:306|252:234,1,132.00000402832,8|0,0:0|0:0,0:0:0:0:
215,266,49616,2,0,P|186:228|119:279,1,132.00000402832,2|0,1:2|0:0,0:0:0:0:
120,259,49919,1,8,0:0:0:0:
39,358,50071,6,0,L|138:366,1,88.000002685547,2|0,0:0|1:0,0:0:0:0:
120,259,50374,2,0,L|21:251,1,88.000002685547,2|8,0:0|0:0,0:0:0:0:
6,149,50677,2,0,P|2:96|87:60,1,132.00000402832,2|0,0:0|0:0,0:0:0:0:
61,54,50980,1,0,0:0:0:0:
151,151,51132,1,8,0:0:0:0:
252,122,51283,6,0,L|249:15,1,88.000002685547,2|0,0:0|1:0,0:0:0:0:
353,51,51586,2,0,L|355:138,1,88.000002685547,2|8,0:0|0:0,0:0:0:0:
423,219,51889,1,0,0:0:0:0:
423,219,52041,2,0,P|374:224|325:335,1,176.000005371094,2|8,1:2|0:0,0:0:0:0:
231,275,52495,6,0,P|181:305|78:240,1,176.000005371094,2|2,0:0|0:0,0:0:0:0:
167,191,52950,1,8,0:0:0:0:
231,275,53101,1,0,0:0:0:0:
344,204,53253,2,0,L|245:201,2,88.000002685547,2|0|8,1:2|0:0|0:0,0:0:0:0:
476,160,53707,6,0,P|493:111|410:143,1,176.000005371094,6|0,1:2|0:0,0:0:0:0:
344,204,54162,2,0,P|361:254|354:297,1,88.000002685547,10|0,0:0|0:0,0:0:0:0:
254,261,54465,2,0,P|220:308|137:310,1,132.00000402832,0|0,1:0|0:0,0:0:0:0:
150,316,54768,1,8,0:0:0:0:
24,272,54919,6,0,L|33:384,1,88.000002685547,6|0,1:2|0:0,0:0:0:0:
180,237,55222,2,0,L|172:149,1,88.000002685547,2|8,1:2|0:0,0:0:0:0:
52,278,55525,6,0,L|61:390,1,88.000002685547,6|0,1:2|0:0,0:0:0:0:
197,246,55829,2,0,L|189:158,1,88.000002685547,2|8,1:2|0:0,0:0:0:0:
116,64,56132,6,0,B|97:61|89:34|89:34|86:58|57:77,1,88.000002685547,6|0,1:2|0:0,0:0:0:0:
12,164,56435,2,0,P|59:182|113:153,1,88.000002685547,0|8,1:0|0:0,0:0:0:0:
196,144,56738,2,0,P|246:118|303:143,1,88.000002685547,2|8,1:2|0:0,0:0:0:0:
380,96,57041,2,0,L|389:183,1,88.000002685547,2|8,1:2|0:0,0:0:0:0:
435,335,57344,2,0,P|376:343|310:277,1,132.00000402832,6|0,1:2|0:0,0:0:0:0:
279,253,57647,5,2,0:0:0:0:
282,285,57722,1,2,0:0:0:0:
285,318,57798,1,10,0:0:0:0:
288,351,57874,1,2,0:0:0:0:
291,384,57950,1,2,1:2:0:0:
190,318,58101,6,2,L|115:325,2,44.0000013427735,10|2|2,0:0|0:0|0:0,0:0:0:0:
166,214,58404,2,0,L|170:162,1,44.0000013427735,8|0,0:0|0:0,0:0:0:0:
196,88,58556,6,0,B|256:60|256:60|316:88,1,132.00000402832,6|0,1:2|0:0,0:0:0:0:
315,87,58859,1,2,0:0:0:0:
400,152,59010,2,0,P|415:191|399:231,1,88.000002685547,8|0,0:0|0:0,0:0:0:0:
292,311,59313,2,0,P|276:271|292:232,1,88.000002685547,2|0,1:2|0:0,0:0:0:0:
400,152,59616,1,8,0:0:0:0:
291,232,59768,6,0,L|135:208,1,132.00000402832,2|0,0:0|0:0,0:0:0:0:
112,156,60071,1,2,0:0:0:0:
12,192,60222,2,0,P|-3:231|12:271,1,88.000002685547,8|0,0:0|0:0,0:0:0:0:
120,351,60525,2,0,P|135:311|120:272,1,88.000002685547,2|0,1:2|0:0,0:0:0:0:
112,156,60829,1,8,0:0:0:0:
236,284,60980,6,0,P|291:313|349:280,1,132.00000402832,2|0,0:0|0:0,0:0:0:0:
291,232,61283,1,2,0:0:0:0:
256,132,61435,2,0,B|236:93|236:93|256:53,1,88.000002685547,8|0,0:0|0:0,0:0:0:0:
364,56,61738,2,0,B|384:96|384:96|364:134,1,88.000002685547,2|0,1:2|0:0,0:0:0:0:
291,232,62041,1,8,0:0:0:0:
140,192,62192,6,0,B|108:192|84:160|84:160|60:192|28:192,1,132.00000402832,2|0,0:0|0:0,0:0:0:0:
30,191,62495,1,2,0:0:0:0:
156,124,62647,2,0,L|204:40,1,88.000002685547,8|0,0:0|0:0,0:0:0:0:
256,136,62950,2,0,L|256:232,1,88.000002685547,0|0,1:0|0:0,0:0:0:0:
356,124,63253,2,0,L|308:40,1,88.000002685547,8|2,0:0|0:0,0:0:0:0:
156,124,63556,5,4,1:2:0:0:
14,78,63707,1,2,0:0:0:0:
156,32,63859,1,8,0:0:0:0:
69,153,64010,1,0,0:0:0:0:
69,3,64162,1,2,1:2:0:0:
69,3,64313,1,0,0:0:0:0:
156,124,64465,2,0,B|194:144|194:144|234:124,1,88.000002685547,14|0,0:0|0:0,0:0:0:0:
332,80,64768,5,2,1:2:0:0:
234,123,64919,1,0,0:0:0:0:
392,36,65071,2,0,P|407:75|392:115,1,88.000002685547,8|2,0:0|0:0,0:0:0:0:
232,203,65374,2,0,P|217:164|232:124,1,88.000002685547,4|0,1:2|0:0,0:0:0:0:
332,80,65677,1,8,0:0:0:0:
375,201,65829,6,0,P|303:245|231:201,1,176.000005371094,6|0,1:2|1:0,0:0:0:0:
256,100,66283,1,10,0:0:0:0:
412,60,66435,1,0,0:0:0:0:
375,201,66586,1,2,1:2:0:0:
256,100,66738,2,0,P|239:60|254:19,1,88.000002685547,0|8,0:0|0:0,0:0:0:0:
375,201,67041,1,2,0:0:0:0:
296,268,67192,6,0,B|256:288|256:288|218:268,1,88.000002685547,2|0,1:2|0:0,0:0:0:0:
196,124,67495,2,0,B|256:96|256:96|316:124,1,132.00000402832,10|0,0:0|0:0,0:0:0:0:
315,123,67798,1,2,1:2:0:0:
256,212,67950,1,0,1:0:0:0:
256,212,68025,1,0,1:0:0:0:
256,212,68101,1,10,1:2:0:0:
196,300,68253,6,0,B|256:328|256:328|316:300,1,132.00000402832,6|0,1:2|0:0,0:0:0:0:
315,300,68556,1,2,1:2:0:0:
256,212,68707,2,0,L|256:113,1,88.000002685547,8|0,0:0|1:0,0:0:0:0:
355,87,69010,2,0,L|355:201,1,88.000002685547,8|0,0:0|1:0,0:0:0:0:
256,212,69313,1,2,1:2:0:0:
157,87,69465,6,0,L|157:201,1,88.000002685547,4|0,1:2|0:0,0:0:0:0:
82,249,69768,1,2,1:2:0:0:
179,289,69919,1,8,0:0:0:0:
84,332,70071,1,2,1:2:0:0:
84,332,70222,2,0,P|71:283|95:230,1,88.000002685547,8|2,0:0|1:2,0:0:0:0:
179,289,70525,1,8,0:0:0:0:
266,352,70677,6,0,P|287:292|246:209,1,132.00000402832,6|0,1:2|0:0,0:0:0:0:
266,229,70980,2,0,P|331:249|369:233,2,88.000002685547,0|10|0,1:0|0:0|1:0,0:0:0:0:
324,140,71435,2,0,L|333:41,1,88.000002685547,10|0,0:0|0:0,0:0:0:0:
422,28,71738,2,0,B|439:65|489:78|489:78|441:98|413:131,1,176.000005371094,14|0,0:0|0:0,0:0:0:0:
331,52,72192,1,2,1:2:0:0:
229,130,72344,6,2,P|191:144|157:138,3,44.0000013427735,10|2|2|2,1:2|1:2|1:2|1:2,1:2:0:0:
144,200,72647,5,10,1:2:0:0:
122,202,72722,1,2,1:2:0:0:
100,198,72798,1,2,1:2:0:0:
81,188,72874,1,2,1:2:0:0:
65,173,72950,1,10,1:2:0:0:
188,144,73101,1,2,0:0:0:0:
267,213,73253,6,0,L|260:312,1,88.000002685547,0|0,1:0|0:0,0:0:0:0:
347,360,73556,1,0,1:0:0:0:
347,360,73707,1,2,0:0:0:0:
448,291,73859,6,0,P|398:273|353:282,1,88.000002685547,0|0,1:0|0:0,0:0:0:0:
261,300,74162,1,0,1:0:0:0:
261,300,74313,1,2,1:2:0:0:
94,249,74465,6,0,P|137:253|177:234,1,88.000002685547,0|0,1:2|1:0,0:0:0:0:
261,300,74768,1,0,1:0:0:0:
261,300,74919,1,2,0:0:0:0:
333,222,75071,6,0,L|347:136,1,88.000002685547,0|8,1:0|0:0,0:0:0:0:
274,58,75374,1,8,1:2:0:0:
274,58,75525,1,10,1:2:0:0:
172,130,75677,6,0,P|114:141|43:101,1,132.00000402832,4|0,1:2|0:0,0:0:0:0:
50,109,75980,2,0,L|66:36,2,44.0000013427735,0|0|2,1:0|1:0|1:2,1:0:0:0:
172,130,76283,2,0,L|179:192,2,44.0000013427735,0|0|0,1:0|1:0|1:0,1:0:0:0:
286,105,76586,2,0,L|301:31,2,44.0000013427735,2|0|0,1:2|1:0|1:0,1:0:0:0:
373,165,76889,6,8,L|428:161,3,44.0000013427735,10|8|8|8,0:0|0:0|0:0|0:0,0:0:0:0:
298,229,77192,2,8,L|228:226,3,44.0000013427735,10|8|8|8,0:0|0:0|0:0|0:0,0:0:0:0:
382,331,77495,5,8,0:0:0:0:
356,337,77570,1,8,0:0:0:0:
330,338,77646,1,8,0:0:0:0:
304,332,77722,1,8,0:0:0:0:
280,322,77798,1,8,0:0:0:0:
254,317,77873,1,8,0:0:0:0:
228,318,77949,1,8,0:0:0:0:
119,350,78101,6,0,L|79:200,1,132.00000402832,4|0,1:2|0:0,0:0:0:0:
84,222,78404,1,8,0:0:0:0:
16,103,78556,2,0,P|68:82|88:169,1,132.00000402832,6|0,1:2|0:0,0:0:0:0:
107,135,78859,1,8,0:0:0:0:
193,245,79010,2,0,P|223:188|228:113,1,132.00000402832,4|0,1:2|0:0,0:0:0:0:
229,121,79313,1,8,0:0:0:0:
319,230,79465,2,0,B|348:200|397:188|397:188|348:182|310:121,1,176.000005371094,4|0,1:2|1:0,0:0:0:0:
438,127,79919,6,0,P|470:160|453:227,1,88.000002685547,8|0,0:0|1:0,0:0:0:0:
325,143,80222,2,0,P|334:92|388:56,1,88.000002685547,8|0,0:0|0:0,0:0:0:0:
471,200,80525,6,0,P|486:235|470:271,1,80,6|0,1:2|0:0,0:0:0:0:
400,324,80829,1,8,0:0:0:0:
456,160,80980,6,0,P|471:195|455:231,1,80,2|0,1:2|0:0,0:0:0:0:
385,284,81284,1,8,0:0:0:0:
438,127,81435,6,0,B|394:127|370:163|370:163|346:127|302:127,1,160,2|8,1:2|0:0,0:0:0:0:
209,127,81889,1,0,1:0:0:0:
256,52,82041,2,0,L|340:20,1,80,0|8,0:0|0:0,0:0:0:0:
209,127,82344,2,0,L|125:159,1,80,0|2,1:0|1:2,1:0:0:0:
56,196,82647,1,8,0:0:0:0:
24,116,82798,1,0,0:0:0:0:
104,80,82950,6,0,L|188:48,1,80,2|0,1:2|0:0,0:0:0:0:
256,96,83253,1,8,0:0:0:0:
408,80,83404,6,0,L|324:48,1,80,2|0,1:2|0:0,0:0:0:0:
256,96,83707,1,8,0:0:0:0:
256,184,83859,6,0,B|228:259|292:259|260:338,1,160,2|8,1:2|0:0,0:0:0:0:
180,304,84313,1,0,1:0:0:0:
336,220,84465,2,0,P|371:204|407:219,1,80,0|8,0:0|0:0,0:0:0:0:
331,337,84768,2,0,P|295:352|259:337,1,80,0|2,1:0|1:2,0:0:0:0:
180,304,85071,1,8,0:0:0:0:
212,220,85222,1,0,0:0:0:0:
292,256,85374,6,0,P|327:240|363:256,1,80,6|0,1:2|0:0,0:0:0:0:
424,192,85677,1,8,0:0:0:0:
252,240,85829,6,0,P|287:224|323:240,1,80,6|0,1:2|0:0,0:0:0:0:
384,176,86132,1,8,0:0:0:0:
212,220,86283,6,0,B|232:164|232:164|268:140|268:140|300:76,1,160,6|8,1:2|0:0,0:0:0:0:
384,176,86738,2,0,B|368:216|368:216|336:240|336:240|300:304,1,120,6|0,1:2|0:0,0:0:0:0:
296,312,87041,1,0,1:0:0:0:
164,336,87192,1,0,1:0:0:0:
212,220,87344,2,0,P|196:184|211:148,1,80,2|0,1:2|1:0,1:0:0:0:
328,76,87647,6,0,B|382:52|382:52|438:76,1,120,4|0,1:2|0:0,0:0:0:0:
448,120,87950,1,8,0:0:0:0:
448,281,88101,1,8,0:0:0:0:
352,150,88253,1,2,1:2:0:0:
506,200,88404,1,0,1:0:0:0:
352,250,88556,1,2,1:2:0:0:
448,120,88707,1,0,1:0:0:0:
448,281,88859,1,2,1:2:0:0:
256,192,89162,5,2,1:2:0:0:
256,192,89238,1,2,0:0:0:0:
256,192,89313,2,0,B|181:164|181:228|102:196,1,160,14|0,0:0|1:0,0:0:0:0:
140,116,89768,1,8,0:0:0:0:
140,116,89844,1,8,0:0:0:0:
140,116,89919,1,8,0:0:0:0:
224,276,90071,6,0,B|277:280|306:320|289:343|364:344|364:344|408:298|377:248,1,240,4|8,1:2|0:0,0:0:0:0:
312,216,90677,1,0,0:0:0:0:
430,212,90829,2,0,L|455:111,1,80,2|0,1:2|0:0,0:0:0:0:
470,48,91132,1,8,0:0:0:0:
449,134,91283,6,0,B|392:156|349:124|374:120|305:78|247:124,1,200,2|0,0:0|0:0,0:0:0:0:
259,115,91738,1,8,0:0:0:0:
308,196,91889,1,0,0:0:0:0:
224,32,92041,1,2,1:2:0:0:
172,144,92192,1,0,0:0:0:0:
259,115,92344,1,8,0:0:0:0:
145,74,92495,6,0,P|106:109|138:206,1,160,2|0,0:0|0:0,0:0:0:0:
73,283,92950,1,8,0:0:0:0:
73,283,93101,2,0,B|121:271|158:293|136:305|191:323|250:288,1,160,2|0,0:0|0:0,0:0:0:0:
308,348,93556,1,8,0:0:0:0:
308,348,93707,6,0,B|318:286|318:286|299:262|299:262|314:188,1,160,2|0,0:0|0:0,0:0:0:0:
236,140,94162,2,0,L|217:229,1,80,10|0,0:0|0:0,0:0:0:0:
392,244,94465,2,0,L|407:157,1,80,0|0,1:0|0:0,0:0:0:0:
312,196,94768,1,8,0:0:0:0:
181,92,94919,6,0,P|218:67|309:127,1,160,4|0,1:2|1:0,0:0:0:0:
400,70,95374,1,8,0:0:0:0:
307,118,95525,1,0,1:0:0:0:
181,92,95677,2,0,L|204:176,1,80,10|0,0:0|0:0,0:0:0:0:
129,305,95980,2,0,P|132:258|199:277,1,120,4|0,1:2|0:0,0:0:0:0:
249,327,96283,5,0,1:0:0:0:
273,324,96358,1,0,1:0:0:0:
298,322,96434,1,0,1:0:0:0:
323,320,96510,1,0,1:0:0:0:
348,319,96586,2,0,L|341:366,2,40,8|0|0,1:2|1:0|1:0,1:0:0:0:
440,352,96889,5,2,1:2:0:0:
322,246,97041,1,0,0:0:0:0:
452,280,97192,1,8,0:0:0:0:
297,181,97344,6,0,B|261:181|233:157|233:157|165:157,1,120.000004577637,4|0,1:2|0:0,0:0:0:0:
164,88,97798,2,0,P|196:88|228:72,1,60.0000022888184,2|0,0:0|0:0,0:0:0:0:
290,77,98101,2,0,P|318:88|348:88,1,60.0000022888184,2|0,0:0|0:0,0:0:0:0:
388,148,98404,1,2,0:0:0:0:
388,148,98556,1,8,0:0:0:0:
428,208,98707,2,0,L|403:325,1,120.000004577637,2|0,0:0|0:0,0:0:0:0:
331,337,99162,1,2,0:0:0:0:
331,337,99313,2,0,L|356:220,1,120.000004577637,8|0,0:0|0:0,0:0:0:0:
308,112,99768,1,0,0:0:0:0:
308,112,99919,6,0,P|256:84|204:112,1,120.000004577637,2|0,1:2|0:0,0:0:0:0:
204,180,100374,2,0,P|256:208|308:180,1,120.000004577637,10|0,0:0|0:0,0:0:0:0:
376,192,100829,2,0,P|424:192|480:248,1,120.000004577637,10|0,0:0|0:0,0:0:0:0:
448,304,101283,2,0,P|400:304|344:248,1,120.000004577637,10|0,0:0|0:0,0:0:0:0:
284,224,101738,2,0,B|256:212|256:212|228:224,1,60.0000022888184,10|0,0:0|0:0,0:0:0:0:
228,296,102041,2,0,B|256:308|256:308|284:296,1,60.0000022888184,2|0,0:0|0:0,0:0:0:0:
347,258,102344,6,0,B|347:226|367:202|367:202|347:178|347:146,1,120.000004577637,2|0,1:2|0:0,0:0:0:0:
310,85,102798,2,0,B|279:84|255:104|255:104|231:84|199:84,1,120.000004577637,10|0,0:0|0:0,0:0:0:0:
164,147,103253,2,0,L|120:236,1,90.0000034332277,10|0,0:0|0:0,0:0:0:0:
108,260,103556,1,2,0:0:0:0:
56,308,103707,2,0,P|108:336|160:308,1,120.000004577637,8|2,0:0|0:0,0:0:0:0:
228,288,104162,2,0,P|256:278|284:287,1,60.0000022888184,8|0,0:0|0:0,0:0:0:0:
410,310,104465,2,0,P|381:319|353:309,1,60.0000022888184,2|0,0:0|0:0,0:0:0:0:
384,248,104692,1,2,0:0:0:0:
384,248,104768,6,0,B|384:196|384:196|388:192|388:192|380:192|380:192|384:188|384:188|384:136,1,120.000004577637,2|0,1:2|0:0,0:0:0:0:
312,124,105222,2,0,B|256:100|256:100|200:124,1,120.000004577637,10|0,0:0|0:0,0:0:0:0:
128,139,105677,2,0,B|128:188|128:188|132:192|132:192|124:192|124:192|128:196|128:196|128:248,1,120.000004577637,10|0,0:0|0:0,0:0:0:0:
200,260,106132,2,0,P|252:260|300:220,1,90.0000034332277,10|0,0:0|0:0,0:0:0:0:
316,220,106435,1,8,0:0:0:0:
383,119,106586,1,8,0:0:0:0:
283,51,106738,1,0,1:0:0:0:
215,152,106889,1,2,0:0:0:0:
316,220,107041,1,2,1:2:0:0:
383,119,107192,6,0,P|441:130|484:183,1,120.000004577637,4|2,1:2|0:0,0:0:0:0:
447,238,107647,1,0,1:0:0:0:
504,280,107798,2,0,P|465:307|431:307,1,60.0000022888184,2|0,0:0|0:0,0:0:0:0:
392,346,108101,2,0,P|353:327|309:327,1,60.0000022888184,2|0,1:2|0:0,0:0:0:0:
266,339,108404,1,2,0:0:0:0:
266,339,108556,2,0,B|267:287|267:287|284:272|284:272|282:203,1,120.000004577637,0|0,1:0|1:0,0:0:0:0:
226,182,109010,1,0,1:2:0:0:
164,219,109162,1,2,1:2:0:0:
67,174,109313,2,0,L|58:114,1,60.0000022888184,8|0,0:0|0:0,0:0:0:0:
87,38,109616,6,0,P|123:50|151:130,1,120.000004577637,6|0,1:2|0:0,0:0:0:0:
164,219,110071,2,0,P|131:231|103:311,1,120.000004577637,2|0,0:0|0:0,0:0:0:0:
175,370,110525,2,0,B|221:365|221:365|242:353|242:353|294:349,1,120.000004577637,2|0,1:2|0:0,0:0:0:0:
373,296,110980,2,0,B|403:309|416:338|416:338|426:309|469:295,1,120.000004577637,2|0,1:2|0:0,0:0:0:0:
485,232,111435,1,2,1:2:0:0:
379,158,111586,1,0,1:0:0:0:
343,229,111738,1,10,1:2:0:0:
456,160,111889,1,0,1:0:0:0:
373,296,112041,6,0,B|315:310|315:310|254:293,1,120.000004577637,6|0,1:2|0:0,0:0:0:0:
203,342,112495,1,0,1:2:0:0:
203,342,112647,2,0,P|186:298|217:230,1,120.000004577637,2|0,0:0|1:0,0:0:0:0:
272,193,113101,1,0,0:0:0:0:
272,193,113253,2,0,P|289:149|258:81,1,120.000004577637,2|0,0:0|0:0,0:0:0:0:
203,44,113707,2,0,B|153:74|153:74|89:38,1,120.000004577637,2|0,0:0|1:0,0:0:0:0:
25,21,114162,2,0,L|34:90,1,60.0000022888184,8|0,0:0|0:0,0:0:0:0:
6,147,114465,6,0,P|36:160|71:252,1,120.000004577637,6|8,1:2|0:0,0:0:0:0:
146,208,114919,2,0,P|149:263|114:342,1,120.000004577637,2|0,1:2|1:0,0:0:0:0:
56,357,115374,2,0,L|-3:351,1,60.0000022888184,0|0,0:0|1:0,0:0:0:0:
127,323,115677,5,2,1:2:0:0:
196,357,115829,1,8,0:0:0:0:
265,323,115980,1,0,1:0:0:0:
331,281,116132,5,0,1:0:0:0:
331,281,116207,1,0,0:0:0:0:
331,281,116283,2,0,P|344:331|336:358,1,60.0000022888184,10|0,0:0|1:0,0:0:0:0:
192,280,116586,2,0,P|188:250|196:221,1,60.0000022888184,2|0,1:2|1:0,1:0:0:0:
308,96,116889,6,0,P|256:70|204:96,1,120.000004577637,6|0,1:2|1:0,0:0:0:0:
256,144,117344,1,0,0:0:0:0:
308,96,117495,2,0,L|352:28,1,60.0000022888184,2|0,1:2|0:0,0:0:0:0:
400,88,117798,2,0,L|356:156,1,60.0000022888184,0|0,1:0|1:0,1:0:0:0:
324,196,118101,5,2,1:2:0:0:
324,196,118253,1,0,0:0:0:0:
284,256,118404,2,0,P|256:268|228:256,1,60.0000022888184,0|0,1:2|0:0,0:0:0:0:
188,196,118707,1,2,1:2:0:0:
188,196,118859,1,0,0:0:0:0:
228,136,119010,2,0,P|255:125|282:137,1,60.0000022888184,2|0,1:2|0:0,0:0:0:0:
324,196,119313,6,0,P|372:196|424:252,1,120.000004577637,6|0,1:2|0:0,0:0:0:0:
421,243,119768,1,2,0:0:0:0:
352,264,119919,2,0,L|312:328,1,60.0000022888184,0|2,1:0|1:2,0:0:0:0:
256,280,120222,2,0,L|256:216,1,60.0000022888184,0|2,1:0|0:0,0:0:0:0:
191,314,120525,5,0,1:0:0:0:
191,314,120677,1,2,0:0:0:0:
320,314,120829,2,0,L|352:264,1,60.0000022888184,0|0,1:0|0:0,0:0:0:0:
396,204,121132,1,2,1:2:0:0:
396,204,121283,1,0,0:0:0:0:
356,144,121435,2,0,P|324:144|292:120,1,60.0000022888184,2|0,1:2|0:0,0:0:0:0:
256,72,121738,6,0,B|220:72|220:72|180:84|180:84|120:84,1,120.000004577637,6|0,1:2|1:0,0:0:0:0:
84,132,122192,2,0,B|84:174|84:174|72:214|72:214|72:250,1,120.000004577637,10|2,0:0|0:0,0:0:0:0:
132,288,122647,2,0,P|176:288|220:324,1,90.0000034332277,8|0,0:0|0:0,0:0:0:0:
256,344,122950,6,0,L|316:288,1,60.0000022888184,2|8,1:2|0:0,0:0:0:0:
356,260,123253,1,2,1:2:0:0:
280,172,123404,1,8,0:0:0:0:
280,172,123480,1,8,0:0:0:0:
280,172,123556,2,0,L|236:212,1,60.0000022888184,10|0,0:0|1:0,0:0:0:0:
132,288,123859,1,2,1:2:0:0:
256,344,124010,1,0,1:0:0:0:
236,212,124162,5,4,1:2:0:0:
192,144,124313,2,0,P|180:112|192:80,1,68.0000012969971,2|0,0:0|1:0,0:0:0:0:
256,28,124616,1,12,0:0:0:0:
321,81,124768,2,0,P|331:112|320:144,1,68.0000012969971,2|0,1:2|0:0,0:0:0:0:
236,212,125071,1,12,0:0:0:0:
232,292,125222,6,0,B|276:292|300:268|300:268|372:268,1,136.000002593994,2|8,0:0|0:0,0:0:0:0:
444,252,125677,1,2,1:2:0:0:
444,132,125829,1,8,0:0:0:0:
444,132,125904,1,8,0:0:0:0:
444,132,125980,2,0,B|408:132|408:132|380:156,1,68.0000012969971,10|0,0:0|1:0,0:0:0:0:
301,288,126283,2,0,B|337:288|337:288|365:264,1,68.0000012969971,12|0,0:0|0:0,0:0:0:0:
315,100,126586,6,0,B|293:140|313:197|313:197|271:159|205:171,1,204.000003890991,4|0,1:2|1:0,0:0:0:0:
143,131,127192,2,0,P|135:181|152:221,1,68.0000012969971,8|2,0:0|0:0,0:0:0:0:
57,198,127495,2,0,P|70:243|94:272,1,68.0000012969971,0|0,1:0|1:2,0:0:0:0:
133,333,127798,2,0,P|101:350|61:350,2,68.0000012969971,2|8|0,0:0|0:0|0:0,0:0:0:0:
179,265,128253,2,0,B|206:287|206:287|223:345,1,68.0000012969971,2|8,1:2|0:0,0:0:0:0:
286,359,128556,2,0,B|294:326|294:326|323:305,1,68.0000012969971,2|0,1:2|0:0,0:0:0:0:
400,327,128859,6,0,P|401:281|334:228,1,136.000002593994,10|0,0:0|0:0,0:0:0:0:
259,256,129313,1,2,0:0:0:0:
265,174,129465,1,0,1:0:0:0:
202,110,129616,2,0,L|211:32,1,68.0000012969971,10|0,0:0|0:0,0:0:0:0:
301,40,129919,2,0,L|308:107,1,68.0000012969971,2|0,1:2|1:0,0:0:0:0:
320,188,130222,2,0,B|284:189|257:166|257:166|230:189|194:189,1,136.000002593994,2|0,0:0|0:0,0:0:0:0:
222,266,130677,1,2,1:2:0:0:
222,266,130829,2,0,L|322:266,1,68.0000012969971,0|0,1:0|1:0,0:0:0:0:
304,346,131132,2,0,B|276:345|255:362|255:362|234:345|206:345,1,102.000001945496,8|0,0:0|0:0,0:0:0:0:
194,358,131435,6,0,P|158:346|101:346,1,68.0000012969971,6|0,1:2|0:0,0:0:0:0:
37,276,131738,1,8,0:0:0:0:
120,187,131889,2,0,L|113:265,1,68.0000012969971,6|0,1:2|0:0,0:0:0:0:
37,276,132192,1,8,0:0:0:0:
120,187,132344,2,0,L|128:115,1,68.0000012969971,2|0,1:2|0:0,0:0:0:0:
134,37,132647,1,0,1:0:0:0:
200,84,132798,1,0,0:0:0:0:
265,133,132950,5,0,1:0:0:0:
265,133,133026,1,0,1:0:0:0:
265,133,133101,1,0,1:0:0:0:
351,105,133253,1,0,1:0:0:0:
265,223,133405,1,2,1:2:0:0:
403,178,133556,1,0,1:0:0:0:
351,251,133707,1,2,1:2:0:0:
395,319,133859,6,0,P|351:335|294:306,1,102.000001945496,4|0,1:2|0:0,0:0:0:0:
301,315,134162,2,8,L|321:373,3,34.0000006484985,8|8|10|8,0:0|0:0|0:0|0:0,0:0:0:0:
225,308,134465,2,8,L|244:365,3,34.0000006484985
150,325,134768,1,10,0:0:0:0:
124,322,134843,1,8,0:0:0:0:
99,319,134919,6,0,L|72:174,1,136.000002593994,6|0,1:2|1:0,0:0:0:0:
42,110,135374,1,12,0:0:0:0:
123,119,135526,1,0,0:0:0:0:
199,42,135677,5,2,1:2:0:0:
279,28,135829,1,0,1:0:0:0:
371,124,135980,1,10,1:2:0:0:
448,96,136132,6,0,B|460:152|424:184|424:184|408:272,1,176.000005371094,4|0,1:2|0:0,0:0:0:0:
296,328,136586,2,0,B|256:348|256:348|216:328,1,88.000002685547,10|0,0:0|0:0,0:0:0:0:
196,184,136889,2,0,B|256:156|256:156|316:184,1,132.00000402832,2|0,1:2|0:0,0:0:0:0:
315,183,137192,1,8,0:0:0:0:
217,55,137344,6,0,B|256:36|256:36|296:56,1,88.000002685547,2|0,0:0|1:0,0:0:0:0:
470,104,137647,2,0,B|432:124|432:124|392:104,1,88.000002685547,2|8,0:0|0:0,0:0:0:0:
296,56,137950,1,2,0:0:0:0:
256,152,138101,2,0,B|240:200|240:200|248:240|248:240|228:320,1,132.00000402832,0|0,1:0|0:0,0:0:0:0:
238,279,138404,1,8,0:0:0:0:
116,260,138556,6,0,P|68:192|116:124,1,176.000005371094,2|2,0:0|0:0,0:0:0:0:
216,55,139010,2,0,P|255:38|296:56,1,88.000002685547,8|2,0:0|0:0,0:0:0:0:
384,152,139313,2,0,B|320:128|320:176|256:152,1,132.00000402832,2|0,1:2|0:0,0:0:0:0:
255,151,139616,1,8,0:0:0:0:
168,212,139768,6,0,P|151:251|169:292,1,88.000002685547,2|0,0:0|1:0,0:0:0:0:
256,348,140071,1,2,0:0:0:0:
343,291,140222,2,0,P|360:251|344:212,1,88.000002685547,8|0,0:0|0:0,0:0:0:0:
255,151,140526,1,2,1:2:0:0:
256,20,140677,1,0,0:0:0:0:
340,84,140829,1,8,0:0:0:0:
172,84,140980,6,0,B|96:128|96:128|20:84,1,176.000005371094,6|0,1:2|0:0,0:0:0:0:
204,152,141435,2,0,L|108:208,1,88.000002685547,10|0,0:0|0:0,0:0:0:0:
172,84,141738,2,0,L|268:28,1,88.000002685547,0|0,1:0|0:0,0:0:0:0:
340,84,142041,1,8,0:0:0:0:
440,120,142192,6,0,P|482:192|438:263,1,176.000005371094,6|0,1:2|1:0,0:0:0:0:
438,263,142647,1,8,0:0:0:0:
272,192,142798,2,0,L|360:192,1,88.000002685547,6|0,1:2|0:0,0:0:0:0:
340,84,143101,2,0,L|252:84,1,88.000002685547,2|8,1:2|0:0,0:0:0:0:
119,153,143404,6,0,B|100:192|100:192|120:232,1,88.000002685547,6|0,1:2|0:0,0:0:0:0:
217,328,143707,2,0,B|256:348|256:348|296:328,1,88.000002685547,2|8,1:2|0:0,0:0:0:0:
392,230,144010,2,0,B|412:192|412:192|392:152,1,88.000002685547,2|8,1:2|0:0,0:0:0:0:
294,55,144313,2,0,B|256:36|256:36|216:56,1,88.000002685547,2|8,1:2|0:0,0:0:0:0:
128,156,144616,2,0,B|192:132|192:180|256:156,1,132.00000402832,6|0,1:2|0:0,0:0:0:0:
292,156,144919,5,2,1:2:0:0:
324,156,144994,1,2,0:0:0:0:
355,144,145070,1,10,0:0:0:0:
379,122,145146,1,2,0:0:0:0:
393,93,145222,1,2,1:2:0:0:
256,12,145374,6,0,L|256:56,1,44.0000013427735,10|2,0:0|1:2,0:0:0:0:
185,68,145525,2,0,L|185:24,1,44.0000013427735,2|2,1:2|1:2,0:0:0:0:
119,93,145677,1,10,0:0:0:0:
88,104,145753,1,0,1:0:0:0:
62,117,145829,6,0,L|81:255,1,132.00000402832,4|0,1:2|0:0,0:0:0:0:
81,248,146132,1,2,0:0:0:0:
59,350,146283,2,0,P|101:318|146:311,1,88.000002685547,8|0,0:0|0:0,0:0:0:0:
202,229,146586,2,0,P|242:250|284:329,1,132.00000402832,2|0,1:2|0:0,0:0:0:0:
283,323,146889,1,8,0:0:0:0:
376,371,147041,6,0,P|408:333|408:282,1,88.000002685547,2|0,0:0|1:0,0:0:0:0:
511,323,147344,2,0,P|509:271|477:222,1,88.000002685547,2|8,0:0|0:0,0:0:0:0:
411,296,147647,1,0,0:0:0:0:
260,212,147798,2,0,L|350:226,1,88.000002685547,2|0,1:2|0:0,0:0:0:0:
411,296,148101,1,8,0:0:0:0:
418,147,148253,6,0,L|236:124,1,176.000005371094,2|0,0:0|0:0,0:0:0:0:
147,167,148707,2,0,L|126:74,1,88.000002685547,10|0,0:0|0:0,0:0:0:0:
243,124,149010,2,0,L|259:36,1,88.000002685547,2|0,1:2|0:0,0:0:0:0:
229,196,149313,1,8,0:0:0:0:
300,274,149465,6,0,B|223:304|223:304|141:257,1,176.000005371094,2|2,0:0|0:0,0:0:0:0:
46,228,149919,2,0,P|29:277|45:330,1,88.000002685547,8|0,0:0|0:0,0:0:0:0:
141,257,150222,1,0,1:0:0:0:
141,257,150374,2,0,P|146:213|130:173,1,88.000002685547,0|8,0:0|0:0,0:0:0:0:
39,118,150677,1,2,0:0:0:0:
130,173,150829,5,4,1:2:0:0:
225,129,150980,1,0,0:0:0:0:
319,80,151132,2,0,L|315:170,1,88.000002685547,10|0,0:0|0:0,0:0:0:0:
409,42,151435,2,0,L|405:136,1,88.000002685547,2|0,1:2|0:0,0:0:0:0:
497,203,151738,1,14,0:0:0:0:
387,279,151889,1,0,0:0:0:0:
316,168,152041,6,0,P|245:185|211:274,1,176.000005371094,2|8,1:2|0:0,0:0:0:0:
125,336,152495,1,0,0:0:0:0:
125,336,152647,2,0,B|90:314|43:307|43:307|94:303|132:270,1,176.000005371094,6|8,1:2|0:0,0:0:0:0:
48,203,153101,6,0,P|47:147|156:175,1,176.000005371094,6|0,1:2|0:0,0:0:0:0:
226,208,153556,2,0,L|232:113,1,88.000002685547,10|0,0:0|0:0,0:0:0:0:
317,57,153859,2,0,L|313:177,1,88.000002685547,2|0,1:2|0:0,0:0:0:0:
390,218,154162,1,8,0:0:0:0:
390,218,154313,1,0,0:0:0:0:
477,312,154465,6,0,L|380:298,1,88.000002685547,2|0,1:2|0:0,0:0:0:0:
306,364,154768,2,0,L|209:350,1,88.000002685547,10|0,0:0|0:0,0:0:0:0:
149,271,155071,1,2,1:2:0:0:
59,327,155222,1,8,0:0:0:0:
59,327,155298,1,8,0:0:0:0:
59,327,155374,1,8,0:0:0:0:
3,205,155525,6,0,B|32:164|32:164|68:144|68:144|100:92,1,132.00000402832,4|0,1:2|0:0,0:0:0:0:
89,109,155829,1,0,1:2:0:0:
216,56,155980,2,0,B|256:36|256:36|294:55,1,88.000002685547,10|0,0:0|1:0,0:0:0:0:
294,161,156283,2,0,B|256:180|256:180|216:160,1,88.000002685547,8|2,0:0|1:2,0:0:0:0:
216,56,156586,1,8,0:0:0:0:
294,161,156738,6,0,L|303:339,1,176.000005371094,6|0,1:2|1:0,0:0:0:0:
303,336,157192,1,8,0:0:0:0:
396,288,157344,2,0,L|392:180,1,88.000002685547,2|8,1:2|0:0,0:0:0:0:
212,288,157647,2,0,L|215:375,1,88.000002685547,2|8,1:2|0:0,0:0:0:0:
256,192,157950,6,0,B|296:108|216:108|256:24,1,176.000005371094,6|0,1:2|1:0,0:0:0:0:
164,140,158404,1,8,0:0:0:0:
352,68,158556,1,0,1:2:0:0:
164,140,158707,2,0,P|108:108|52:140,1,132.00000402832,10|0,0:0|0:0,0:0:0:0:
108,180,159010,6,0,B|128:249|128:249|125:254|125:254|132:252|132:252|130:257|130:257|153:338,1,176.000005371094,14|0,0:0|0:0,0:0:0:0:
256,304,159465,1,2,1:2:0:0:
256,304,159541,1,2,1:2:0:0:
256,304,159616,2,0,P|296:304|336:272,1,88.000002685547,10|0,0:0|1:0,0:0:0:0:
400,192,159919,2,10,L|452:192,2,44.0000013427735
333,107,160222,2,0,P|299:81|256:80,1,88.000002685547,8|0,0:0|0:0,0:0:0:0:
164,140,160525,6,0,P|108:172|52:140,1,132.00000402832,2|0,1:2|0:0,0:0:0:0:
108,100,160829,1,0,1:0:0:0:
108,100,160980,1,2,0:0:0:0:
192,36,161132,1,0,1:0:0:0:
192,36,161283,1,0,1:0:0:0:
256,120,161435,1,0,1:0:0:0:
256,120,161586,1,8,1:2:0:0:
320,36,161738,6,0,L|408:20,1,88.000002685547,2|8,1:2|0:0,0:0:0:0:
490,84,162041,1,0,1:0:0:0:
490,84,162192,2,0,L|402:100,1,88.000002685547,10|0,0:0|1:0,0:0:0:0:
256,120,162495,1,8,0:0:0:0:
180,192,162647,1,0,1:0:0:0:
256,264,162798,1,8,0:0:0:0:
332,192,162950,2,0,B|396:168|396:216|460:192,1,132.00000402832,6|0,1:2|0:0,0:0:0:0:
460,191,163253,6,0,L|500:136,2,44.0000013427735,0|0|8,1:0|0:0|0:0,0:0:0:0:
392,112,163556,2,0,L|417:76,2,44.0000013427735,0|0|8,1:0|0:0|0:0,0:0:0:0:
304,52,163859,5,10,0:0:0:0:
281,40,163934,1,8,0:0:0:0:
256,36,164010,1,8,0:0:0:0:
231,39,164086,1,8,0:0:0:0:
208,50,164162,6,8,L|188:100,3,44.0000013427735,10|8|8|8,0:0|0:0|0:0|0:0,0:0:0:0:
256,144,164465,2,8,L|256:196,3,44.0000013427735,10|8|8|8,0:0|0:0|0:0|0:0,0:0:0:0:
320,91,164768,2,8,L|303:50,3,44.0000013427735,10|8|8|8,0:0|0:0|0:0|0:0,0:0:0:0:
428,92,165071,2,8,L|444:51,3,44.0000013427735,10|8|8|8,0:0|0:0|0:0|0:0,0:0:0:0:
376,172,165374,6,0,B|351:219|371:253|382:251|396:282|375:332,1,160,4|8,1:2|0:0,0:0:0:0:
291,282,165829,2,0,P|245:289|311:338,1,160,2|0,1:2|0:0,0:0:0:0:
272,210,166283,2,0,P|208:229|164:334,1,160,10|0,0:0|0:0,0:0:0:0:
85,363,166738,2,0,L|75:187,1,160,2|0,0:0|0:0,0:0:0:0:
7,136,167192,1,2,0:0:0:0:
58,54,167344,1,0,1:0:0:0:
153,65,167495,1,8,0:0:0:0:
162,160,167647,1,0,1:0:0:0:
242,211,167798,6,0,B|296:236|330:208|311:202|372:180|431:217,1,160,2|8,1:2|0:0,0:0:0:0:
475,256,168253,2,0,P|454:324|385:303,1,160,2|0,0:0|0:0,0:0:0:0:
396,202,168707,2,0,B|394:153|414:129|461:124|441:43,1,160,10|0,0:0|0:0,0:0:0:0:
338,59,169162,2,0,B|330:124|377:129|397:153|395:202,1,160,2|0,0:0|1:0,0:0:0:0:
397,297,169616,1,2,0:0:0:0:
307,333,169768,1,0,1:2:0:0:
244,260,169919,1,8,0:0:0:0:
298,180,170071,1,0,1:0:0:0:
234,98,170222,6,0,P|165:100|99:177,1,160,4|8,1:2|0:0,0:0:0:0:
0,146,170677,1,0,0:0:0:0:
0,146,170829,2,0,L|23:229,1,80,2|0,0:0|0:0,0:0:0:0:
121,252,171132,1,8,0:0:0:0:
176,329,171283,2,0,P|133:349|72:329,1,80,2|0,0:0|0:0,0:0:0:0:
121,252,171586,2,0,P|169:232|219:243,1,80,2|8,0:0|0:0,0:0:0:0:
278,283,171889,1,0,0:0:0:0:
365,242,172041,2,0,L|355:152,1,80,2|0,0:0|1:0,0:0:0:0:
453,254,172344,2,0,L|440:158,1,80,8|0,0:0|1:0,0:0:0:0:
424,80,172647,6,0,B|349:50|349:50|277:85,1,160,2|8,1:2|0:0,0:0:0:0:
226,165,173101,1,0,0:0:0:0:
226,165,173253,2,0,L|144:156,2,80,2|0|8,0:0|0:0|0:0,0:0:0:0:
305,217,173707,2,0,P|266:247|252:306,1,80,2|0,0:0|0:0,0:0:0:0:
169,321,174010,1,0,1:2:0:0:
169,321,174162,2,0,P|150:286|117:263,1,80,10|0,0:0|0:0,0:0:0:0:
26,232,174465,2,0,L|41:329,1,80,2|0,0:0|1:0,0:0:0:0:
104,184,174768,2,0,L|119:272,1,80,8|0,0:0|1:0,0:0:0:0:
180,144,175071,6,0,B|220:144|248:112|248:112|340:112,1,160,2|8,1:2|0:0,0:0:0:0:
416,72,175525,1,0,0:0:0:0:
480,192,175677,2,0,B|456:220|456:220|444:256|444:256|396:304,1,120,2|0,0:0|0:0,0:0:0:0:
380,324,175980,1,8,0:0:0:0:
328,240,176132,2,0,B|280:240|256:212|256:212|232:240|184:240,1,160,2|0,0:0|0:0,0:0:0:0:
180,144,176586,2,0,P|164:108|180:72,1,80,10|0,0:0|0:0,0:0:0:0:
332,72,176889,2,0,B|407:98|407:42|487:70,1,160,2|8,0:0|0:0,0:0:0:0:
332,144,177344,1,0,1:0:0:0:
332,144,177495,6,0,B|256:170|256:114|176:142,1,160,2|8,1:2|0:0,0:0:0:0:
144,232,177950,2,0,L|96:52,1,160,2|0,0:0|0:0,0:0:0:0:
32,140,178404,2,0,L|60:240,1,80,10|0,0:0|0:0,0:0:0:0:
217,165,178707,2,0,L|196:88,1,80,2|0,0:0|1:0,0:0:0:0:
256,12,179010,1,10,0:0:0:0:
316,88,179162,1,8,0:0:0:0:
316,88,179238,1,8,0:0:0:0:
316,88,179313,2,0,B|349:106|349:106|385:86,1,80,8|8,0:0|0:0,0:0:0:0:
449,158,179616,2,8,B|467:191|467:191|447:227,1,80
385,297,179919,6,0,P|305:297|260:244,1,128,4|0,1:2|1:0,0:0:0:0:
271,267,180374,1,0,0:0:0:0:
334,198,180525,2,0,P|414:198|459:251,1,128,2|0,1:2|1:0,0:0:0:0:
385,297,180980,2,0,B|345:297|345:297|309:317|309:317|245:317,1,128,2|0,0:0|0:0,0:0:0:0:
200,272,181435,1,2,1:2:0:0:
200,272,181586,1,0,0:0:0:0:
168,200,181738,2,0,B|168:160|168:160|184:132|184:132|184:64,1,128,2|0,1:2|1:0,0:0:0:0:
256,52,182192,1,8,0:0:0:0:
328,76,182344,6,0,B|328:132|328:132|344:160|344:160|344:200,1,128,2|0,1:2|1:0,0:0:0:0:
312,268,182798,1,0,0:0:0:0:
312,268,182950,2,0,B|256:236|256:236|200:268,1,128,2|0,1:2|1:0,0:0:0:0:
104,156,183404,2,0,B|160:188|160:188|216:156,1,128,10|8,0:0|0:0,0:0:0:0:
256,92,183859,1,0,1:0:0:0:
296,156,184010,1,10,0:0:0:0:
296,156,184086,1,8,0:0:0:0:
296,156,184162,2,8,L|356:212,1,64
342,303,184465,2,0,L|296:260,1,64,2|0,1:2|1:0,0:0:0:0:
215,156,184768,6,0,P|187:100|215:44,1,128,4|0,1:2|1:0,0:0:0:0:
298,45,185222,1,0,0:0:0:0:
298,45,185374,2,0,P|324:100|297:156,1,128,2|0,1:2|1:0,0:0:0:0:
256,220,185829,1,8,0:0:0:0:
228,292,185980,2,0,B|256:308|256:308|284:292,2,64,2|8|2,1:2|0:0|1:2,0:0:0:0:
160,333,186435,5,8,0:0:0:0:
160,333,186510,1,8,0:0:0:0:
160,333,186586,1,10,0:0:0:0:
256,220,186738,1,0,0:0:0:0:
352,333,186889,1,0,1:0:0:0:
352,333,187041,6,0,P|392:306|311:217,1,176.000005371094,4|0,1:2|1:0,0:0:0:0:
251,167,187495,2,0,L|261:258,1,88.000002685547,10|0,0:0|0:0,0:0:0:0:
196,338,187798,2,0,B|140:355|107:329|121:322|70:301|20:322,1,176.000005371094,2|8,1:2|0:0,0:0:0:0:
162,254,188253,1,2,0:0:0:0:
71,199,188404,5,0,0:0:0:0:
159,141,188556,1,0,1:0:0:0:
44,34,188707,2,0,L|58:109,1,44.0000013427735,8|0,0:0|0:0,0:0:0:0:
30,107,188859,2,0,B|79:86|131:108|107:118|172:142|219:93|219:93|220:63|181:36,1,264.000008056641,2|8,0:0|0:0,0:0:0:0:
274,22,189465,6,0,B|302:69|301:115|301:115|281:160|223:180,1,176.000005371094,6|0,1:2|1:0,0:0:0:0:
149,208,189919,1,8,1:2:0:0:
243,256,190071,1,2,1:2:0:0:
243,256,190147,1,0,1:0:0:0:
243,256,190222,1,2,1:2:0:0:
95,373,190374,5,0,1:0:0:0:
200,350,190525,1,8,0:0:0:0:
305,384,190677,2,0,P|301:319|317:293,1,88.000002685547,2|0,1:2|0:0,0:0:0:0:
374,215,190980,2,0,P|382:172|368:131,1,88.000002685547,2|8,1:2|0:0,0:0:0:0:
276,79,191283,2,2,L|294:25,2,44.0000013427735,2|2|2,0:0|0:0|1:2,0:0:0:0:
198,150,191586,1,0,1:0:0:0:
90,127,191738,1,8,0:0:0:0:
0,230,191889,6,0,P|58:227|127:299,1,132.00000402832,6|0,1:2|0:0,0:0:0:0:
103,291,192192,2,0,P|170:332|179:243,1,176.000005371094,4|8,1:2|0:0,0:0:0:0:
409,282,192647,2,0,P|371:212|301:248,1,176.000005371094,4|8,1:2|0:0,0:0:0:0:
193,349,193101,6,0,L|196:239,1,88.000002685547,4|0,1:2|0:0,0:0:0:0:
301,247,193404,1,8,0:0:0:0:
301,247,193556,2,0,L|304:137,1,88.000002685547,6|0,1:2|0:0,0:0:0:0:
395,107,193859,1,8,0:0:0:0:
304,158,194010,1,0,1:0:0:0:
228,83,194162,1,10,0:0:0:0:
139,139,194313,1,2,1:2:0:0:
139,139,194465,1,0,1:0:0:0:
10,177,194616,6,0,B|75:185|75:185|94:219|94:219|183:224,1,176.000005371094,12|0,0:0|1:0,0:0:0:0:
280,357,195071,2,0,P|314:308|213:289,1,176.000005371094,12|0,0:0|1:0,0:0:0:0:
214,131,195525,2,0,P|138:150|166:223,1,176.000005371094,12|0,0:0|1:0,0:0:0:0:
256,276,195980,2,0,B|300:281|300:281|314:301|314:301|377:309,1,132.00000402832,12|0,0:0|0:0,0:0:0:0:
408,344,196283,5,8,0:0:0:0:
356,217,196435,1,8,0:0:0:0:
484,271,196586,1,8,0:0:0:0:
494,173,196738,6,0,P|366:97|238:173,1,308.000009399414,6|0,1:2|0:0,0:0:0:0:
200,228,197950,2,0,B|128:228|104:184|104:184|80:228|8:228,1,220.000006713867,2|2,0:0|0:0,0:0:0:0:
104,332,199010,1,0,0:0:0:0:
104,332,199162,2,0,B|180:358|180:294|276:326,1,176.000005371094,2|2,0:0|0:0,0:0:0:0:
275,326,200222,5,4,1:2:0:0:
256,192,200298,12,8,202647,1:2:0:0:
67,39,202798,6,0,P|29:103|61:179,1,132.00000402832,6|0,1:2|0:0,0:0:0:0:
63,177,203101,2,0,P|101:241|69:317,1,132.00000402832,2|0,0:0|0:0,0:0:0:0:
72,325,203404,2,0,P|121:296|194:313,1,132.00000402832,2|0,0:0|0:0,0:0:0:0:
216,289,203707,1,2,0:0:0:0:
316,323,203859,1,8,0:0:0:0:
416,348,204010,6,0,L|397:183,1,132.00000402832,2|0,0:0|0:0,0:0:0:0:
393,184,204313,2,0,L|457:201,2,44.0000013427735,2|0|8,0:0|0:0|0:0,0:0:0:0:
310,117,204616,2,0,P|246:146|183:119,1,132.00000402832,2|0,0:0|0:0,0:0:0:0:
163,149,204919,2,0,L|173:54,1,88.000002685547,2|8,0:0|0:0,0:0:0:0:
41,37,205222,6,0,L|66:257,1,192,2|8,0:0|0:0,0:0:0:0:
44,303,205829,1,0,0:0:0:0:
96,358,205980,1,0,1:0:0:0:
165,325,206132,2,0,P|215:310|244:316,1,64,0|8,0:0|0:0,0:0:0:0:
287,266,206435,6,0,B|324:296|328:340|328:340|344:298|407:280,1,176.000005371094,2|0,0:0|0:0,0:0:0:0:
309,185,206889,2,0,L|399:205,1,88.000002685547,8|0,0:0|0:0,0:0:0:0:
286,266,207192,1,0,1:2:0:0:
458,142,207344,2,0,L|372:122,1,88.000002685547,0|8,0:0|0:0,0:0:0:0:
271,97,207647,6,0,B|253:151|284:195|295:168|315:248|270:283,1,176.000005371094,2|0,0:0|0:0,0:0:0:0:
188,223,208101,1,8,0:0:0:0:
91,265,208253,2,0,B|64:229|81:175|92:194|123:150|105:96,1,176.000005371094,2|0,0:0|0:0,0:0:0:0:
190,36,208707,1,8,0:0:0:0:
271,97,208859,6,0,P|348:123|418:54,1,176.000005371094,2|0,0:0|0:0,0:0:0:0:
271,97,209313,1,8,0:0:0:0:
352,195,209465,2,0,P|382:252|379:298,1,88.000002685547,2|0,0:0|1:0,0:0:0:0:
243,334,209768,2,0,P|277:307|290:265,1,88.000002685547,2|8,0:0|0:0,0:0:0:0:
184,254,210071,6,0,P|130:246|70:111,1,176.000005371094,6|0,1:2|1:0,0:0:0:0:
64,152,210525,1,8,0:0:0:0:
194,78,210677,2,0,L|183:265,1,176.000005371094,6|0,1:2|1:0,0:0:0:0:
183,253,211132,1,8,0:0:0:0:
253,331,211283,6,0,P|293:316|337:315,1,88.000002685547,6|0,1:2|0:0,0:0:0:0:
472,239,211586,1,0,1:0:0:0:
472,239,211738,2,0,P|429:238|388:222,1,88.000002685547,10|0,0:0|1:0,0:0:0:0:
284,237,212041,2,2,L|271:189,3,44.0000013427735,10|2|2|2,0:0|0:0|0:0|0:0,0:0:0:0:
328,144,212344,2,2,L|333:92,1,44.0000013427735,10|2,0:0|0:0,0:0:0:0:
278,45,212495,6,0,B|222:45|222:45|170:69|170:69|94:69,1,176.000005371094,4|0,1:2|0:0,0:0:0:0:
5,176,212950,2,0,B|52:176|52:176|88:152|88:152|168:152,1,132.00000402832,8|0,0:0|0:0,0:0:0:0:
130,152,213253,1,2,1:2:0:0:
216,216,213404,1,0,0:0:0:0:
200,72,213556,1,8,0:0:0:0:
285,136,213707,6,0,P|357:178|428:134,1,176.000005371094,2|0,0:0|0:0,0:0:0:0:
356,60,214162,1,8,0:0:0:0:
284,136,214313,2,0,L|188:232,1,132.00000402832,2|0,0:0|0:0,0:0:0:0:
160,260,214616,1,2,0:0:0:0:
80,192,214768,1,8,0:0:0:0:
160,124,214919,6,0,L|256:28,1,132.00000402832,2|0,0:0|0:0,0:0:0:0:
253,30,215222,1,0,0:0:0:0:
352,72,215374,2,0,P|392:72|436:104,1,88.000002685547,10|0,0:0|0:0,0:0:0:0:
480,192,215677,1,0,1:0:0:0:
431,286,215829,2,0,P|396:320|304:320,1,132.00000402832,2|0,0:0|0:0,0:0:0:0:
292,296,216132,6,0,P|220:252|148:294,1,176.000005371094,2|0,0:0|0:0,0:0:0:0:
220,372,216586,1,8,0:0:0:0:
220,372,216662,1,0,0:0:0:0:
220,372,216738,1,0,0:0:0:0:
292,296,216889,2,0,L|316:200,1,88.000002685547,2|0,1:2|0:0,0:0:0:0:
148,293,217192,2,0,L|124:197,1,88.000002685547,8|0,0:0|0:0,0:0:0:0:
256,72,217495,5,6,1:2:0:0:
328,148,217647,1,0,0:0:0:0:
256,224,217798,1,8,0:0:0:0:
180,148,217950,2,0,P|148:92|180:36,1,132.00000402832,2|0,0:0|0:0,0:0:0:0:
177,37,218253,1,0,0:0:0:0:
334,37,218404,6,0,B|418:37|418:37|462:37|502:81,1,176.000005371094,14|0,0:0|1:0,0:0:0:0:
498,76,218859,1,0,0:0:0:0:
472,180,219010,2,0,L|444:284,1,88.000002685547,10|0,0:0|0:0,0:0:0:0:
380,244,219238,1,2,0:0:0:0:
380,244,219313,2,0,L|402:159,1,88.000002685547,2|0,1:2|0:0,0:0:0:0:
316,80,219616,2,0,B|256:52|256:52|196:80,1,132.00000402832,10|0,0:0|0:0,0:0:0:0:
160,104,219919,5,6,1:2:0:0:
104,192,220071,1,0,0:0:0:0:
160,280,220222,1,8,0:0:0:0:
160,280,220374,2,0,P|192:328|304:328,1,176.000005371094,2|0,0:0|0:0,0:0:0:0:
344,232,220829,6,0,P|312:184|200:184,1,176.000005371094,14|0,0:0|1:0,0:0:0:0:
164,84,221283,2,2,L|120:32,2,44.0000013427735,2|2|10,0:0|0:0|0:0,0:0:0:0:
256,28,221586,1,0,0:0:0:0:
348,84,221738,2,0,L|392:32,1,44.0000013427735,2|0,1:2|0:0,0:0:0:0:
440,96,221889,2,0,L|396:148,1,44.0000013427735
360,184,222041,1,10,0:0:0:0:
256,268,222192,6,0,B|208:268|184:224|184:224|160:268|114:267,1,176.000005371094,4|0,1:2|1:0,0:0:0:0:
104,164,222647,2,0,B|84:124|84:124|104:85,1,88.000002685547,8|0,0:0|0:0,0:0:0:0:
268,85,222950,2,0,B|288:124|288:124|268:164,1,88.000002685547,0|0,1:0|1:0,0:0:0:0:
177,268,223253,2,0,B|217:248|217:248|256:268,1,88.000002685547,8|0,0:0|1:0,0:0:0:0:
352,299,223556,5,14,0:0:0:0:
352,135,223707,1,0,1:0:0:0:
255,267,223859,1,8,0:0:0:0:
411,217,224010,1,0,0:0:0:0:
255,166,224162,2,0,L|204:148,3,44.0000013427735,0|0|0|0,1:0|1:0|1:0|1:0,1:0:0:0:
152,120,224465,1,0,1:0:0:0:
131,111,224540,1,0,0:0:0:0:
111,103,224616,6,0,B|119:155|119:155|132:170|132:170|142:229,1,120.000004577637,6|0,0:0|0:0,0:0:0:0:
95,274,225071,2,0,P|131:293|166:286,1,60.0000022888184,2|0,0:0|0:0,0:0:0:0:
206,336,225374,2,0,P|238:311|315:326,1,120.000004577637,2|0,0:0|0:0,0:0:0:0:
378,296,225829,2,0,P|384:341|372:366,1,60.0000022888184,2|0,0:0|0:0,0:0:0:0:
311,323,226132,2,0,P|304:293|312:265,1,60.0000022888184,2|0,0:0|0:0,0:0:0:0:
378,296,226435,1,0,0:0:0:0:
444,267,226586,6,0,L|438:134,1,120.000004577637,2|0,0:0|0:0,0:0:0:0:
396,88,227041,2,0,P|436:74|503:115,2,120.000004577637,2|2|0,0:0|0:0|0:0,0:0:0:0:
315,55,227798,2,0,L|333:184,1,120.000004577637,2|0,0:0|0:0,0:0:0:0:
266,218,228253,2,0,P|216:236|166:211,1,90.0000034332277,2|0,0:0|0:0,0:0:0:0:
182,225,228556,1,2,0:0:0:0:
213,162,228707,2,0,L|203:102,1,60.0000022888184
111,113,229010,2,0,L|126:45,1,60.0000022888184,2|0,0:0|0:0,0:0:0:0:
213,162,229313,5,8,0:0:0:0:
28,106,229465,2,0,L|56:253,1,136.000002593994,6|0,1:2|1:0,0:0:0:0:
64,320,229919,2,0,L|49:367,2,34.0000006484985,12|0|0,0:0|0:0|1:0,0:0:0:0:
149,339,230222,1,0,1:0:0:0:
205,265,230374,2,8,L|190:218,3,34.0000006484985,8|8|10|8,0:0|0:0|0:0|0:0,0:0:0:0:
187,212,230677,6,0,P|236:233|306:206,1,120,4|0,1:2|0:0,0:0:0:0:
318,201,230980,2,0,P|287:248|283:308,1,80,6|8,1:2|0:0,0:0:0:0:
334,348,231283,2,0,P|391:367|451:330,1,120,6|0,1:2|0:0,0:0:0:0:
470,351,231586,2,0,P|486:308|482:268,1,80,2|8,1:2|0:0,0:0:0:0:
387,273,231889,2,0,P|381:232|401:191,1,80,6|0,1:2|0:0,0:0:0:0:
507,151,232192,6,8,L|470:136,3,40,10|8|8|8,0:0|0:0|0:0|0:0,0:0:0:0:
415,80,232495,2,8,L|363:89,3,40,10|8|8|8,0:0|0:0|0:0|0:0,0:0:0:0:
311,149,232798,5,10,0:0:0:0:
291,146,232873,1,8,0:0:0:0:
271,143,232949,1,8,0:0:0:0:
251,140,233025,1,8,0:0:0:0:
231,137,233101,2,0,L|249:273,1,120,6|0,1:2|0:0,0:0:0:0:
246,255,233404,6,0,L|178:244,3,40,2|2|10|0,0:0|0:0|0:0|0:0,0:0:0:0:
313,315,233707,2,2,L|352:311,3,40,2|2|2|2,1:2|0:0|0:0|0:0,0:0:0:0:
229,359,234010,2,2,L|189:352,3,40,2|2|10|2,1:2|0:0|0:0|0:0,0:0:0:0:
83,341,234313,6,0,B|79:291|79:291|99:246|99:246|93:161,1,176.000005371094,4|0,1:2|0:0,0:0:0:0:
116,68,234768,2,0,B|154:48|154:48|194:68,1,88.000002685547,8|0,0:0|0:0,0:0:0:0:
312,173,235071,2,0,B|256:209|256:209|201:174,1,132.00000402832,2|0,1:2|0:0,0:0:0:0:
201,174,235374,1,8,0:0:0:0:
317,68,235525,6,0,B|357:48|357:48|396:68,1,88.000002685547,2|0,0:0|1:0,0:0:0:0:
460,152,235829,2,0,B|480:192|480:192|460:231,1,88.000002685547,2|8,0:0|0:0,0:0:0:0:
395,316,236132,1,0,0:0:0:0:
296,280,236283,2,0,P|256:263|217:280,1,88.000002685547,2|0,1:2|0:0,0:0:0:0:
116,316,236586,1,8,0:0:0:0:
184,192,236738,6,0,P|256:149|327:193,1,176.000005371094,2|0,0:0|0:0,0:0:0:0:
395,316,237192,2,0,L|443:216,1,88.000002685547,10|0,0:0|0:0,0:0:0:0:
476,140,237495,1,2,1:2:0:0:
380,100,237647,1,0,0:0:0:0:
327,193,237798,1,8,0:0:0:0:
327,193,237950,6,0,P|256:149|184:192,1,176.000005371094,2|2,0:0|0:0,0:0:0:0:
256,268,238404,1,8,0:0:0:0:
116,272,238556,1,0,0:0:0:0:
256,268,238707,2,0,L|296:346,1,88.000002685547,0|0,1:0|0:0,0:0:0:0:
156,350,239010,2,0,L|116:272,1,88.000002685547,8|0,0:0|0:0,0:0:0:0:
116,111,239313,5,6,1:2:0:0:
44,192,239465,1,0,0:0:0:0:
116,111,239616,2,0,P|164:112|200:80,1,88.000002685547,10|0,0:0|0:0,0:0:0:0:
396,111,239919,2,0,P|348:112|312:80,1,88.000002685547,2|0,1:2|0:0,0:0:0:0:
256,176,240222,1,10,0:0:0:0:
204,268,240374,1,0,0:0:0:0:
308,268,240525,6,0,B|391:298|391:234|479:266,1,176.000005371094,2|8,1:2|0:0,0:0:0:0:
432,360,240980,1,0,0:0:0:0:
352,172,241132,1,6,1:2:0:0:
352,172,241283,2,0,P|368:132|351:93,1,88.000002685547,0|8,0:0|0:0,0:0:0:0:
256,24,241586,6,0,B|216:24|216:24|176:40|176:40|104:40,1,132.00000402832,6|0,1:2|0:0,0:0:0:0:
127,40,241889,1,0,0:0:0:0:
48,112,242041,2,0,P|30:151|46:191,1,88.000002685547,10|0,0:0|0:0,0:0:0:0:
153,271,242344,2,0,P|169:231|152:192,1,88.000002685547,0|2,1:0|0:0,0:0:0:0:
48,112,242647,1,8,0:0:0:0:
152,192,242798,1,2,0:0:0:0:
218,88,242950,6,0,B|256:68|256:68|296:88,1,88.000002685547,0|0,1:0|0:0,0:0:0:0:
379,154,243253,2,0,B|399:192|399:192|379:232,1,88.000002685547,14|0,0:0|0:0,0:0:0:0:
256,313,243556,1,2,1:2:0:0:
133,232,243707,1,8,0:0:0:0:
133,232,243783,1,8,0:0:0:0:
133,232,243859,1,8,0:0:0:0:
52,108,244010,6,0,B|17:192|17:192|63:287,1,176.000005371094,6|0,1:2|1:0,0:0:0:0:
148,320,244465,2,0,P|204:287|251:291,1,88.000002685547,10|0,0:0|0:0,0:0:0:0:
329,255,244768,2,0,P|380:298|434:294,1,88.000002685547,8|0,0:0|1:0,0:0:0:0:
224,211,245071,1,10,0:0:0:0:
329,255,245222,6,0,B|321:192|321:192|346:162|346:162|338:90,1,176.000005371094,4|0,1:2|1:0,0:0:0:0:
244,39,245677,1,10,0:0:0:0:
154,96,245829,1,0,1:0:0:0:
57,54,245980,2,0,L|71:152,1,88.000002685547,10|0,0:0|1:0,0:0:0:0:
25,237,246283,1,10,0:0:0:0:
201,225,246435,6,0,P|152:232|99:354,1,176.000005371094,4|0,1:2|1:0,0:0:0:0:
196,312,246889,2,0,L|202:194,1,88.000002685547,10|0,0:0|1:0,0:0:0:0:
292,356,247192,2,0,L|298:256,1,88.000002685547,10|0,0:0|0:0,0:0:0:0:
413,135,247495,6,0,B|359:102|304:120|323:130|270:143|219:110|219:110|216:80|262:45,1,264.000008056641,12|0,0:0|1:0,0:0:0:0:
326,8,248101,2,2,L|346:48,3,44.0000013427735,10|2|2|2,0:0|0:0|0:0|0:0,0:0:0:0:
445,24,248404,2,2,L|425:63,3,44.0000013427735,10|2|2|2,0:0|0:0|0:0|0:0,0:0:0:0:
506,100,248707,2,0,P|518:152|493:199,1,88.000002685547,10|0,0:0|0:0,0:0:0:0:
490,287,249010,6,0,L|399:261,1,88.000002685547,4|0,1:2|0:0,0:0:0:0:
309,308,249313,1,0,1:0:0:0:
309,308,249465,1,2,0:0:0:0:
135,248,249616,6,0,P|178:246|219:262,1,88.000002685547,8|0,0:0|1:0,0:0:0:0:
309,308,249919,1,8,0:0:0:0:
309,308,250071,1,8,0:0:0:0:
349,215,250222,6,0,P|359:147|340:115,1,88.000002685547,2|8,1:2|0:0,0:0:0:0:
273,60,250525,1,0,1:0:0:0:
273,60,250677,1,10,0:0:0:0:
197,215,250829,6,0,P|183:173|193:131,1,88.000002685547,0|8,1:0|0:0,0:0:0:0:
273,60,251132,1,0,1:0:0:0:
273,60,251284,1,10,0:0:0:0:
354,130,251435,5,4,1:2:0:0:
193,131,251586,2,0,L|175:85,2,44.0000013427735,0|0|2,0:0|0:0|1:2,0:0:0:0:
271,199,251889,2,2,L|271:248,2,44.0000013427735,0|0|2,1:2|1:2|1:2,1:2:0:0:
354,130,252192,2,0,L|372:84,2,44.0000013427735,0|0|2,1:2|1:2|1:2,1:2:0:0:
273,60,252495,2,0,L|276:136,2,44.0000013427735,0|0|2,1:0|1:0|1:2,1:0:0:0:
176,90,252798,2,0,L|179:14,2,44.0000013427735,0|0|2,1:0|1:0|1:2,1:0:0:0:
53,32,253101,5,8,0:0:0:0:
56,59,253176,1,8,0:0:0:0:
59,87,253252,1,10,0:0:0:0:
63,114,253328,1,8,0:0:0:0:
66,142,253404,1,8,0:0:0:0:
69,167,253480,1,8,0:0:0:0:
73,193,253556,2,8,L|12:188,1,44.0000013427735,10|8,0:0|0:0,0:0:0:0:
0,257,253707,2,8,L|61:262,1,44.0000013427735
104,329,253859,6,0,P|176:329|256:233,1,176.000005371094,4|8,1:2|0:0,0:0:0:0:
248,123,254313,2,0,P|189:60|104:55,1,176.000005371094,6|8,1:2|0:0,0:0:0:0:
24,192,254768,2,0,B|88:216|88:168|152:192,1,132.00000402832,6|0,1:2|0:0,0:0:0:0:
152,192,255071,5,8,0:0:0:0:
248,123,255222,2,0,P|328:123|392:211,1,176.000005371094,6|0,1:2|1:0,0:0:0:0:
348,288,255677,1,8,0:0:0:0:
348,288,255753,1,8,0:0:0:0:
348,288,255829,1,0,1:0:0:0:
208,232,255980,2,0,P|152:264|96:232,1,132.00000402832,10|0,0:0|0:0,0:0:0:0:
152,192,256283,6,0,L|180:88,1,80,6|0,1:2|0:0,0:0:0:0:
192,28,256586,1,8,0:0:0:0:
256,188,256738,6,0,L|284:84,1,80,2|0,1:2|0:0,0:0:0:0:
296,24,257041,1,8,0:0:0:0:
360,192,257192,6,0,B|360:240|360:240|340:280|340:280|340:347,1,160,2|8,1:2|0:0,0:0:0:0:
340,347,257647,1,2,1:2:0:0:
420,308,257798,2,0,B|440:276|440:276|440:224,1,80,0|8,0:0|0:0,0:0:0:0:
276,220,258101,1,2,1:2:0:0:
276,220,258177,1,2,0:0:0:0:
276,220,258253,2,0,B|256:252|256:252|256:304,1,80,2|8,1:2|0:0,0:0:0:0:
360,192,258556,1,0,0:0:0:0:
296,132,258707,6,0,P|312:96|297:60,1,80,6|0,1:2|0:0,0:0:0:0:
297,60,259010,1,8,0:0:0:0:
214,60,259162,6,0,P|199:96|216:132,1,80,2|0,1:2|0:0,0:0:0:0:
300,276,259465,1,8,0:0:0:0:
300,276,259616,6,0,B|348:276|372:248|372:248|396:276|444:276,1,160,2|8,1:2|0:0,0:0:0:0:
444,276,260071,1,0,1:2:0:0:
408,180,260222,2,0,P|372:162|335:181,1,80,2|8,0:0|0:0,0:0:0:0:
256,208,260525,1,0,1:0:0:0:
237,200,260600,1,0,1:0:0:0:
218,193,260676,1,2,1:2:0:0:
199,186,260752,1,0,1:0:0:0:
181,179,260828,1,14,1:2:0:0:
100,144,260980,1,0,0:0:0:0:
220,46,261132,6,0,P|256:30|293:47,1,80,6|0,1:2|0:0,0:0:0:0:
291,45,261435,1,8,0:0:0:0:
414,115,261586,6,0,P|378:130|343:115,1,80,6|0,1:2|0:0,0:0:0:0:
220,46,261889,1,8,0:0:0:0:
184,172,262041,6,0,P|112:202|41:170,1,160,6|8,1:2|0:0,0:0:0:0:
112,76,262495,2,0,L|184:172,1,120,2|0,1:2|0:0,0:0:0:0:
212,208,262798,1,10,0:0:0:0:
212,208,262874,1,8,0:0:0:0:
212,208,262950,1,8,0:0:0:0:
304,304,263101,1,2,0:0:0:0:
212,348,263253,1,0,0:0:0:0:
392,263,263404,6,0,P|406:224|326:207,1,128,4|0,1:2|1:0,0:0:0:0:
278,248,263859,2,0,L|209:228,2,64,10|0|8,0:0|0:0|0:0,0:0:0:0:
329,340,264313,2,0,L|257:350,1,64,0|0,0:0|1:0,0:0:0:0:
262,345,264541,1,0,1:0:0:0:
256,341,264616,1,0,1:0:0:0:
251,336,264692,1,0,1:0:0:0:
246,331,264768,6,0,L|109:302,1,128,2|8,1:2|0:0,0:0:0:0:
46,277,265222,2,0,P|39:316|56:353,2,64,8|0|0,0:0|0:0|1:0,0:0:0:0:
115,229,265677,2,0,L|125:188,1,32,8|0,0:0|0:0,0:0:0:0:
96,195,265829,2,0,L|110:145,1,32,0|0,1:0|0:0,0:0:0:0:
80,149,265980,6,0,P|70:110|147:115,1,128,2|0,1:2|1:0,0:0:0:0:
186,156,266435,2,0,P|222:94|220:78,1,64,8|0,0:0|0:0,0:0:0:0:
285,147,266738,1,0,1:0:0:0:
285,147,266889,2,0,P|293:110|286:70,1,64,0|10,1:0|0:0,0:0:0:0:
364,61,267192,5,10,0:0:0:0:
447,18,267343,1,0,0:0:0:0:
512,84,267496,1,0,1:0:0:0:
470,167,267647,1,8,0:0:0:0:
378,152,267798,5,10,0:0:0:0:
289,246,267950,1,8,0:0:0:0:
372,354,268101,1,8,0:0:0:0:
499,303,268253,6,0,L|450:290,1,32,10|0,0:0|0:0,0:0:0:0:
