osu file format v14

[General]
AudioFilename: audio.mp3
AudioLeadIn: 0
PreviewTime: 125819
Countdown: 0
SampleSet: Soft
StackLeniency: 0.7
Mode: 0
LetterboxInBreaks: 0
WidescreenStoryboard: 0

[Editor]
Bookmarks: 518,15596,35701,55805,75910,85963,106067,126172,146277,166381,186486,206591,226696,235963
DistanceSpacing: 1
BeatDivisor: 4
GridSize: 8
TimelineZoom: 2.3

[Metadata]
Title:Desire Again
TitleUnicode:Desire Again
Artist:Kito Akari
ArtistUnicode:鬼頭明里
Creator:Amateurre
Version:Lust
Source:
Tags:shizuku- kazato asa shikibe mayu ayesha altugle flame haze xidorn rielle liyuu koldnoodl asagi kitou style japanese pop j-pop jpop j-rock jrock rock
BeatmapID:2829777
BeatmapSetID:1368404

[Difficulty]
HPDrainRate:5
CircleSize:4
OverallDifficulty:9
ApproachRate:9.5
SliderMultiplier:1.8
SliderTickRate:1

[Events]
//Background and Video events
0,0,"desire bg.jpg",0,0
//Break Periods
//Storyboard Layer 0 (Background)
//Storyboard Layer 1 (Fail)
//Storyboard Layer 2 (Pass)
//Storyboard Layer 3 (Foreground)
//Storyboard Layer 4 (Overlay)
//Storyboard Sound Samples

[TimingPoints]
518,314.13612565445,4,2,1,60,1,0
5544,-90.9090909090909,4,2,1,72,0,0
6722,-90.9090909090909,4,2,1,5,0,0
6800,-90.9090909090909,4,2,1,72,0,0
14575,-90.9090909090909,4,2,1,5,0,0
14654,-90.9090909090909,4,2,1,72,0,0
15125,-90.9090909090909,4,2,1,5,0,0
15203,-90.9090909090909,4,2,1,72,0,0
15360,-90.9090909090909,4,2,1,5,0,0
15439,-90.9090909090909,4,2,1,72,0,0
15596,-125,4,2,1,56,0,0
19680,-83.3333333333333,4,2,1,56,0,0
19994,-125,4,2,1,56,0,0
23135,-100,4,2,1,65,0,0
30596,-100,4,2,1,5,0,0
30675,-100,4,2,1,65,0,0
31538,-100,4,2,1,5,0,0
31617,-100,4,2,1,65,0,0
34444,-125,4,2,1,65,0,0
35701,-166.666666666667,4,2,1,50,0,0
44418,-166.666666666667,4,2,1,5,0,0
44497,-166.666666666667,4,2,1,50,0,0
45753,-100,4,2,1,60,0,0
45989,-100,4,2,1,5,0,0
46067,-111.111111111111,4,2,1,60,0,0
46931,-111.111111111111,4,2,1,5,0,0
47010,-111.111111111111,4,2,1,60,0,0
48188,-111.111111111111,4,2,1,5,0,0
48266,-111.111111111111,4,2,1,60,0,0
50779,-111.111111111111,4,2,1,67,0,0
55020,-333.333333333332,4,2,1,70,0,0
55727,-333.333333333332,4,2,1,5,0,0
55805,-83.3333333333333,4,2,1,80,0,1
56355,-83.3333333333333,4,2,1,5,0,1
56434,-83.3333333333333,4,2,1,80,0,1
59811,-83.3333333333333,4,2,1,5,0,1
59889,-83.3333333333333,4,2,1,80,0,1
63894,-83.3333333333333,4,2,1,5,0,1
63973,-83.3333333333333,4,2,1,80,0,1
64523,-83.3333333333333,4,2,1,5,0,1
64601,-83.3333333333333,4,2,1,80,0,1
66172,-71.4285714285714,4,2,1,80,0,1
66408,-71.4285714285714,4,2,1,5,0,1
66486,-83.3333333333333,4,2,1,80,0,1
68292,-83.3333333333333,4,2,1,5,0,1
68371,-83.3333333333333,4,2,1,80,0,1
69863,-83.3333333333333,4,2,1,5,0,1
69942,-83.3333333333333,4,2,1,80,0,1
75910,-90.9090909090909,4,2,1,72,0,0
77088,-90.9090909090909,4,2,1,5,0,0
77167,-90.9090909090909,4,2,1,72,0,0
80858,-90.9090909090909,4,2,1,5,0,0
80936,-90.9090909090909,4,2,1,72,0,0
85099,-90.9090909090909,4,2,1,5,0,0
85177,-90.9090909090909,4,2,1,72,0,0
85413,-90.9090909090909,4,2,1,5,0,0
85491,-90.9090909090909,4,2,1,72,0,0
85963,-111.111111111111,4,2,1,65,0,0
91224,-111.111111111111,4,2,1,5,0,0
91303,-111.111111111111,4,2,1,65,0,0
92795,-111.111111111111,4,2,1,5,0,0
92874,-111.111111111111,4,2,1,65,0,0
95072,-76.9230769230769,4,2,1,65,0,0
95308,-76.9230769230769,4,2,1,5,0,0
95387,-111.111111111111,4,2,1,65,0,0
96015,-111.111111111111,4,2,1,70,0,0
98214,-90.9090909090909,4,2,1,70,0,0
98449,-90.9090909090909,4,2,1,5,0,0
98528,-111.111111111111,4,2,1,70,0,0
100727,-76.9230769230769,4,2,1,70,0,0
100963,-76.9230769230769,4,2,1,5,0,0
101041,-90.9090909090909,4,2,1,65,0,0
101591,-90.9090909090909,4,2,1,5,0,0
101669,-90.9090909090909,4,2,1,65,0,0
102219,-90.9090909090909,4,2,1,5,0,0
102298,-90.9090909090909,4,2,1,65,0,0
105439,-142.857142857143,4,2,1,65,0,0
105832,-142.857142857143,4,2,1,5,0,0
105910,-100,4,2,1,65,0,0
106067,-166.666666666667,4,2,1,58,0,0
109758,-166.666666666667,4,2,1,5,0,0
109837,-100,4,2,1,58,0,0
110151,-125,4,2,1,58,0,0
115805,-100,4,2,1,58,0,0
116041,-100,4,2,1,5,0,0
116120,-125,4,2,1,65,0,0
116669,-125,4,2,1,5,0,0
116748,-500,4,2,1,65,0,0
117376,-166.666666666667,4,2,1,65,0,0
118004,-250,4,2,1,65,0,0
118633,-166.666666666667,4,2,1,65,0,0
119182,-166.666666666667,4,2,1,5,0,0
119261,-500,4,2,1,65,0,0
119889,-100,4,2,1,65,0,0
120125,-100,4,2,1,5,0,0
120203,-100,4,2,1,65,0,0
120439,-100,4,2,1,5,0,0
120517,-100,4,2,1,65,0,0
121067,-100,4,2,1,5,0,0
121146,-100,4,2,1,70,0,0
124837,-100,4,2,1,5,0,0
124915,-100,4,2,1,70,0,0
126093,-100,4,2,1,5,0,0
126172,-83.3333333333333,4,2,1,80,0,1
134261,-83.3333333333333,4,2,1,5,0,1
134339,-83.3333333333333,4,2,1,80,0,1
134889,-83.3333333333333,4,2,1,5,0,1
134968,-83.3333333333333,4,2,1,80,0,1
136538,-71.4285714285714,4,2,1,80,0,1
136774,-71.4285714285714,4,2,1,5,0,1
136853,-83.3333333333333,4,2,1,80,0,1
138659,-83.3333333333333,4,2,1,5,0,1
138737,-83.3333333333333,4,2,1,80,0,1
146277,-90.9090909090909,4,2,1,72,0,0
148711,-90.9090909090909,4,2,1,5,0,0
148790,-90.9090909090909,4,2,1,72,0,0
151224,-90.9090909090909,4,2,1,5,0,0
151303,-90.9090909090909,4,2,1,72,0,0
153737,-90.9090909090909,4,2,1,5,0,0
153816,-90.9090909090909,4,2,1,72,0,0
158764,-90.9090909090909,4,2,1,5,0,0
158842,-90.9090909090909,4,2,1,72,0,0
159313,-76.9230769230769,4,2,1,72,0,0
159549,-76.9230769230769,4,2,1,5,0,0
159627,-76.9230769230769,4,2,1,72,0,0
159863,-76.9230769230769,4,2,1,5,0,0
159942,-90.9090909090909,4,2,1,72,0,0
165753,-125,4,2,1,75,0,0
166381,-83.3333333333333,4,2,1,82,0,0
168345,-83.3333333333333,4,2,1,5,0,0
168423,-83.3333333333333,4,2,1,82,0,0
169601,-83.3333333333333,4,2,1,5,0,0
169680,-83.3333333333333,4,2,1,82,0,0
173371,-83.3333333333333,4,2,1,5,0,0
173449,-83.3333333333333,4,2,1,82,0,0
175727,-83.3333333333333,4,2,1,5,0,0
175805,-83.3333333333333,4,2,1,82,0,0
186486,-166.666666666667,4,2,2,40,0,0
191512,-166.666666666667,4,2,2,40,0,0
195910,-166.666666666667,4,2,2,5,0,0
196538,-166.666666666667,4,2,1,40,0,0
197795,-166.666666666667,4,2,1,68,0,0
198345,-166.666666666667,4,2,1,5,0,0
198423,-166.666666666667,4,2,1,71,0,0
198973,-166.666666666667,4,2,1,5,0,0
199052,-166.666666666667,4,2,1,71,0,0
200230,-166.666666666667,4,2,1,5,0,0
200308,-100,4,2,1,72,0,0
200544,-100,4,2,1,5,0,0
200622,-100,4,2,1,72,0,0
200858,-100,4,2,1,5,0,0
200936,-100,4,2,1,72,0,0
201172,-100,4,2,1,5,0,0
201250,-100,4,2,1,72,0,0
201486,-100,4,2,1,5,0,0
201565,-166.666666666667,4,2,1,70,0,0
203999,-166.666666666667,4,2,1,5,0,0
204078,-100,4,2,1,70,0,0
205963,-90.9090909090909,4,2,1,70,0,0
206905,-71.4285714285714,4,2,1,80,0,1
207141,-71.4285714285714,4,2,1,5,0,1
207219,-83.3333333333333,4,2,1,80,0,1
209025,-83.3333333333333,4,2,1,5,0,1
209104,-83.3333333333333,4,2,1,80,0,1
214680,-83.3333333333333,4,2,1,5,0,1
214758,-83.3333333333333,4,2,1,80,0,1
216643,-90.9090909090909,4,2,1,72,0,0
217821,-90.9090909090909,4,2,1,5,0,0
217900,-90.9090909090909,4,2,1,72,0,0
221591,-90.9090909090909,4,2,1,5,0,0
221669,-90.9090909090909,4,2,1,72,0,0
226696,-90.9090909090909,4,2,1,80,0,0
226931,-90.9090909090909,4,2,1,5,0,0
227010,-90.9090909090909,4,2,1,80,0,0
230701,-90.9090909090909,4,2,1,5,0,0
230779,-90.9090909090909,4,2,1,80,0,0
234235,-333.333333333333,4,2,1,65,0,0

[Colours]
Combo1 : 172,128,227
Combo2 : 170,222,253
Combo3 : 215,142,223
Combo4 : 117,138,236

[HitObjects]
83,29,518,5,12,0:0:0:0:
254,175,675,1,0,1:2:0:0:
26,242,832,1,0,1:2:0:0:
220,75,989,5,12,0:0:0:0:
165,269,1146,1,0,1:2:0:0:
13,132,1303,1,0,1:2:0:0:
236,66,1460,5,12,0:0:0:0:
16,256,1617,1,0,1:2:0:0:
264,346,1774,1,0,1:2:0:0:
149,113,1931,5,12,0:0:0:0:
108,351,2088,1,0,1:2:0:0:
344,248,2245,1,0,1:2:0:0:
263,168,2402,5,12,0:3:0:0:
349,365,2559,1,0,0:2:0:0:
255,152,2716,5,4,0:3:0:0:
353,380,2874,1,0,0:2:0:0:
431,180,3031,5,12,0:0:0:0:
256,332,3188,1,0,1:2:0:0:
168,113,3345,1,0,1:2:0:0:
407,285,3502,5,8,0:0:0:0:
150,382,3659,2,0,L|167:325,1,45,0|8,1:2|0:3,0:0:0:0:
191,251,3816,1,4,0:3:0:0:
356,384,3973,5,8,0:0:0:0:
135,255,4130,2,0,L|195:239,1,45,0|8,1:0|0:3,0:0:0:0:
317,217,4287,1,4,0:3:0:0:
150,382,4444,5,8,0:0:0:0:
267,98,4601,2,0,L|286:169,1,45,0|8,1:0|0:3,0:0:0:0:
339,297,4758,1,4,0:3:0:0:
177,29,4915,5,8,0:0:0:0:
104,343,5072,1,8,0:0:0:0:
104,343,5544,6,0,L|222:323,1,99.0000030212403,4|0,1:2|0:0,0:0:0:0:
429,209,5858,1,8,0:0:0:0:
318,377,6015,1,0,0:0:0:0:
318,377,6093,1,8,0:0:0:0:
318,377,6172,2,0,L|328:243,1,99.0000030212403,0|0,1:2|1:2,0:0:0:0:
493,112,6486,2,0,P|446:161|340:127,1,148.50000453186,8|0,0:0|0:0,0:0:0:0:
297,119,6800,6,0,P|261:101|190:122,1,99.0000030212403,0|0,1:2|1:2,0:0:0:0:
19,231,7114,1,8,0:0:0:0:
97,47,7271,1,0,0:0:0:0:
97,47,7349,1,8,0:0:0:0:
97,47,7428,2,0,L|106:178,1,99.0000030212403,0|0,1:0|1:0,0:0:0:0:
236,288,7743,2,0,L|245:157,1,99.0000030212403,8|0,0:0|0:0,0:0:0:0:
387,18,8057,5,0,1:2:0:0:
204,110,8214,1,0,1:2:0:0:
381,257,8371,2,0,P|426:232|497:252,1,99.0000030212403,8|0,0:0|0:0,0:0:0:0:
494,250,8607,1,8,0:0:0:0:
494,250,8685,1,0,1:2:0:0:
303,127,8842,1,0,1:2:0:0:
374,355,8999,2,0,L|380:256,1,99.0000030212403,8|0,0:0|0:0,0:0:0:0:
204,110,9313,5,0,1:2:0:0:
398,29,9470,1,0,1:2:0:0:
178,122,9627,2,0,L|58:109,1,99.0000030212403,8|0,0:0|0:0,0:0:0:0:
309,217,9942,1,0,1:2:0:0:
160,32,10099,1,0,1:2:0:0:
15,254,10256,5,8,0:0:0:0:
40,227,10334,1,8,0:0:0:0:
74,212,10413,1,8,0:0:0:0:
110,213,10491,1,8,0:0:0:0:
144,229,10570,2,0,B|214:241|214:241|242:292|242:292|327:310,1,198.000006042481,4|8,1:2|0:0,0:0:0:0:
440,164,11041,1,0,1:2:0:0:
150,308,11198,5,8,0:0:0:0:
451,254,11355,1,0,1:0:0:0:
183,164,11512,5,8,0:0:0:0:
422,373,11669,1,0,1:0:0:0:
244,91,11826,5,12,0:0:0:0:
96,371,11983,1,0,0:0:0:0:
98,40,12141,5,8,0:0:0:0:
259,362,12298,1,0,1:0:0:0:
323,121,12455,5,8,0:0:0:0:
124,226,12612,1,0,1:0:0:0:
327,309,12769,1,8,0:0:0:0:
327,309,12847,1,0,1:0:0:0:
327,309,12926,2,0,L|316:224,1,49.5000015106202,0|0,1:2|1:0,0:0:0:0:
204,80,13083,6,0,B|91:62|145:168|3:139,1,198.000006042481,12|8,0:0|0:0,0:0:0:0:
225,219,13554,1,0,1:0:0:0:
117,370,13711,2,0,L|137:299,1,49.5000015106202,8|0,0:0|0:0,0:0:0:0:
347,134,13868,5,8,0:0:0:0:
379,120,13946,1,8,0:0:0:0:
414,123,14025,1,8,0:0:0:0:
443,142,14103,1,8,0:0:0:0:
460,173,14182,1,8,0:0:0:0:
460,208,14260,1,8,0:0:0:0:
443,239,14339,2,0,B|343:219|343:219|317:246|262:258,1,148.50000453186,4|0,1:2|0:0,0:0:0:0:
233,289,14654,6,0,L|226:228,1,49.5000015106202,8|0,0:0|0:0,0:0:0:0:
43,59,14811,1,0,0:0:0:0:
43,59,14889,1,0,0:0:0:0:
43,59,14968,2,0,B|13:101|13:101|41:170,1,99.0000030212403,2|0,1:2|0:0,0:0:0:0:
104,175,15203,6,0,P|151:151|202:169,1,99.0000030212403,2|0,1:2|0:0,0:0:0:0:
272,174,15439,6,0,L|323:164,1,49.5000015106202,2|0,1:2|0:0,0:0:0:0:
405,207,15596,6,0,L|423:109,1,72,6|2,1:2|0:2,0:0:0:0:
492,269,15910,2,0,L|478:339,1,72,2|2,1:2|0:0,0:0:0:0:
478,339,16146,1,0,0:0:0:0:
478,339,16224,2,0,L|326:362,1,144,2|2,1:2|1:2,0:0:0:0:
292,199,16696,6,0,P|266:227|213:252,1,72,2|2,0:0|1:2,0:0:0:0:
335,360,17010,2,0,P|322:323|328:265,1,72,2|2,0:0|1:2,0:0:0:0:
174,317,17324,2,0,P|212:325|259:358,1,72,2|0,0:0|1:0,0:0:0:0:
162,199,17638,2,0,L|91:212,1,72,2|2,0:0|1:2,0:0:0:0:
219,123,17952,1,10,0:0:0:0:
165,2,18109,6,0,P|150:38|161:89,1,72,2|2,1:2|0:0,0:0:0:0:
286,245,18423,2,0,P|301:209|290:158,1,72,2|2,1:2|0:0,0:0:0:0:
107,362,18737,2,0,P|164:331|259:353,1,144,2|2,1:2|1:2,0:0:0:0:
356,230,19209,6,0,L|280:246,1,72,10|2,0:0|1:2,0:0:0:0:
464,189,19523,1,2,0:0:0:0:
409,362,19680,6,0,B|418:302|418:302|450:280|450:280|463:204,1,161.999995056153,14|8,0:2|0:3,0:0:0:0:
464,189,19994,1,8,0:3:0:0:
415,28,20151,1,8,0:3:0:0:
406,129,20308,2,0,P|442:109|502:114,1,72,8|4,0:3|0:3,0:0:0:0:
472,106,20544,1,0,0:0:0:0:
472,106,20622,6,0,L|311:78,1,144,6|2,1:2|1:2,0:0:0:0:
41,177,21250,2,0,L|25:97,1,72,2|0,1:2|0:0,0:0:0:0:
169,143,21565,1,2,1:2:0:0:
112,16,21722,1,8,0:0:0:0:
41,177,21879,6,0,P|104:136|176:147,1,144,2|2,1:2|1:2,0:0:0:0:
281,324,22507,2,0,L|366:306,1,72,2|0,1:2|0:0,0:0:0:0:
408,200,22821,2,0,L|493:218,1,72,2|0,1:2|3:2,0:0:0:0:
478,214,23057,1,0,3:2:0:0:
478,214,23135,6,0,L|466:152,1,45,6|0,1:2|0:0,0:0:0:0:
306,52,23292,2,0,B|262:95|262:95|285:224,1,180,8|0,0:0|0:0,0:0:0:0:
80,368,23764,5,8,0:0:0:0:
48,342,23842,1,8,0:0:0:0:
36,304,23921,1,8,0:0:0:0:
47,266,23999,1,8,0:0:0:0:
78,240,24078,1,10,0:0:0:0:
117,236,24156,1,8,0:0:0:0:
153,254,24235,1,10,0:0:0:0:
195,252,24313,1,8,0:0:0:0:
231,224,24392,5,8,1:3:0:0:
192,40,24549,1,8,0:0:0:0:
196,24,24627,1,8,0:0:0:0:
200,8,24706,1,8,0:0:0:0:
24,120,24863,6,0,P|48:124|80:132,1,45,8|0,0:0|0:0,0:0:0:0:
281,324,25177,2,0,P|257:328|225:336,1,45,8|0,0:0|0:0,0:0:0:0:
236,332,25648,5,6,1:2:0:0:
366,118,25805,1,2,0:0:0:0:
396,364,25963,1,10,0:0:0:0:
232,159,26120,1,2,0:0:0:0:
471,206,26277,2,0,B|410:221|410:221|377:262|377:262|293:281,1,180,2|10,1:2|0:0,0:0:0:0:
60,313,26748,6,0,P|54:270|36:213,1,90,2|0,0:0|1:2,0:0:0:0:
232,80,27062,1,2,0:0:0:0:
184,272,27219,1,8,0:0:0:0:
14,142,27376,6,0,B|120:124|76:204|207:181,1,180,2|2,0:0|0:0,0:0:0:0:
360,128,27847,1,10,0:0:0:0:
300,269,28004,5,2,0:0:0:0:
300,269,28083,1,0,0:0:0:0:
300,269,28161,1,2,1:2:0:0:
255,80,28319,1,2,0:0:0:0:
432,216,28476,1,10,0:0:0:0:
464,32,28633,1,2,0:0:0:0:
180,193,28790,2,0,B|108:185|108:185|81:152|81:152|-5:140,1,180,2|10,1:2|0:0,0:0:0:0:
144,352,29261,6,0,P|188:343|232:336,1,90,2|0,0:0|1:2,0:0:0:0:
384,208,29575,1,2,0:0:0:0:
432,384,29732,1,8,0:2:0:0:
272,240,29889,1,2,0:0:0:0:
272,240,29968,1,2,0:0:0:0:
272,240,30046,2,0,P|278:188|291:121,1,90,2|0,1:2|0:0,0:0:0:0:
56,24,30360,2,0,P|69:90|77:157,1,135,8|0,0:0|0:0,0:0:0:0:
64,192,30675,5,2,1:2:0:0:
93,269,30832,1,2,1:2:0:0:
256,112,30989,2,0,P|211:104|167:97,1,90,14|0,0:0|0:0,0:0:0:0:
232,336,31303,6,0,P|280:296|368:312,1,135,2|0,1:2|0:0,0:0:0:0:
424,352,31617,2,0,L|440:256,1,90,14|0,0:0|0:0,0:0:0:0:
391,61,31931,6,0,P|429:34|507:46,1,90,2|0,1:2|1:2,0:0:0:0:
352,192,32245,2,0,P|307:184|263:177,1,90,14|8,0:0|0:0,0:0:0:0:
179,162,32481,1,8,0:0:0:0:
164,160,32559,1,8,0:0:0:0:
296,72,32716,1,0,1:2:0:0:
88,0,32874,2,0,P|94:44|100:89,1,90,14|0,0:0|0:0,0:0:0:0:
8,296,33188,5,6,1:2:0:0:
264,184,33345,1,0,1:2:0:0:
11,106,33502,1,10,0:0:0:0:
184,328,33659,1,0,1:2:0:0:
160,56,33816,5,8,0:0:0:0:
8,296,33973,2,0,L|52:289,1,45,8|8,0:0|0:0,0:0:0:0:
231,179,34130,1,8,0:0:0:0:
264,184,34208,1,8,0:0:0:0:
297,190,34287,1,8,0:0:0:0:
330,196,34365,1,8,0:0:0:0:
363,202,34444,6,0,B|395:188|426:166|426:166|390:304,1,216,6|0,1:2|0:0,0:0:0:0:
184,328,35072,6,0,P|137:337|90:349,2,96,8|4|0,0:3|0:3|1:0,0:0:0:0:
262,379,35701,6,0,L|281:202,1,161.999995056153,6|0,1:2|0:0,0:0:0:0:
427,36,36329,2,0,P|469:94|444:140,1,107.999996704102,10|0,0:0|1:2,0:0:0:0:
399,239,36800,1,2,0:0:0:0:
512,207,36957,1,0,1:2:0:0:
383,246,37114,6,0,L|272:216,1,107.999996704102,8|0,0:0|1:2,0:0:0:0:
145,99,37586,2,0,L|156:220,1,107.999996704102,10|2,0:0|1:2,0:0:0:0:
59,348,38057,1,0,3:2:0:0:
59,348,38135,1,0,3:2:0:0:
59,348,38214,5,2,1:2:0:0:
229,329,38371,2,0,P|161:290|136:296,1,107.999996704102,8|0,0:0|0:0,0:0:0:0:
2,216,38842,1,10,0:0:0:0:
285,259,39156,5,2,1:2:0:0:
298,257,39234,1,0,3:2:0:0:
311,255,39313,1,0,3:2:0:0:
322,254,39391,1,0,3:2:0:0:
338,252,39470,1,2,1:2:0:0:
507,291,39627,1,8,0:0:0:0:
436,148,39785,2,0,L|426:220,1,53.9999983520508,10|0,0:2|1:2,0:0:0:0:
328,341,40099,5,8,0:3:0:0:
328,341,40177,1,8,0:3:0:0:
328,341,40256,2,0,L|280:348,2,26.9999991760254,0|0|0,1:0|1:0|1:2,0:0:0:0:
485,272,40570,1,8,0:3:0:0:
336,166,40727,6,0,B|247:157|282:233|182:217,1,161.999995056153,4|2,1:2|1:2,0:0:0:0:
14,72,41355,2,0,P|54:40|118:64,1,107.999996704102,10|2,0:2|1:2,0:0:0:0:
246,160,41826,1,0,3:0:0:0:
246,160,41905,1,0,3:0:0:0:
246,160,41983,2,0,L|251:83,1,53.9999983520508,0|8,1:2|0:0,0:0:0:0:
102,194,42298,2,0,L|107:117,1,53.9999983520508,2|0,0:2|1:2,0:0:0:0:
263,284,42612,6,0,L|387:263,1,107.999996704102,10|2,0:0|1:2,0:0:0:0:
381,266,43004,1,0,3:2:0:0:
394,268,43083,1,0,3:2:0:0:
404,269,43161,1,0,3:2:0:0:
413,270,43240,1,2,1:2:0:0:
330,180,43397,2,0,P|308:139|344:68,1,107.999996704102,8|0,0:0|1:2,0:0:0:0:
443,141,43868,6,0,L|380:126,1,53.9999983520508,10|0,0:0|0:0,0:0:0:0:
246,218,44182,2,0,L|157:203,1,80.9999975280763,2|0,1:2|0:0,0:0:0:0:
149,213,44497,5,0,1:2:0:0:
177,89,44654,1,8,0:0:0:0:
255,235,44811,5,0,1:2:0:0:
174,71,44968,1,0,1:2:0:0:
67,250,45125,5,8,0:0:0:0:
288,132,45282,1,0,1:2:0:0:
296,130,45360,1,0,1:2:0:0:
305,129,45439,1,8,1:3:0:0:
314,127,45517,1,0,1:2:0:0:
323,126,45596,1,8,1:3:0:0:
332,125,45674,1,0,1:0:0:0:
341,123,45753,2,0,P|406:117|418:192,1,135,4|0,1:2|0:0,0:0:0:0:
457,255,46067,6,0,L|362:241,1,80.9999975280763,2|0,1:2|0:0,0:0:0:0:
275,362,46381,2,0,L|355:350,1,80.9999975280763,2|0,1:2|0:0,0:0:0:0:
247,226,46696,2,0,P|173:217|134:282,1,121.499996292114,2|0,1:2|0:0,0:0:0:0:
63,211,47010,6,0,L|71:292,1,80.9999975280763,6|0,1:2|0:0,0:0:0:0:
197,95,47324,2,0,L|189:175,1,80.9999975280763,2|0,1:2|0:0,0:0:0:0:
14,14,47638,2,0,L|21:94,1,80.9999975280763,2|0,1:2|0:0,0:0:0:0:
249,22,47952,2,0,B|332:12|332:12|356:32|388:30,1,121.499996292114,2|0,1:2|0:0,0:0:0:0:
446,9,48266,6,0,P|462:45|448:87,1,80.9999975280763,6|0,1:2|0:0,0:0:0:0:
307,198,48580,2,0,P|295:159|311:123,1,80.9999975280763,2|2,1:2|1:2,0:0:0:0:
380,164,48816,5,2,1:2:0:0:
391,172,48894,2,0,L|441:163,1,40.4999987640381,8|0,1:3|0:0,0:0:0:0:
233,233,49052,1,8,0:3:0:0:
214,230,49130,1,8,0:3:0:0:
196,228,49209,1,8,0:3:0:0:
178,226,49287,1,8,0:3:0:0:
160,224,49366,1,8,0:3:0:0:
142,222,49444,1,8,0:3:0:0:
122,233,49523,6,0,L|109:129,1,80.9999975280763,6|0,1:2|0:0,0:0:0:0:
239,0,49837,1,0,1:2:0:0:
55,60,49994,1,8,0:0:0:0:
55,60,50072,1,8,0:0:0:0:
55,60,50151,2,0,L|164:76,1,80.9999975280763,4|8,1:2|0:0,0:0:0:0:
299,181,50465,1,8,0:0:0:0:
331,175,50543,1,8,0:0:0:0:
365,171,50622,1,8,0:0:0:0:
398,166,50700,1,8,0:0:0:0:
431,164,50779,6,0,B|477:130|477:130|448:8,1,161.999995056153,6|2,1:2|1:2,0:0:0:0:
452,28,51250,1,0,1:2:0:0:
299,181,51408,5,2,0:0:0:0:
203,159,51565,1,8,0:0:0:0:
361,131,51722,5,2,1:2:0:0:
135,199,51879,1,8,0:2:0:0:
336,52,52036,5,10,0:0:0:0:
401,274,52193,1,8,0:0:0:0:
252,170,52350,1,10,0:0:0:0:
442,193,52507,5,8,0:0:0:0:
314,284,52664,1,2,1:2:0:0:
446,346,52821,1,0,1:2:0:0:
377,125,52978,1,10,0:0:0:0:
232,337,53135,5,0,1:2:0:0:
218,339,53213,1,0,1:2:0:0:
205,341,53292,1,12,0:0:0:0:
0,116,53449,2,0,L|24:13,1,80.9999975280763,8|0,0:0|0:0,0:0:0:0:
88,318,53764,5,8,0:0:0:0:
229,50,53921,2,0,L|124:74,1,80.9999975280763,8|0,0:0|0:0,0:0:0:0:
430,296,54235,5,8,0:0:0:0:
333,10,54392,2,0,L|342:124,1,80.9999975280763,8|0,0:0|0:0,0:0:0:0:
251,365,54706,5,8,0:0:0:0:
512,141,54863,2,0,L|503:193,1,40.4999987640381,10|2,0:0|0:3,0:0:0:0:
505,180,55177,6,2,P|453:154|409:159,1,94.4999971160889,2|0,0:1|0:0,0:1:0:0:
326,205,55805,6,0,L|341:71,1,107.999996704102,6|0,1:2|1:2,0:0:0:0:
51,238,56120,2,0,P|129:236|185:292,1,161.999995056153,10|0,0:0|0:0,0:0:0:0:
146,383,56434,2,0,L|268:363,1,107.999996704102,2|0,1:2|1:2,0:0:0:0:
456,336,56748,1,10,0:0:0:0:
224,168,56905,5,2,0:0:0:0:
224,168,56983,1,2,0:0:0:0:
224,168,57062,2,0,P|231:115|244:35,1,107.999996704102,2|0,1:2|1:2,0:0:0:0:
464,184,57376,1,10,0:0:0:0:
376,8,57533,5,0,0:0:0:0:
371,30,57611,1,8,0:0:0:0:
366,52,57690,1,2,1:2:0:0:
322,258,57847,1,0,1:2:0:0:
138,105,58004,2,0,P|78:119|13:131,1,107.999996704102,10|0,0:0|0:0,0:0:0:0:
233,333,58319,5,2,1:2:0:0:
288,66,58476,1,0,1:2:0:0:
441,286,58633,2,0,P|388:273|335:263,1,107.999996704102,10|8,0:0|0:0,0:0:0:0:
244,238,58868,1,8,0:0:0:0:
224,234,58947,1,2,1:2:0:0:
401,128,59104,1,0,1:2:0:0:
221,4,59261,2,0,P|195:64|223:139,1,107.999996704102,10|0,0:2|0:2,0:0:0:0:
288,380,59575,6,0,P|220:328|114:355,1,161.999995056153,2|0,1:2|0:0,0:0:0:0:
64,381,59889,2,0,L|48:268,1,107.999996704102,8|8,0:2|0:2,0:0:0:0:
39,195,60125,1,8,0:0:0:0:
35,171,60203,1,2,1:2:0:0:
254,209,60360,1,0,1:2:0:0:
172,31,60517,1,8,0:0:0:0:
172,31,60596,1,8,0:0:0:0:
172,31,60675,2,0,L|160:91,1,53.9999983520508,8|8,0:0|0:0,0:0:0:0:
108,366,60832,5,6,1:2:0:0:
50,94,60989,1,0,0:0:0:0:
241,343,61146,5,8,0:0:0:0:
250,31,61303,1,0,1:2:0:0:
407,363,61460,5,10,0:0:0:0:
464,44,61617,1,0,1:2:0:0:
174,184,61774,1,10,0:0:0:0:
400,270,61931,5,0,1:2:0:0:
400,270,62010,1,0,1:0:0:0:
400,270,62088,2,0,L|511:252,1,107.999996704102,14|0,0:0|1:2,0:0:0:0:
234,25,62402,2,0,L|345:43,1,107.999996704102,10|0,0:0|1:2,0:0:0:0:
188,323,62716,5,10,0:0:0:0:
116,15,62874,1,0,1:2:0:0:
8,266,63031,1,10,0:0:0:0:
320,160,63188,1,0,0:0:0:0:
104,0,63345,6,0,L|88:72,1,53.9999983520508,2|0,1:2|0:0,0:0:0:0:
168,192,63502,2,0,L|152:120,1,53.9999983520508,0|0,1:2|0:0,0:0:0:0:
258,101,63659,6,0,B|344:89|315:146|412:130,1,161.999995056153,14|0,0:0|0:0,0:0:0:0:
329,213,63973,6,0,L|317:145,1,53.9999983520508,2|0,1:2|0:0,0:0:0:0:
496,296,64130,2,0,L|508:228,1,53.9999983520508,0|0,1:2|0:0,0:0:0:0:
348,371,64287,6,0,B|312:332|264:344|264:344|235:380|169:366,1,161.999995056153,14|0,0:0|1:2,0:0:0:0:
94,323,64601,5,14,0:0:0:0:
81,314,64680,1,8,0:0:0:0:
68,305,64758,2,0,L|14:321,1,53.9999983520508,8|8,0:0|0:0,0:0:0:0:
156,139,64915,5,8,0:0:0:0:
165,154,64994,1,8,0:0:0:0:
174,170,65072,2,0,L|161:245,1,53.9999983520508,8|8,0:0|0:0,0:0:0:0:
202,369,65230,5,8,0:0:0:0:
231,337,65308,1,8,0:3:0:0:
272,322,65387,1,8,0:3:0:0:
314,326,65465,1,8,0:3:0:0:
351,347,65544,1,2,1:2:0:0:
401,367,65622,1,4,1:3:0:0:
453,356,65701,1,4,1:3:0:0:
491,319,65779,1,4,1:3:0:0:
502,267,65858,1,10,0:0:0:0:
432,88,66015,6,0,B|416:112|416:112|432:160,1,53.9999983520508,0|0,1:2|1:2,0:0:0:0:
493,174,66172,2,0,B|441:148|395:179|395:179|378:225|320:232,1,188.999994232178,14|0,0:0|0:0,0:0:0:0:
296,208,66486,5,2,1:2:0:0:
62,253,66643,1,0,1:2:0:0:
168,40,66800,1,10,0:0:0:0:
207,309,66957,1,0,0:0:0:0:
8,168,67114,6,0,P|60:157|113:146,1,107.999996704102,2|0,1:2|1:2,0:0:0:0:
353,278,67428,1,10,0:0:0:0:
312,32,67586,5,2,0:0:0:0:
312,32,67664,1,10,0:0:0:0:
312,32,67743,2,0,B|282:78|282:78|300:155,1,107.999996704102,2|0,1:2|1:2,0:0:0:0:
401,367,68057,2,0,P|328:318|229:347,1,161.999995056153,10|0,0:0|0:0,0:0:0:0:
184,376,68371,6,0,L|45:346,1,107.999996704102,2|0,1:2|1:2,0:0:0:0:
264,224,68685,1,10,0:0:0:0:
24,152,68842,1,0,0:0:0:0:
24,152,68921,1,8,0:0:0:0:
24,152,68999,1,2,1:2:0:0:
213,0,69156,1,0,1:2:0:0:
160,248,69313,2,0,P|103:258|36:272,1,107.999996704102,10|0,0:0|0:0,0:0:0:0:
282,105,69627,6,0,B|318:79|368:87|368:87|388:123|443:132,1,161.999995056153,2|0,1:2|0:0,0:0:0:0:
512,96,69942,2,0,P|502:153|488:220,1,107.999996704102,8|8,0:0|0:0,0:0:0:0:
468,293,70177,1,8,0:0:0:0:
463,315,70256,1,2,1:2:0:0:
282,105,70413,1,0,1:2:0:0:
80,256,70570,5,8,0:0:0:0:
80,256,70648,1,8,0:0:0:0:
80,256,70727,2,0,L|147:247,1,53.9999983520508,8|8,0:0|0:0,0:0:0:0:
288,368,70884,5,6,1:2:0:0:
381,35,71041,1,0,0:0:0:0:
463,315,71198,1,8,0:0:0:0:
133,248,71355,1,0,1:2:0:0:
392,48,71512,6,0,L|410:162,1,107.999996704102,10|0,0:0|1:2,0:0:0:0:
133,248,71826,2,0,L|151:134,1,107.999996704102,10|0,0:0|1:2,0:0:0:0:
352,320,72141,5,14,0:0:0:0:
71,368,72298,1,0,1:2:0:0:
356,227,72455,5,10,0:0:0:0:
32,183,72612,1,0,1:2:0:0:
408,154,72769,5,10,0:0:0:0:
56,8,72926,1,0,1:2:0:0:
192,320,73083,1,10,0:0:0:0:
341,79,73240,5,0,1:2:0:0:
341,79,73319,1,0,1:2:0:0:
341,79,73397,2,0,B|391:50|391:50|462:66,1,107.999996704102,6|0,1:2|0:0,0:0:0:0:
278,334,73711,1,8,0:0:0:0:
234,326,73789,1,8,0:0:0:0:
192,320,73868,1,8,0:0:0:0:
149,313,73946,1,8,0:0:0:0:
106,306,74025,5,6,1:2:0:0:
303,178,74182,1,0,0:0:0:0:
144,32,74339,2,0,B|125:86|125:86|149:157,1,107.999996704102,10|0,0:0|0:0,0:0:0:0:
208,384,74654,5,6,1:2:0:0:
289,161,74811,1,8,0:3:0:0:
61,211,74968,1,8,0:3:0:0:
298,338,75125,5,12,0:0:0:0:
229,95,75282,1,8,0:3:0:0:
480,168,75439,1,4,1:3:0:0:
218,251,75596,6,0,B|156:243|156:243|134:225|134:225|63:215,1,161.999995056153,12|0,0:0|0:0,0:0:0:0:
18,275,75910,6,0,P|-10:227|2:176,1,99.0000030212403,6|0,1:2|0:0,0:0:0:0:
212,15,76224,1,8,0:0:0:0:
2,86,76381,1,0,0:0:0:0:
2,86,76459,1,8,0:0:0:0:
2,86,76538,2,0,L|120:117,1,99.0000030212403,0|0,1:2|1:2,0:0:0:0:
337,277,76852,2,0,P|408:265|419:168,1,148.50000453186,8|0,0:0|0:0,0:0:0:0:
472,115,77166,6,0,L|358:122,1,99.0000030212403,0|0,1:2|1:2,0:0:0:0:
193,27,77480,1,8,0:0:0:0:
253,261,77637,1,0,0:0:0:0:
253,261,77715,1,8,0:0:0:0:
253,261,77794,2,0,L|262:130,1,99.0000030212403,0|0,1:2|1:2,0:0:0:0:
47,273,78109,2,0,L|40:371,1,99.0000030212403,8|0,0:0|0:0,0:0:0:0:
138,115,78423,5,0,1:2:0:0:
348,237,78580,1,0,1:2:0:0:
178,331,78737,2,0,P|153:286|173:215,1,99.0000030212403,8|0,0:0|0:0,0:0:0:0:
171,218,78973,1,8,0:0:0:0:
171,218,79051,1,0,1:2:0:0:
329,36,79208,1,0,1:2:0:0:
126,102,79365,2,0,L|29:82,1,99.0000030212403,8|0,0:2|0:2,0:0:0:0:
311,204,79679,5,0,1:2:0:0:
229,2,79836,1,0,1:2:0:0:
453,151,79993,2,0,L|463:249,1,99.0000030212403,8|8,0:0|0:0,0:0:0:0:
472,280,80230,1,8,0:0:0:0:
472,280,80308,1,0,1:2:0:0:
274,113,80465,1,0,1:2:0:0:
146,317,80622,2,0,P|73:313|100:223,1,148.50000453186,12|0,0:2|0:0,0:0:0:0:
144,229,80936,6,0,B|214:241|214:241|242:292|242:292|327:310,1,198.000006042481,12|8,0:0|0:0,0:0:0:0:
46,347,81407,1,0,0:0:0:0:
295,115,81564,5,8,0:0:0:0:
218,378,81721,1,0,1:2:0:0:
158,66,81878,5,8,0:0:0:0:
324,318,82035,1,0,1:2:0:0:
366,62,82192,5,14,0:0:0:0:
62,164,82349,1,0,0:0:0:0:
383,175,82507,5,8,0:0:0:0:
73,0,82664,1,0,1:2:0:0:
122,297,82821,5,8,0:0:0:0:
238,15,82978,1,0,1:2:0:0:
53,77,83135,1,8,0:0:0:0:
53,77,83213,1,8,0:0:0:0:
53,77,83292,2,0,L|-32:66,1,49.5000015106202,8|8,1:2|0:0,0:0:0:0:
304,204,83449,6,0,B|396:186|363:241|464:225,1,148.50000453186,12|0,0:0|0:0,0:0:0:0:
467,220,83764,1,12,0:0:0:0:
233,90,83920,1,0,1:0:0:0:
318,339,84077,2,0,L|331:262,1,49.5000015106202,8|0,0:0|0:0,0:0:0:0:
145,64,84234,5,8,0:0:0:0:
113,50,84312,1,8,0:0:0:0:
78,53,84391,1,8,0:0:0:0:
49,72,84469,1,8,0:0:0:0:
32,103,84548,1,8,0:0:0:0:
32,138,84626,1,8,0:0:0:0:
49,169,84706,5,2,0:3:0:0:
233,90,84863,2,0,B|331:77|331:77|351:97|382:103,1,148.50000453186,2|0,1:0|0:0,0:0:0:0:
494,70,85177,6,0,P|454:7|386:36,1,148.50000453186,2|0,1:0|0:0,0:0:0:0:
373,101,85491,6,0,L|320:107,1,49.5000015106202,2|0,1:0|0:0,0:0:0:0:
145,64,85648,5,2,3:0:0:0:
128,60,85726,1,2,3:0:0:0:
112,56,85805,1,2,3:0:0:0:
96,53,85883,1,2,3:0:0:0:
21,38,85963,6,0,L|31:130,1,80.9999975280763,6|0,1:2|1:2,0:0:0:0:
136,224,86277,1,8,0:0:0:0:
3,267,86434,1,8,0:3:0:0:
3,267,86512,1,8,0:3:0:0:
3,267,86591,2,0,P|53:215|140:227,1,161.999995056153,8|8,1:3|0:0,0:0:0:0:
200,344,87062,6,0,L|102:325,1,80.9999975280763,0|0,1:2|1:2,0:0:0:0:
264,232,87376,2,0,L|362:213,1,80.9999975280763,0|8,1:2|0:2,0:0:0:0:
512,184,87690,1,8,0:3:0:0:
512,184,87769,1,8,0:3:0:0:
512,184,87847,1,8,1:3:0:0:
384,80,88004,1,8,1:3:0:0:
440,256,88161,2,0,P|434:298|429:338,1,80.9999975280763,8|0,0:0|1:2,0:0:0:0:
264,232,88476,5,0,1:2:0:0:
288,384,88633,1,0,1:2:0:0:
257,216,88790,2,0,L|276:106,1,80.9999975280763,8|8,0:2|0:3,0:0:0:0:
356,83,89025,1,8,0:3:0:0:
339,87,89104,2,0,B|284:94|284:94|250:72|250:72|161:82,1,161.999995056153,8|8,1:3|0:0,0:0:0:0:
0,153,89575,6,0,P|39:164|113:190,1,80.9999975280763,0|0,1:2|1:2,0:0:0:0:
124,26,89889,2,0,P|94:54|35:105,1,80.9999975280763,0|8,1:2|0:2,0:0:0:0:
171,196,90203,1,8,0:3:0:0:
171,196,90282,1,8,0:3:0:0:
171,196,90360,2,0,P|161:156|146:79,1,80.9999975280763,8|4,1:3|1:3,0:0:0:0:
252,253,90675,1,8,0:0:0:0:
80,336,90832,5,8,0:3:0:0:
80,336,90910,1,4,0:3:0:0:
80,336,90989,2,0,B|161:318|161:318|226:361,1,121.499996292114,4|0,1:2|0:0,0:0:0:0:
264,376,91303,2,0,L|352:359,1,80.9999975280763,8|8,0:0|0:3,0:0:0:0:
480,256,91617,5,8,0:3:0:0:
296,200,91774,1,4,1:3:0:0:
434,85,91931,1,8,0:0:0:0:
379,295,92088,5,4,1:3:0:0:
379,295,92167,1,4,1:3:0:0:
379,295,92245,2,0,L|396:396,1,80.9999975280763,4|0,1:2|1:2,0:0:0:0:
214,237,92559,2,0,P|155:205|74:235,1,121.499996292114,8|8,0:0|0:3,0:0:0:0:
31,251,92874,2,0,P|25:211|14:150,1,80.9999975280763,4|0,1:3|1:2,0:0:0:0:
187,26,93188,2,0,P|181:66|170:127,1,80.9999975280763,8|0,0:0|1:2,0:0:0:0:
145,294,93502,6,0,B|240:274|240:274|268:305|332:310,1,161.999995056153,4|8,1:2|0:0,0:0:0:0:
511,238,93973,1,0,1:2:0:0:
305,175,94130,1,8,0:0:0:0:
383,364,94287,6,0,P|388:323|395:284,1,80.9999975280763,0|2,1:0|1:3,0:0:0:0:
503,183,94601,1,8,0:0:0:0:
310,90,94758,5,0,1:0:0:0:
256,328,94915,1,0,1:0:0:0:
71,186,95072,6,0,B|111:142|163:159|163:159|187:192|238:191,1,175.499991966248,12|0,0:0|0:0,0:0:0:0:
259,172,95387,1,12,0:0:0:0:
466,205,95544,5,8,0:0:0:0:
480,242,95622,1,8,0:0:0:0:
478,282,95701,1,8,1:2:0:0:
459,317,95779,1,8,0:0:0:0:
426,341,95858,1,8,0:0:0:0:
387,348,95936,1,8,0:0:0:0:
348,338,96015,1,8,0:0:0:0:
348,338,96486,5,8,0:0:0:0:
304,72,96643,1,8,1:2:0:0:
304,72,97114,6,0,L|310:33,1,20.2499993820191,8|0,1:2|0:0,0:0:0:0:
405,151,97428,2,0,L|368:165,1,20.2499993820191,8|0,1:2|0:0,0:0:0:0:
424,24,97743,2,0,L|454:48,1,20.2499993820191,8|0,1:2|0:0,0:0:0:0:
259,172,98057,5,2,0:3:0:0:
259,172,98135,1,2,0:3:0:0:
259,172,98214,2,0,B|207:168|207:168|170:187|170:187|92:179,1,148.50000453186,2|0,0:3|0:0,0:0:0:0:
56,120,98528,5,8,0:0:0:0:
56,120,98999,1,8,0:0:0:0:
96,384,99156,1,8,1:2:0:0:
96,384,99627,6,0,L|119:378,1,20.2499993820191,8|0,1:2|0:0,0:0:0:0:
24,304,99942,2,0,L|17:326,1,20.2499993820191,8|0,1:2|0:0,0:0:0:0:
129,282,100256,1,8,1:2:0:0:
40,160,100413,5,8,0:0:0:0:
43,140,100491,1,8,0:3:0:0:
46,120,100570,1,8,0:3:0:0:
49,100,100648,1,8,0:3:0:0:
55,81,100727,2,0,B|153:61|153:61|174:95|216:95,1,175.499991966248,12|0,0:0|0:0,0:0:0:0:
290,62,101041,5,6,1:2:0:0:
312,309,101198,1,2,1:2:0:0:
468,175,101355,2,0,B|437:138|384:153|384:153|371:180|315:196,1,148.50000453186,12|0,0:0|0:0,0:0:0:0:
279,233,101669,2,0,L|180:223,1,99.0000030212403,2|0,1:2|1:2,0:0:0:0:
2,91,101983,2,0,P|68:39|158:64,1,148.50000453186,12|0,0:0|0:0,0:0:0:0:
207,7,102298,6,0,L|223:112,1,99.0000030212403,2|0,1:2|1:2,0:0:0:0:
48,328,102612,1,14,0:2:0:0:
92,140,102769,1,0,1:2:0:0:
92,140,102847,1,0,1:0:0:0:
92,140,102926,1,2,1:2:0:0:
217,356,103083,1,0,1:2:0:0:
0,241,103240,2,0,P|69:232|133:220,1,99.0000030212403,14|0,0:2|0:2,0:0:0:0:
356,79,103554,5,6,1:2:0:0:
318,332,103711,1,0,0:0:0:0:
501,195,103868,1,10,0:0:0:0:
217,128,104025,1,0,0:0:0:0:
456,296,104182,5,12,0:0:0:0:
400,0,104339,1,0,1:2:0:0:
232,262,104497,1,12,0:0:0:0:
112,32,104654,5,0,1:2:0:0:
112,32,104732,1,0,1:0:0:0:
112,32,104811,2,0,L|176:40,1,49.5000015106202,0|0,1:2|0:0,0:0:0:0:
328,184,104968,2,0,L|264:192,1,49.5000015106202,8|0,0:0|0:0,0:0:0:0:
95,293,105125,5,8,0:0:0:0:
62,275,105203,1,8,0:0:0:0:
42,244,105282,1,8,0:0:0:0:
40,208,105360,1,8,0:0:0:0:
56,174,105439,2,0,B|142:165|107:237|216:223,1,157.499995193482,2|0,0:0|0:0,0:0:0:0:
278,190,105910,2,0,L|285:121,1,45,2|0,0:0|0:0,0:0:0:0:
473,29,106067,6,0,L|466:103,1,53.9999983520508,6|0,1:2|0:0,0:0:0:0:
385,9,106381,2,0,L|378:83,1,53.9999983520508,0|0,1:2|0:0,0:0:0:0:
282,144,106696,6,0,L|277:91,1,53.9999983520508,2|0,1:2|0:0,0:0:0:0:
194,164,107010,2,0,L|189:111,1,53.9999983520508,0|2,1:2|0:0,0:0:0:0:
19,49,107324,6,0,P|65:39|87:46,1,53.9999983520508,6|0,1:2|0:0,0:0:0:0:
189,111,107638,2,0,P|162:111|137:102,1,53.9999983520508,0|0,1:2|0:0,0:0:0:0:
0,184,107952,6,0,P|46:174|68:181,1,53.9999983520508,2|0,1:2|0:0,0:0:0:0:
170,246,108266,2,0,P|143:246|118:237,1,53.9999983520508,2|0,1:2|0:0,0:0:0:0:
65,93,108580,6,0,L|70:40,1,53.9999983520508,6|0,1:2|0:0,0:0:0:0:
184,164,108894,2,0,L|188:110,1,53.9999983520508,0|0,1:2|0:0,0:0:0:0:
82,258,109209,2,0,L|86:204,1,53.9999983520508,0|0,1:2|0:0,0:0:0:0:
210,361,109523,2,0,L|217:277,1,80.9999975280763,2|0,1:2|0:0,0:0:0:0:
274,223,109837,6,0,P|322:216|355:294,1,135,4|0,1:2|0:0,0:0:0:0:
373,297,110151,2,0,L|416:293,1,36,0|0,1:0|0:0,0:0:0:0:
502,280,110308,1,8,0:3:0:0:
500,291,110386,1,8,0:3:0:0:
499,303,110465,1,8,0:3:0:0:
388,185,110623,1,8,0:3:0:0:
386,196,110701,1,8,0:3:0:0:
385,208,110780,1,4,0:3:0:0:
509,79,110937,5,4,0:3:0:0:
507,90,111015,1,4,0:3:0:0:
506,102,111093,2,0,L|421:91,1,72,4|0,1:2|0:0,0:0:0:0:
388,185,111408,2,0,L|303:174,1,72,2|2,1:2|0:0,0:0:0:0:
101,18,111722,6,0,L|186:7,1,72,2|0,1:2|0:0,0:0:0:0:
224,101,112036,2,0,L|309:90,1,72,6|0,1:2|0:0,0:0:0:0:
162,196,112350,6,0,P|144:162|146:126,1,72,6|0,1:2|0:0,0:0:0:0:
295,91,112664,2,0,P|312:124|310:160,1,72,2|0,1:2|0:0,0:0:0:0:
59,296,112978,6,0,P|58:261|76:230,1,72,2|0,1:2|0:0,0:0:0:0:
231,276,113292,2,0,P|232:311|215:343,1,72,6|0,1:2|0:0,0:0:0:0:
73,135,113607,6,0,L|157:128,1,72,6|0,1:2|0:0,0:0:0:0:
231,276,113921,2,0,L|315:269,1,72,0|0,1:2|0:0,0:0:0:0:
7,382,114235,6,0,L|91:375,1,72,0|0,1:2|0:0,0:0:0:0:
118,213,114549,2,0,L|202:206,1,72,6|0,1:2|0:0,0:0:0:0:
401,358,114863,5,6,1:2:0:0:
433,198,115020,1,8,0:0:0:0:
391,366,115177,2,0,L|371:261,1,72,8|0,0:3|0:3,0:0:0:0:
365,279,115413,1,8,0:3:0:0:
365,279,115491,1,4,0:3:0:0:
486,123,115648,6,0,L|496:61,1,36,12|0,0:0|0:0,0:0:0:0:
284,234,115805,6,0,B|206:226|238:291|138:275,1,135,12|0,0:0|0:0,0:0:0:0:
90,242,116120,6,0,B|35:151|84:63|203:107|145:186,1,252,4|0,1:2|0:0,0:0:0:0:
150,178,116748,2,0,L|207:172,1,54,2|0,0:3|0:0,0:0:0:0:
311,302,117376,6,0,B|408:294|356:375|470:367,1,161.999995056153,4|0,1:2|0:0,0:0:0:0:
501,281,118004,5,8,0:3:0:0:
401,305,118240,1,8,0:3:0:0:
296,330,118476,1,4,0:3:0:0:
385,122,118633,6,0,P|419:99|473:201,1,188.999994232178,6|0,1:2|0:0,0:0:0:0:
480,193,119261,2,0,L|422:200,1,54,2|0,0:3|0:0,0:0:0:0:
317,78,119889,6,0,B|261:85|261:85|246:108|246:108|186:118,1,135,4|0,1:2|0:0,0:0:0:0:
124,187,120203,2,0,B|82:157|82:157|121:59,1,135,4|0,1:2|0:0,0:0:0:0:
206,27,120517,2,0,L|192:141,1,90,4|0,1:2|1:2,0:0:0:0:
258,234,120753,1,0,1:2:0:0:
272,223,120832,2,0,B|348:212|322:276|407:267,1,135,12|0,0:0|0:0,0:0:0:0:
508,217,121146,5,4,1:2:0:0:
508,217,121460,5,2,1:2:0:0:
318,285,121617,1,8,0:0:0:0:
501,384,121774,1,0,1:2:0:0:
386,160,121931,1,8,0:0:0:0:
101,344,122088,6,0,P|63:289|89:249,1,90,8|8,0:0|0:0,0:0:0:0:
114,212,122324,1,8,0:0:0:0:
114,212,122402,1,0,1:2:0:0:
305,378,122559,1,8,0:3:0:0:
311,131,122716,5,8,0:0:0:0:
311,131,122795,1,8,0:0:0:0:
311,131,122874,1,8,0:0:0:0:
124,333,123031,1,8,0:3:0:0:
18,60,123188,1,8,0:0:0:0:
39,79,123267,1,8,0:0:0:0:
65,95,123345,1,8,0:0:0:0:
93,105,123424,1,8,0:0:0:0:
123,110,123502,1,8,0:0:0:0:
153,108,123581,1,8,0:0:0:0:
182,101,123659,5,2,0:0:0:0:
256,192,123737,12,0,124837,0:0:0:0:
462,41,124915,5,8,0:0:0:0:
379,332,125072,1,8,1:2:0:0:
462,41,125387,6,0,L|468:94,1,45,8|0,0:0|0:0,0:0:0:0:
61,115,125858,6,0,B|26:94|43:43|43:43|86:68|78:106,1,135,2|0,0:0|0:0,0:0:0:0:
8,176,126172,6,0,L|23:310,1,107.999996704102,6|0,1:2|1:2,0:0:0:0:
120,375,126486,2,0,P|180:310|283:342,1,161.999995056153,10|8,0:0|0:0,0:0:0:0:
308,366,126801,2,0,L|430:346,1,107.999996704102,2|0,1:2|1:2,0:0:0:0:
476,129,127115,1,10,0:0:0:0:
259,213,127272,5,2,0:0:0:0:
259,213,127350,1,2,0:0:0:0:
259,213,127429,2,0,P|312:220|392:233,1,107.999996704102,0|0,1:2|1:0,0:0:0:0:
476,129,127743,1,10,0:0:0:0:
253,15,127900,5,2,0:0:0:0:
231,20,127978,1,10,0:0:0:0:
209,25,128057,1,2,1:2:0:0:
390,143,128214,1,0,1:2:0:0:
195,273,128371,2,0,P|169:225|188:154,1,107.999996704102,10|0,0:2|0:0,0:0:0:0:
25,91,128686,5,2,1:2:0:0:
251,207,128843,1,0,1:2:0:0:
43,337,128999,1,10,0:0:0:0:
270,209,129156,1,8,0:0:0:0:
290,213,129235,1,8,0:0:0:0:
310,217,129314,1,2,1:2:0:0:
198,18,129470,1,0,1:2:0:0:
151,268,129627,2,0,L|131:383,1,107.999996704102,10|0,0:0|0:0,0:0:0:0:
411,228,129942,5,2,1:2:0:0:
365,29,130099,1,0,1:0:0:0:
200,160,130256,2,0,P|146:151|93:142,1,107.999996704102,8|8,0:0|0:0,0:0:0:0:
19,129,130491,1,8,0:0:0:0:
1,124,130570,1,2,1:2:0:0:
200,160,130727,1,0,1:2:0:0:
64,304,130884,1,8,0:0:0:0:
64,304,130963,1,8,0:0:0:0:
64,304,131042,2,0,L|52:244,1,53.9999983520508,8|8,0:0|0:0,0:0:0:0:
128,48,131198,5,6,1:2:0:0:
64,304,131355,1,0,0:0:0:0:
278,22,131512,5,8,0:0:0:0:
232,336,131669,1,0,1:2:0:0:
32,120,131826,5,10,0:0:0:0:
363,195,131983,1,0,1:2:0:0:
16,112,132141,1,10,0:0:0:0:
336,288,132298,5,0,1:2:0:0:
336,288,132377,1,0,1:0:0:0:
336,288,132455,2,0,L|447:270,1,107.999996704102,14|0,0:0|1:2,0:0:0:0:
240,31,132769,2,0,P|216:80|218:133,1,107.999996704102,10|0,0:0|1:2,0:0:0:0:
128,384,133083,5,10,0:0:0:0:
320,195,133241,1,0,1:2:0:0:
32,120,133398,1,10,0:0:0:0:
304,352,133555,1,0,0:0:0:0:
16,384,133712,6,0,L|0:312,1,53.9999983520508,2|0,1:2|0:0,0:0:0:0:
128,176,133869,2,0,L|112:248,1,53.9999983520508,0|0,1:2|0:0,0:0:0:0:
304,352,134025,6,0,B|358:339|358:339|406:363|406:363|497:342,1,161.999995056153,14|0,0:0|0:0,0:0:0:0:
416,280,134340,6,0,L|404:212,1,53.9999983520508,2|0,1:2|0:0,0:0:0:0:
504,80,134497,2,0,L|492:148,1,53.9999983520508,0|0,1:2|0:0,0:0:0:0:
288,208,134654,2,0,P|224:153|131:169,1,161.999995056153,12|0,0:0|0:0,0:0:0:0:
56,184,134968,5,4,0:3:0:0:
47,171,135047,1,8,0:0:0:0:
38,158,135125,2,0,L|54:104,1,53.9999983520508,8|8,0:0|0:0,0:0:0:0:
224,32,135282,5,8,0:0:0:0:
233,47,135361,1,8,0:0:0:0:
242,63,135439,2,0,L|229:138,1,53.9999983520508,8|8,0:0|0:0,0:0:0:0:
208,360,135596,5,8,1:3:0:0:
248,377,135675,1,8,0:0:0:0:
291,373,135753,1,8,0:0:0:0:
318,349,135832,1,8,0:0:0:0:
331,309,135910,5,10,0:2:0:0:
310,269,135989,1,8,1:3:0:0:
305,228,136067,1,4,1:3:0:0:
324,184,136146,1,4,1:3:0:0:
356,157,136224,1,2,1:2:0:0:
457,253,136381,6,0,L|377:235,1,53.9999983520508,0|0,1:2|0:0,0:0:0:0:
211,53,136538,6,0,B|140:66|140:66|118:101|118:101|0:128,1,188.999994232178,14|0,0:0|0:0,0:0:0:0:
25,99,136853,5,2,1:2:0:0:
58,311,137010,1,0,1:0:0:0:
258,134,137167,1,10,0:0:0:0:
185,377,137324,1,0,0:0:0:0:
389,239,137481,6,0,P|337:250|284:261,1,107.999996704102,2|0,1:2|1:2,0:0:0:0:
117,96,137795,1,10,0:0:0:0:
58,311,137953,5,0,0:0:0:0:
58,311,138031,1,8,0:0:0:0:
58,311,138110,2,0,B|88:265|88:265|70:188,1,107.999996704102,2|0,1:2|1:2,0:0:0:0:
192,32,138423,2,0,B|254:46|254:46|274:72|274:72|344:86,1,161.999995056153,10|0,0:0|0:0,0:0:0:0:
409,38,138737,6,0,P|441:100|422:168,1,107.999996704102,2|0,1:2|1:2,0:0:0:0:
347,373,139052,1,10,0:2:0:0:
250,186,139209,1,0,0:2:0:0:
270,171,139287,1,8,0:0:0:0:
298,172,139366,1,2,1:2:0:0:
439,261,139523,1,0,1:2:0:0:
206,347,139680,2,0,P|149:337|82:323,1,107.999996704102,10|0,0:0|0:0,0:0:0:0:
0,143,139994,5,2,1:2:0:0:
41,384,140151,1,0,1:2:0:0:
224,224,140308,2,0,P|286:238|340:247,1,107.999996704102,8|8,0:0|0:0,0:0:0:0:
407,269,140544,1,8,0:0:0:0:
430,276,140623,1,2,1:2:0:0:
315,91,140780,1,0,1:2:0:0:
216,330,140937,5,10,0:0:0:0:
216,330,141015,1,8,0:0:0:0:
216,330,141094,2,0,L|283:321,1,53.9999983520508,8|8,0:0|0:0,0:0:0:0:
362,384,141251,5,6,1:2:0:0:
461,93,141408,1,0,0:0:0:0:
202,231,141565,1,8,0:0:0:0:
512,290,141722,1,0,1:0:0:0:
308,59,141879,6,0,L|326:173,1,107.999996704102,10|0,0:0|1:2,0:0:0:0:
71,368,142193,2,0,L|53:254,1,107.999996704102,10|0,0:0|1:2,0:0:0:0:
198,42,142507,5,14,0:0:0:0:
150,309,142664,1,0,0:2:0:0:
331,74,142821,1,10,0:0:0:0:
349,370,142978,1,0,1:0:0:0:
106,174,143135,5,10,0:0:0:0:
447,85,143292,1,0,1:0:0:0:
349,370,143449,1,10,0:0:0:0:
229,116,143607,5,0,1:0:0:0:
229,116,143685,1,0,1:0:0:0:
229,116,143764,2,0,L|243:9,1,107.999996704102,6|0,1:2|0:0,0:0:0:0:
390,208,144078,5,8,0:0:0:0:
373,244,144156,1,8,0:0:0:0:
343,270,144235,1,8,0:0:0:0:
304,281,144313,1,8,0:0:0:0:
264,274,144392,2,0,L|157:288,1,107.999996704102,6|0,1:2|0:0,0:0:0:0:
0,111,144706,5,10,0:0:0:0:
29,72,144784,1,8,0:0:0:0:
73,52,144863,1,8,0:0:0:0:
121,51,144941,1,8,0:0:0:0:
165,69,145020,2,0,L|175:122,1,53.9999983520508,6|0,1:2|0:0,0:0:0:0:
59,303,145177,2,0,L|69:249,1,53.9999983520508,8|8,0:0|0:3,0:0:0:0:
252,183,145334,5,8,0:3:0:0:
252,183,145413,1,8,0:3:0:0:
252,183,145491,2,0,L|309:194,1,53.9999983520508,8|4,0:3|0:3,0:0:0:0:
390,208,145648,1,4,0:3:0:0:
512,96,145805,5,8,0:3:0:0:
501,61,145883,1,8,0:3:0:0:
479,33,145962,1,8,0:3:0:0:
449,14,146040,1,8,0:3:0:0:
414,6,146119,1,4,0:3:0:0:
378,11,146197,1,4,0:3:0:0:
346,28,146277,2,0,L|356:128,1,99.0000030212403,4|0,1:2|0:0,0:0:0:0:
262,352,146591,5,10,0:0:0:0:
481,225,146748,1,2,0:0:0:0:
481,225,146826,1,2,0:0:0:0:
481,225,146905,2,0,P|423:200|366:223,1,99.0000030212403,2|2,1:2|1:2,0:0:0:0:
219,98,147219,1,10,0:0:0:0:
359,308,147376,1,2,1:2:0:0:
45,254,147533,5,0,0:0:0:0:
304,180,147690,1,2,1:2:0:0:
156,339,147847,1,10,0:0:0:0:
59,109,148004,1,8,0:0:0:0:
59,109,148083,1,8,0:0:0:0:
59,109,148161,2,0,P|124:142|165:128,1,99.0000030212403,0|0,1:2|1:2,0:0:0:0:
327,13,148476,2,0,L|315:182,1,148.50000453186,10|0,0:0|0:0,0:0:0:0:
382,211,148790,6,0,L|511:196,1,99.0000030212403,4|0,1:2|0:0,0:0:0:0:
297,314,149104,1,8,0:0:0:0:
361,92,149261,1,2,0:0:0:0:
361,92,149339,1,10,0:0:0:0:
361,92,149418,1,2,1:2:0:0:
503,218,149575,1,2,1:2:0:0:
283,327,149732,2,0,L|160:308,1,99.0000030212403,10|2,0:0|1:2,0:0:0:0:
442,383,150046,5,2,0:0:0:0:
282,182,150203,1,0,1:2:0:0:
114,381,150360,2,0,L|101:272,1,99.0000030212403,10|0,0:0|0:0,0:0:0:0:
50,216,150596,1,8,0:0:0:0:
50,216,150675,2,0,P|111:231|161:193,1,99.0000030212403,2|0,1:2|1:2,0:0:0:0:
362,71,150989,2,0,P|415:62|428:161,1,148.50000453186,10|0,0:0|0:0,0:0:0:0:
373,166,151303,6,0,L|260:149,1,99.0000030212403,4|0,1:2|0:0,0:0:0:0:
50,216,151617,1,10,0:0:0:0:
116,10,151774,1,2,0:0:0:0:
116,10,151853,1,8,0:0:0:0:
116,10,151931,2,0,P|149:68|122:135,1,99.0000030212403,2|0,1:2|1:2,0:0:0:0:
33,308,152245,1,10,0:0:0:0:
206,210,152402,1,2,0:2:0:0:
375,379,152559,6,0,L|501:362,1,99.0000030212403,0|2,1:2|1:2,0:0:0:0:
302,224,152874,1,10,0:0:0:0:
452,92,153031,1,8,0:0:0:0:
452,92,153109,1,8,0:0:0:0:
452,92,153188,2,0,P|477:150|443:211,1,99.0000030212403,2|0,1:2|1:2,0:0:0:0:
292,239,153502,2,0,B|186:217|186:217|138:241,1,148.50000453186,10|0,0:2|0:0,0:0:0:0:
80,300,153816,6,0,L|64:173,1,99.0000030212403,6|0,1:2|0:0,0:0:0:0:
312,331,154130,1,8,0:0:0:0:
196,80,154287,1,0,1:0:0:0:
196,80,154366,1,8,0:0:0:0:
196,80,154444,2,0,L|208:178,1,99.0000030212403,0|0,1:2|1:2,0:0:0:0:
390,372,154758,2,0,P|407:321|360:253,1,99.0000030212403,8|2,0:0|0:0,0:0:0:0:
198,193,155072,5,0,1:2:0:0:
463,70,155230,1,0,1:2:0:0:
489,378,155387,1,8,0:0:0:0:
369,180,155544,1,0,1:2:0:0:
63,379,155701,5,8,0:0:0:0:
3,123,155858,1,8,0:0:0:0:
23,97,155936,1,8,0:0:0:0:
50,78,156015,1,8,0:0:0:0:
81,68,156093,1,8,0:0:0:0:
114,68,156172,1,8,0:0:0:0:
145,77,156250,1,8,0:0:0:0:
173,96,156329,2,0,L|164:210,1,99.0000030212403,4|0,1:2|0:0,0:0:0:0:
364,8,156643,5,10,0:0:0:0:
457,192,156800,1,2,0:0:0:0:
457,192,156879,1,8,0:0:0:0:
457,192,156957,2,0,L|332:165,1,99.0000030212403,2|0,1:2|1:2,0:0:0:0:
215,20,157271,1,10,0:0:0:0:
135,216,157428,1,2,0:2:0:0:
338,78,157586,6,0,L|350:182,1,99.0000030212403,0|2,1:2|1:2,0:0:0:0:
211,278,157900,1,10,0:0:0:0:
415,371,158057,1,2,0:0:0:0:
415,371,158135,1,10,0:0:0:0:
415,371,158214,2,0,L|534:351,1,99.0000030212403,2|0,1:2|1:2,0:0:0:0:
212,190,158528,2,0,P|150:185|127:264,1,148.50000453186,10|0,0:0|0:0,0:0:0:0:
54,304,158842,6,0,L|40:239,1,49.5000015106202,6|0,1:2|0:0,0:0:0:0:
293,195,158999,2,0,L|279:130,1,49.5000015106202,0|0,1:2|0:0,0:0:0:0:
132,95,159156,1,8,0:0:0:0:
366,333,159313,6,0,B|354:288|307:285|307:285|217:304,1,175.499991966248,2|0,1:2|0:0,0:0:0:0:
100,384,159627,6,0,P|31:339|55:245,1,175.499991966248,2|0,1:2|0:0,0:0:0:0:
20,159,159942,6,0,B|91:173|91:173|114:214|114:214|205:230,1,198.000006042481,12|0,0:0|1:0,0:0:0:0:
255,285,160334,1,0,1:0:0:0:
270,278,160413,2,0,L|288:161,1,99.0000030212403,8|0,0:0|0:0,0:0:0:0:
162,49,160727,5,8,0:0:0:0:
414,186,160884,1,8,0:0:0:0:
414,186,160963,1,8,0:0:0:0:
414,186,161041,2,0,L|526:177,1,99.0000030212403,2|0,1:2|1:2,0:0:0:0:
119,188,161355,5,14,0:0:0:0:
425,59,161512,1,0,1:2:0:0:
379,292,161669,1,0,0:0:0:0:
162,49,161826,5,12,0:0:0:0:
512,178,161983,1,0,0:0:0:0:
264,273,162141,1,0,1:2:0:0:
276,123,162298,5,12,0:0:0:0:
399,384,162455,1,0,0:0:0:0:
498,123,162612,5,12,0:0:0:0:
186,290,162769,1,0,1:2:0:0:
254,25,162926,1,0,1:2:0:0:
402,307,163083,5,12,0:0:0:0:
107,162,163240,1,0,1:2:0:0:
280,108,163397,1,0,1:2:0:0:
189,305,163554,5,12,0:0:0:0:
80,30,163711,1,0,0:0:0:0:
28,321,163868,5,8,0:0:0:0:
397,117,164025,2,0,L|514:134,1,99.0000030212403,4|0,0:0|0:0,0:0:0:0:
374,375,164340,5,8,0:0:0:0:
99,18,164497,2,0,L|-18:35,1,99.0000030212403,4|0,0:0|0:0,0:0:0:0:
249,368,164811,5,8,0:0:0:0:
323,19,164968,1,8,0:0:0:0:
249,368,165282,5,8,0:0:0:0:
323,19,165439,1,8,0:0:0:0:
424,208,165753,6,2,B|292:188|348:272|204:246,1,216,2|0,0:1|0:0,0:1:0:0:
219,248,166381,5,6,1:2:0:0:
14,197,166538,1,2,0:0:0:0:
253,99,166696,1,10,0:0:0:0:
86,18,166853,1,2,0:0:0:0:
82,38,166931,1,10,0:0:0:0:
78,58,167010,1,2,1:2:0:0:
203,181,167167,1,2,1:2:0:0:
0,320,167324,6,0,P|53:332|117:355,1,107.999996704102,8|2,0:0|0:0,0:0:0:0:
176,377,167560,1,0,0:0:0:0:
192,374,167638,1,2,1:2:0:0:
447,280,167795,1,2,1:2:0:0:
203,181,167952,1,10,0:0:0:0:
384,336,168109,6,0,B|425:298|425:298|397:151,1,161.999995056153,2|0,1:2|0:0,0:0:0:0:
401,169,168423,1,2,1:2:0:0:
288,0,168580,2,0,L|270:112,1,107.999996704102,10|0,0:0|0:0,0:0:0:0:
223,371,168894,5,2,1:2:0:0:
120,118,169052,1,2,0:0:0:0:
392,263,169209,1,10,0:0:0:0:
91,363,169366,2,0,P|100:276|112:176,1,161.999995056153,2|0,0:0|0:0,0:0:0:0:
120,118,169680,1,2,1:2:0:0:
401,169,169837,1,10,0:0:0:0:
79,36,169994,5,2,0:2:0:0:
79,36,170072,1,2,0:0:0:0:
79,36,170151,2,0,B|122:28|122:28|143:11|143:11|229:-5,1,107.999996704102,0|2,1:2|1:2,0:0:0:0:
368,83,170465,1,10,0:0:0:0:
256,240,170622,6,0,B|223:106|306:168|272:27,1,215.999993408203,2|0,1:2|0:0,0:0:0:0:
322,308,171093,2,0,P|274:332|221:327,1,107.999996704102,10|0,0:0|0:0,0:0:0:0:
146,373,171329,5,2,0:0:0:0:
128,360,171408,2,0,L|157:144,1,215.999993408203,6|8,1:2|0:0,0:0:0:0:
400,256,171879,2,0,B|441:247|441:247|455:234|455:234|518:223,1,107.999996704102,2|2,0:0|1:2,0:0:0:0:
296,96,172193,5,2,1:2:0:0:
278,191,172350,1,10,0:0:0:0:
259,287,172507,1,2,0:0:0:0:
96,336,172664,5,2,1:2:0:0:
48,80,172821,1,2,1:2:0:0:
96,336,172978,1,10,0:0:0:0:
364,191,173135,6,0,B|428:198|428:198|453:226|453:226|535:236,1,161.999995056153,2|0,1:2|0:0,0:0:0:0:
512,233,173449,1,2,1:2:0:0:
259,287,173607,1,10,0:0:0:0:
456,104,173764,1,2,0:0:0:0:
168,11,173921,5,2,1:2:0:0:
111,36,174025,1,2,0:0:0:0:
96,96,174130,1,2,0:0:0:0:
122,150,174235,5,10,0:0:0:0:
160,201,174339,1,2,0:0:0:0:
148,262,174444,1,2,0:0:0:0:
107,302,174549,6,0,L|-1:314,1,107.999996704102,2|0,1:2|1:2,0:0:0:0:
0,313,174785,2,0,L|8:259,1,53.9999983520508,2|8,0:0|0:0,0:0:0:0:
256,168,175020,1,2,1:2:0:0:
62,27,175177,5,2,0:3:0:0:
104,298,175334,1,0,1:2:0:0:
125,291,175413,1,0,1:2:0:0:
140,286,175491,2,0,B|233:276|179:355|340:329,1,161.999995056153,12|0,0:0|0:0,0:0:0:0:
369,381,175805,2,0,L|390:247,1,107.999996704102,12|0,0:0|0:2,0:0:0:0:
496,104,176120,1,8,3:2:0:0:
470,63,176198,1,8,3:2:0:0:
430,40,176277,1,8,3:2:0:0:
382,40,176355,1,8,3:2:0:0:
336,64,176434,5,6,1:2:0:0:
372,233,176591,1,2,0:0:0:0:
166,100,176748,1,10,0:2:0:0:
202,269,176905,1,2,0:0:0:0:
269,167,177062,1,2,1:2:0:0:
269,167,177219,1,2,0:0:0:0:
24,48,177376,5,10,0:0:0:0:
64,272,177533,1,2,0:0:0:0:
20,31,177690,1,2,1:2:0:0:
68,289,177847,1,2,1:2:0:0:
44,160,178004,1,10,0:0:0:0:
44,160,178161,1,2,0:0:0:0:
288,336,178319,5,2,0:0:0:0:
344,48,178476,1,2,1:2:0:0:
76,313,178633,1,10,0:0:0:0:
24,48,178790,1,2,0:0:0:0:
304,248,178947,5,2,1:2:0:0:
344,48,179104,1,2,0:0:0:0:
144,8,179261,1,10,0:2:0:0:
104,208,179418,1,2,0:2:0:0:
224,128,179575,1,2,1:2:0:0:
224,128,179732,1,2,1:2:0:0:
64,352,179889,5,10,0:0:0:0:
26,94,180046,1,2,0:0:0:0:
68,371,180203,1,2,1:2:0:0:
22,74,180360,1,2,1:2:0:0:
45,223,180517,1,10,0:0:0:0:
45,223,180675,1,2,1:2:0:0:
280,256,180832,6,0,L|400:240,1,107.999996704102,8|8,0:0|0:0,0:0:0:0:
434,252,181067,1,8,0:0:0:0:
478,233,181145,1,8,0:0:0:0:
505,194,181224,1,8,0:0:0:0:
508,146,181302,1,8,0:0:0:0:
485,104,181381,1,8,0:0:0:0:
443,80,181459,5,14,0:0:0:0:
370,348,181617,1,0,0:0:0:0:
292,47,181774,5,8,0:0:0:0:
266,302,181931,1,2,1:2:0:0:
79,88,182088,5,8,0:0:0:0:
152,344,182245,1,0,1:0:0:0:
334,139,182402,1,8,0:0:0:0:
91,268,182559,5,0,1:2:0:0:
63,256,182638,1,0,1:2:0:0:
35,244,182716,1,14,0:0:0:0:
389,183,182874,1,0,0:0:0:0:
56,128,183031,5,8,0:0:0:0:
412,177,183188,1,2,1:2:0:0:
88,8,183345,5,8,0:0:0:0:
435,171,183502,1,0,1:2:0:0:
152,360,183659,2,0,L|136:253,1,107.999996704102,8|0,0:0|1:2,0:0:0:0:
323,53,183973,5,14,0:0:0:0:
323,53,184052,1,2,0:0:0:0:
323,53,184130,2,2,L|315:106,1,53.9999983520508
136,248,184287,5,10,0:0:0:0:
136,248,184366,1,2,0:0:0:0:
136,248,184444,2,2,L|128:194,1,53.9999983520508,2|2,1:2|0:0,0:0:0:0:
360,192,184601,5,10,0:0:0:0:
360,192,184680,1,2,0:0:0:0:
360,192,184758,2,2,L|306:200,1,53.9999983520508
120,104,184915,5,10,0:0:0:0:
120,104,184994,1,2,0:0:0:0:
120,104,185072,2,2,L|174:112,1,53.9999983520508
384,280,185230,5,10,0:0:0:0:
433,259,185308,1,8,0:0:0:0:
463,216,185387,1,8,0:0:0:0:
465,163,185465,1,8,0:0:0:0:
429,114,185544,2,0,L|375:122,1,53.9999983520508,8|8,0:0|0:0,0:0:0:0:
62,222,185701,5,10,0:0:0:0:
19,185,185779,1,8,0:0:0:0:
8,131,185858,1,8,0:0:0:0:
34,80,185936,1,8,0:0:0:0:
84,56,186015,1,8,0:0:0:0:
137,69,186093,1,8,0:0:0:0:
173,111,186172,1,8,0:0:0:0:
227,126,186250,1,8,0:0:0:0:
282,116,186329,1,8,0:0:0:0:
328,83,186408,1,8,0:0:0:0:
342,28,186486,5,2,1:2:0:0:
416,83,186643,2,0,L|406:201,1,107.999996704102,0|0,1:2|1:0,0:0:0:0:
502,346,187114,6,0,B|514:318|514:318|504:276,1,53.9999983520508,10|0,0:0|0:0,0:0:0:0:
433,306,187428,1,2,0:0:0:0:
365,340,187586,2,0,L|243:318,1,107.999996704102,2|2,1:2|1:2,0:0:0:0:
175,287,188057,2,0,L|177:359,1,53.9999983520508,0|2,0:0|1:2,0:0:0:0:
22,188,188371,6,0,L|17:131,1,53.9999983520508,8|0,0:0|3:0,0:0:0:0:
77,75,188607,1,0,3:0:0:0:
81,64,188685,1,2,0:3:0:0:
0,62,188842,1,0,1:2:0:0:
149,140,188999,5,2,1:2:0:0:
225,1,189156,2,0,L|336:13,1,107.999996704102,0|2,1:2|1:2,0:0:0:0:
504,170,189627,2,0,L|442:165,1,53.9999983520508,10|0,0:0|0:0,0:0:0:0:
375,200,189942,1,2,0:0:0:0:
258,89,190099,1,2,1:2:0:0:
287,179,190256,1,0,0:0:0:0:
221,246,190413,2,0,L|116:270,1,107.999996704102,2|2,1:2|1:2,0:0:0:0:
284,357,190884,6,0,L|293:301,1,53.9999983520508,8|0,0:0|3:0,0:0:0:0:
371,258,191120,1,0,3:0:0:0:
381,249,191198,1,2,0:3:0:0:
295,230,191355,1,0,1:0:0:0:
419,344,191512,5,2,1:2:0:0:
495,212,191669,2,0,L|513:97,1,107.999996704102,2|2,1:2|1:2,0:0:0:0:
257,10,192141,6,0,B|253:37|253:37|264:61,1,53.9999983520508,10|0,0:0|0:0,0:0:0:0:
338,106,192455,1,2,0:0:0:0:
260,148,192613,2,0,L|138:126,1,107.999996704102,2|2,1:2|1:2,0:0:0:0:
88,83,193083,1,0,0:2:0:0:
196,191,193240,1,0,1:2:0:0:
0,298,193397,6,0,L|16:237,1,53.9999983520508,8|0,0:0|3:0,0:0:0:0:
90,211,193633,1,0,3:0:0:0:
96,198,193711,1,2,0:3:0:0:
164,267,193868,1,0,1:2:0:0:
314,194,194025,5,0,1:2:0:0:
281,336,194182,1,0,1:2:0:0:
256,192,194261,12,0,195910,0:0:0:0:
489,348,196538,5,2,0:0:0:0:
489,348,197795,6,0,B|414:333|414:333|393:298|393:298|313:282,1,188.999994232178,6|0,1:2|0:0,0:0:0:0:
209,340,198423,6,0,B|247:330|271:350|271:350|318:280|252:231,1,188.999994232178,6|0,1:2|0:0,0:0:0:0:
177,259,199052,6,0,B|80:253|137:327|23:326,1,161.999995056153,6|0,1:2|1:2,0:0:0:0:
3,254,199601,5,0,1:2:0:0:
0,235,199680,2,0,P|33:171|139:194,1,188.999994232178,10|0,0:2|0:0,0:0:0:0:
177,259,200308,6,0,B|234:252|234:252|263:268|263:268|327:259,1,135,6|0,1:2|0:0,0:0:0:0:
380,312,200622,2,0,L|388:163,1,135,6|0,1:2|0:0,0:0:0:0:
380,90,200936,2,0,P|456:99|445:180,1,135,6|0,1:2|0:0,0:0:0:0:
387,177,201250,2,0,B|309:181|344:125|244:125,1,135,6|0,1:2|0:0,0:0:0:0:
191,146,201565,5,6,1:2:0:0:
134,91,201722,2,0,L|139:26,1,53.9999983520508,0|0,1:2|0:0,0:0:0:0:
13,182,202036,1,0,1:2:0:0:
68,237,202193,2,0,L|190:225,1,107.999996704102,10|2,0:0|1:2,0:0:0:0:
383,346,202664,6,0,L|394:268,1,53.9999983520508,8|2,0:0|1:2,0:0:0:0:
294,358,202978,2,0,L|310:232,1,107.999996704102,8|0,0:0|1:2,0:0:0:0:
512,120,203449,2,0,L|506:180,1,53.9999983520508,10|0,0:0|1:2,0:0:0:0:
363,196,203764,2,0,P|328:172|287:172,1,80.9999975280763,14|0,0:0|0:0,0:0:0:0:
230,222,204078,6,0,L|169:212,1,45,0|8,1:2|0:0,0:0:0:0:
7,107,204235,1,8,0:0:0:0:
7,107,204313,1,8,0:0:0:0:
7,107,204392,2,0,L|17:164,1,45,2|8,1:2|0:0,0:0:0:0:
105,324,204549,2,0,L|112:279,1,45,8|8,0:0|0:0,0:0:0:0:
192,64,204706,5,8,1:3:0:0:
217,41,204784,1,8,0:0:0:0:
249,32,204863,1,8,0:0:0:0:
282,37,204941,1,8,0:0:0:0:
310,55,205020,5,8,0:0:0:0:
326,71,205098,1,8,1:3:0:0:
346,81,205177,1,8,1:3:0:0:
368,86,205255,1,4,1:3:0:0:
390,84,205334,2,0,L|396:29,1,45,14|0,0:0|0:0,0:0:0:0:
480,224,205491,5,0,1:2:0:0:
497,265,205569,1,0,1:2:0:0:
492,309,205648,1,0,1:2:0:0:
466,345,205726,1,0,1:0:0:0:
426,365,205805,1,8,0:0:0:0:
382,362,205883,1,8,0:0:0:0:
344,339,205963,2,0,L|335:288,1,49.5000015106202,8|8,0:0|0:0,0:0:0:0:
192,88,206120,5,8,0:0:0:0:
147,49,206198,1,8,0:0:0:0:
89,41,206277,1,10,0:0:0:0:
35,64,206355,1,8,0:0:0:0:
2,113,206434,1,8,0:0:0:0:
0,171,206512,1,8,0:0:0:0:
30,221,206591,1,2,0:0:0:0:
16,368,206748,5,0,1:0:0:0:
16,368,206826,1,0,1:0:0:0:
16,368,206905,2,0,B|84:360|84:360|119:326|119:326|190:318,1,188.999994232178,14|0,0:0|0:0,0:0:0:0:
260,364,207219,5,2,1:2:0:0:
300,118,207376,1,0,0:0:0:0:
471,384,207533,1,10,0:0:0:0:
511,138,207690,1,0,0:0:0:0:
245,217,207847,6,0,P|193:228|140:239,1,107.999996704102,2|0,1:2|0:0,0:0:0:0:
0,121,208161,1,10,0:0:0:0:
156,0,208319,1,2,0:0:0:0:
156,0,208397,1,2,0:0:0:0:
156,0,208476,2,0,B|193:42|193:42|173:126,1,107.999996704102,2|0,1:2|0:0,0:0:0:0:
50,338,208790,6,0,B|74:298|131:293|131:293|160:324|226:317,1,161.999995056153,10|0,0:0|0:0,0:0:0:0:
267,369,209104,6,0,L|288:249,1,107.999996704102,2|0,1:2|0:0,0:0:0:0:
264,144,209418,1,10,0:0:0:0:
163,308,209575,1,2,0:0:0:0:
178,313,209653,1,2,0:0:0:0:
190,317,209732,1,2,1:2:0:0:
390,240,209889,1,0,0:0:0:0:
243,37,210046,2,0,P|253:89|263:143,1,107.999996704102,10|0,0:0|0:0,0:0:0:0:
136,384,210360,5,2,1:2:0:0:
64,160,210517,1,0,0:0:0:0:
285,262,210674,2,0,P|347:248|401:239,1,107.999996704102,8|2,0:0|0:0,0:0:0:0:
472,232,210910,1,2,0:0:0:0:
495,239,210989,1,2,1:2:0:0:
315,91,211146,1,0,0:0:0:0:
276,315,211303,5,10,0:0:0:0:
276,315,211381,1,8,0:0:0:0:
276,315,211460,2,0,L|290:227,1,53.9999983520508,8|8,0:0|0:0,0:0:0:0:
34,88,211617,5,6,1:2:0:0:
72,351,211774,1,0,0:0:0:0:
230,42,211931,5,12,0:0:0:0:
276,315,212088,1,0,0:0:0:0:
0,232,212245,6,0,P|53:238|105:251,1,107.999996704102,2|0,1:2|0:0,0:0:0:0:
230,42,212559,2,0,P|177:55|124:61,1,107.999996704102,10|0,0:0|0:0,0:0:0:0:
184,312,212874,5,6,1:2:0:0:
34,117,213031,1,0,0:0:0:0:
193,322,213188,2,0,L|309:296,1,107.999996704102,10|0,0:0|0:0,0:0:0:0:
506,248,213502,5,2,1:2:0:0:
254,150,213659,1,0,0:0:0:0:
442,11,213816,1,10,0:0:0:0:
343,244,213973,5,2,0:0:0:0:
343,244,214052,1,2,0:0:0:0:
343,244,214130,2,0,P|354:293|365:371,1,107.999996704102,4|0,1:2|0:0,0:0:0:0:
466,97,214444,2,0,P|395:40|290:66,1,161.999995056153,10|0,0:0|0:0,0:0:0:0:
248,0,214758,6,0,L|227:129,1,107.999996704102,6|0,1:2|0:0,0:0:0:0:
22,250,215072,2,0,L|1:121,1,107.999996704102,10|0,0:0|0:0,0:0:0:0:
315,177,215387,5,6,1:2:0:0:
350,170,215465,1,8,0:0:0:0:
386,163,215544,1,8,0:0:0:0:
422,156,215622,1,8,0:0:0:0:
458,150,215701,2,0,L|442:233,1,53.9999983520508,0|8,1:2|0:0,0:0:0:0:
336,328,215858,2,0,L|320:245,1,53.9999983520508,8|8,0:0|0:0,0:0:0:0:
227,62,216015,5,0,1:2:0:0:
185,28,216093,1,0,1:2:0:0:
133,14,216172,1,8,0:0:0:0:
80,22,216250,1,8,0:0:0:0:
36,52,216329,1,8,0:2:0:0:
7,97,216407,1,8,0:0:0:0:
0,150,216486,1,8,0:2:0:0:
15,202,216564,1,8,0:0:0:0:
50,242,216643,6,0,B|119:230|119:230|164:259|164:259|272:242,1,198.000006042481,4|8,1:2|0:0,0:0:0:0:
497,209,217114,1,0,0:0:0:0:
497,209,217193,1,8,0:0:0:0:
497,209,217271,2,0,L|513:104,1,99.0000030212403,0|0,1:2|1:2,0:0:0:0:
335,18,217586,2,0,L|359:202,1,148.50000453186,8|0,0:0|0:0,0:0:0:0:
321,245,217900,6,0,P|362:222|433:231,1,99.0000030212403,0|0,1:2|1:2,0:0:0:0:
312,353,218214,1,8,0:0:0:0:
218,173,218371,1,0,0:0:0:0:
218,173,218449,1,8,0:0:0:0:
218,173,218528,2,0,L|200:310,1,99.0000030212403,0|0,1:2|1:2,0:0:0:0:
32,352,218842,2,0,L|14:215,1,99.0000030212403,8|0,0:0|0:0,0:0:0:0:
218,173,219157,5,0,1:2:0:0:
64,112,219314,1,0,1:2:0:0:
176,344,219471,2,0,P|221:319|292:339,1,99.0000030212403,8|0,0:0|0:0,0:0:0:0:
336,384,219707,1,8,0:0:0:0:
336,384,219785,1,0,1:2:0:0:
400,152,219942,1,0,1:2:0:0:
504,304,220099,2,0,L|397:321,1,99.0000030212403,8|0,0:0|0:0,0:0:0:0:
287,80,220413,5,0,1:2:0:0:
248,289,220570,1,0,1:2:0:0:
291,60,220727,2,0,L|316:179,1,99.0000030212403,8|8,0:0|0:0,0:0:0:0:
323,197,220963,1,8,0:0:0:0:
323,197,221041,1,0,1:2:0:0:
232,384,221198,1,0,1:2:0:0:
48,280,221355,2,0,P|104:232|184:248,1,148.50000453186,14|0,0:0|0:0,0:0:0:0:
248,289,221669,6,0,L|360:273,1,99.0000030212403,6|0,1:2|1:2,0:0:0:0:
510,244,221983,1,10,0:0:0:0:
310,131,222141,1,2,0:0:0:0:
306,112,222219,1,10,0:0:0:0:
302,93,222298,1,2,1:2:0:0:
420,208,222455,1,0,1:0:0:0:
295,374,222612,2,0,B|247:352|247:352|176:369,1,99.0000030212403,10|0,0:0|0:0,0:0:0:0:
8,206,222926,5,2,1:2:0:0:
310,131,223083,1,0,1:2:0:0:
64,0,223240,1,10,0:0:0:0:
152,288,223397,5,0,0:0:0:0:
168,280,223476,1,8,0:0:0:0:
183,272,223554,2,0,L|295:288,1,99.0000030212403,2|0,1:2|1:2,0:0:0:0:
400,78,223868,2,0,L|301:92,1,99.0000030212403,10|0,0:0|0:0,0:0:0:0:
413,281,224182,5,2,1:2:0:0:
280,80,224339,1,0,1:2:0:0:
135,315,224497,6,0,L|302:281,1,148.50000453186,10|8,0:0|0:0,0:0:0:0:
352,328,224811,2,0,P|376:256|355:214,1,99.0000030212403,2|0,1:2|1:2,0:0:0:0:
176,56,225125,2,0,P|188:114|203:197,1,99.0000030212403,10|0,0:0|0:0,0:0:0:0:
58,366,225439,5,6,1:2:0:0:
296,202,225596,1,0,1:2:0:0:
0,160,225753,5,8,0:2:0:0:
254,280,225910,1,0,0:2:0:0:
112,8,226067,5,8,0:0:0:0:
46,284,226224,1,8,0:0:0:0:
93,296,226302,1,8,0:0:0:0:
139,281,226381,1,8,0:0:0:0:
171,243,226459,1,8,0:3:0:0:
202,205,226538,1,8,0:3:0:0:
248,190,226617,1,4,0:3:0:0:
296,202,226696,6,0,B|419:189|419:189|400:240,1,148.50000453186,6|0,1:2|0:0,0:0:0:0:
484,238,227010,1,10,0:0:0:0:
211,114,227167,1,2,1:2:0:0:
472,55,227324,5,10,0:0:0:0:
382,300,227481,1,0,0:0:0:0:
287,18,227638,5,8,0:0:0:0:
390,316,227795,1,0,0:0:0:0:
486,69,227952,2,0,L|364:86,1,99.0000030212403,14|0,0:0|0:0,0:0:0:0:
170,242,228266,2,0,L|269:256,1,99.0000030212403,10|0,0:0|0:0,0:0:0:0:
24,59,228580,5,8,0:0:0:0:
325,171,228737,1,0,1:2:0:0:
50,214,228894,5,10,0:0:0:0:
299,41,229052,1,0,1:2:0:0:
174,351,229209,6,0,L|159:235,1,99.0000030212403,14|2,0:0|0:0,0:0:0:0:
35,71,229523,1,10,0:0:0:0:
335,190,229680,1,2,1:2:0:0:
335,190,229758,1,0,1:2:0:0:
333,190,229837,2,0,L|470:207,1,99.0000030212403,14|0,0:0|1:2,0:0:0:0:
266,384,230151,2,0,L|129:367,1,99.0000030212403,14|0,0:0|0:0,0:0:0:0:
72,157,230465,6,0,P|141:119|211:164,1,148.50000453186,14|0,0:0|0:0,0:0:0:0:
250,208,230779,1,10,0:0:0:0:
487,46,230936,1,0,1:2:0:0:
366,276,231093,1,14,0:0:0:0:
231,49,231250,1,0,1:2:0:0:
231,49,231329,1,0,1:0:0:0:
231,49,231408,2,0,L|367:27,1,99.0000030212403,14|0,0:0|1:2,0:0:0:0:
133,227,231722,6,0,L|113:107,1,99.0000030212403,14|0,0:0|0:0,0:0:0:0:
349,373,232036,2,0,L|369:253,1,99.0000030212403,10|0,0:0|0:0,0:0:0:0:
63,287,232350,5,14,0:0:0:0:
268,150,232507,1,0,1:2:0:0:
217,384,232664,1,10,0:0:0:0:
11,134,232821,1,0,1:2:0:0:
11,134,232900,1,0,1:2:0:0:
11,134,232979,2,0,L|147:156,1,99.0000030212403,14|2,0:0|0:0,0:0:0:0:
375,267,233292,2,0,L|278:283,1,99.0000030212403,2|2,1:2|1:2,0:0:0:0:
136,68,233607,5,10,1:2:0:0:
190,355,233764,1,10,1:2:0:0:
474,312,233921,1,10,1:2:0:0:
422,26,234078,1,10,1:2:0:0:
327,181,234235,6,0,L|269:186,1,53.9999983520508,2|2,0:0|0:0,0:0:0:0:
90,262,234863,2,0,L|32:257,1,53.9999983520508,2|2,0:0|0:0,0:0:0:0:
181,220,235491,5,2,0:2:0:0:
